osu file format v14

[General]
AudioFilename: audio.mp3
AudioLeadIn: 0
PreviewTime: 48223
Countdown: 0
SampleSet: Soft
StackLeniency: 0.7
Mode: 0
LetterboxInBreaks: 0
WidescreenStoryboard: 0

[Editor]
DistanceSpacing: 1
BeatDivisor: 4
GridSize: 4
TimelineZoom: 1

[Metadata]
Title:adrenaline!!!
TitleUnicode:adrenaline!!!
Artist:TrySail
ArtistUnicode:TrySail
Creator:Rizia
Version:Extra
Source:エロマンガ先生
Tags:kawaiwkyik eromanga-sensei milan- regou rlc
BeatmapID:1294084
BeatmapSetID:613347

[Difficulty]
HPDrainRate:7
CircleSize:4
OverallDifficulty:8
ApproachRate:9.6
SliderMultiplier:1.8
SliderTickRate:1

[Events]
//Background and Video events
0,0,"bbbb.jpg",0,0
//Break Periods
2,86706,94251
2,161930,168385
2,208497,214057
//Storyboard Layer 0 (Background)
//Storyboard Layer 1 (Fail)
//Storyboard Layer 2 (Pass)
//Storyboard Layer 3 (Foreground)
//Storyboard Layer 4 (Overlay)
//Storyboard Sound Samples

[TimingPoints]
-359,223.880597014925,4,2,90,60,1,0
536,-133.333333333333,4,2,90,40,0,0
2327,-117.647058823529,4,2,90,50,0,0
3223,-111.111111111111,4,2,90,50,0,0
4342,-133.333333333333,4,2,90,60,0,0
4566,-125,4,2,90,60,0,0
4790,-117.647058823529,4,2,90,60,0,0
5014,-111.111111111111,4,2,90,60,0,0
7700,-100,4,2,90,60,0,0
16655,-111.111111111111,4,2,90,50,0,0
30984,-99.9999999999999,4,2,90,50,0,0
38148,-133.333333333333,4,2,90,50,0,0
40835,-76.9230769230769,4,2,90,50,0,0
41730,-100,4,2,90,50,0,0
48894,-83.3333333333333,4,2,90,60,0,0
77551,-133.333333333333,4,2,90,50,0,0
95461,-200,4,2,90,50,0,0
102626,-111.111111111111,4,2,90,50,0,0
109790,-100,4,2,90,50,0,0
116954,-133.333333333333,4,2,90,50,0,0
119640,-76.9230769230769,4,2,90,50,0,0
120536,-100,4,2,90,50,0,0
127700,-83.3333333333333,4,2,90,60,0,0
156357,-133.333333333333,4,2,90,60,0,0
169790,-100,4,2,90,50,0,0
170909,-133.333333333333,4,2,90,50,0,0
171581,-100,4,2,90,50,0,0
172476,-133.333333333333,4,2,90,50,0,0
173372,-83.3333333333333,4,2,90,50,0,0
174267,-100,4,2,90,50,0,0
175387,-133.333333333333,4,2,90,50,0,0
176058,-83.3333333333333,4,2,90,50,0,0
190387,-111.111111111111,4,2,90,50,0,0
204715,-100,4,2,90,50,0,0
215461,-142.857142857143,4,2,90,50,0,0
215685,-142.857142857143,4,2,90,40,0,0
216357,-117.647058823529,4,2,90,50,0,0
217252,-100,4,2,90,60,0,0
218148,-86.9565217391304,4,2,90,70,0,0
219043,-100,4,2,90,60,0,0
220835,-133.333333333333,4,2,90,60,0,0
224417,-100,4,2,90,60,0,0
226208,-83.3333333333333,4,2,90,60,0,0
236954,-133.333333333333,4,2,90,60,0,0
244118,-83.3333333333333,4,2,90,60,0,0
246245,-133.333333333333,4,2,90,60,0,0
246805,-100,4,2,90,60,0,0
247700,-133.333333333333,4,2,90,60,0,0

[Colours]
Combo1 : 0,128,128
Combo2 : 0,128,255
Combo3 : 255,128,192
Combo4 : 192,192,192

[HitObjects]
116,96,200,6,0,L|132:204,1,90,0|8,0:0|0:0,0:0:0:0:
116,96,536,6,0,L|192:104,1,67.5000025749208,4|0,0:0|0:0,0:0:0:0:
264,64,760,2,0,L|340:72,1,67.5000025749208,0|0,0:0|0:0,0:0:0:0:
256,156,984,2,0,L|332:164,1,67.5000025749208,0|0,0:0|0:0,0:0:0:0:
404,124,1208,2,0,L|480:132,1,67.5000025749208,0|0,0:0|0:0,0:0:0:0:
463,223,1432,6,0,L|387:215,1,67.5000025749208,0|0,0:0|0:0,0:0:0:0:
323,163,1656,2,0,L|255:155,1,67.5000025749208,0|0,0:0|0:0,0:0:0:0:
315,255,1880,2,0,L|247:247,1,67.5000025749208,0|0,0:0|0:0,0:0:0:0:
175,195,2104,2,0,L|99:187,1,67.5000025749208,0|0,0:0|0:0,0:0:0:0:
24,264,2327,6,0,L|36:364,1,76.5000014591217,4|0,0:0|0:0,0:0:0:0:
152,168,2551,2,0,L|164:268,1,76.5000014591217,0|0,0:0|0:0,0:0:0:0:
332,268,2775,2,0,L|344:368,1,76.5000014591217,0|0,0:0|0:0,0:0:0:0:
460,172,2999,2,0,L|472:272,1,76.5000014591217,0|0,0:0|0:0,0:0:0:0:
328,44,3223,6,0,L|316:144,1,80.9999975280763,0|0,0:0|0:0,0:0:0:0:
144,112,3446,2,0,L|156:212,1,80.9999975280763,0|0,0:0|0:0,0:0:0:0:
388,192,3670,2,0,L|376:292,1,80.9999975280763,0|0,0:0|0:0,0:0:0:0:
124,288,3894,2,0,L|136:388,1,80.9999975280763,0|0,0:0|0:0,0:0:0:0:
264,164,4118,5,12,0:0:0:0:
256,244,4230,1,8,0:0:0:0:
248,324,4342,2,0,L|176:336,1,67.5000025749208,8|0,0:0|0:0,0:0:0:0:
120,280,4566,2,0,L|40:266,1,72,8|0,0:0|0:0,0:0:0:0:
104,164,4790,2,0,P|92:116|108:68,1,76.5000014591217,8|8,0:0|0:0,0:0:0:0:
248,88,5014,5,8,0:0:0:0:
324,56,5126,1,8,0:0:0:0:
312,136,5238,2,0,L|404:152,1,80.9999975280763,8|8,0:0|0:0,0:0:0:0:
260,204,5461,5,8,0:0:0:0:
416,240,5573,1,8,0:0:0:0:
272,288,5685,2,0,L|180:304,1,80.9999975280763,8|8,0:0|0:0,0:0:0:0:
352,308,5909,5,8,0:0:0:0:
352,308,6245,1,8,0:0:0:0:
352,308,6581,1,8,0:0:0:0:
72,348,6805,6,0,P|40:304|144:328,1,242.999992584229,8|0,0:0|0:0,0:0:0:0:
164,328,7252,2,0,L|192:52,1,242.999992584229,4|0,1:2|0:0,0:0:0:0:
280,24,7700,6,0,P|288:72|296:140,1,90,4|0,0:0|0:0,0:0:0:0:
312,228,7924,2,0,P|360:208|496:272,1,180,8|0,0:0|0:0,0:0:0:0:
384,336,8260,1,0,0:0:0:0:
384,336,8372,1,8,0:0:0:0:
284,200,8484,6,0,B|260:352|260:352|232:304,1,180,0|0,0:0|0:0,0:0:0:0:
120,216,8820,2,0,L|100:112,1,90,8|0,0:0|0:0,0:0:0:0:
84,320,9043,2,0,P|32:340|-4:376,1,90,0|0,0:0|0:0,0:0:0:0:
232,296,9267,2,0,P|256:252|256:192,1,90,8|0,0:0|0:0,0:0:0:0:
368,120,9491,6,0,L|468:100,1,90,0|0,0:0|0:0,0:0:0:0:
440,328,9715,2,0,L|351:345,1,90,8|0,0:0|0:0,0:0:0:0:
196,164,9939,1,0,0:0:0:0:
272,252,10051,2,0,L|360:234,1,90,0|8,0:0|0:0,0:0:0:0:
72,364,10275,6,0,B|40:316|40:316|72:192,1,180,0|0,0:0|0:0,0:0:0:0:
244,16,10611,2,0,P|260:52|252:112,1,90,8|0,0:0|0:0,0:0:0:0:
144,244,10835,2,0,P|167:212|223:189,1,90,0|0,0:0|0:0,0:0:0:0:
356,96,11058,2,0,P|351:135|314:183,1,90,8|0,0:0|0:0,0:0:0:0:
244,304,11282,6,0,P|288:272|432:288,1,180,0|8,0:0|0:0,0:0:0:0:
60,84,11730,1,0,0:0:0:0:
60,84,11842,2,0,P|76:132|72:200,1,90,0|8,0:0|0:0,0:0:0:0:
100,372,12066,2,0,B|136:328|112:252|112:252|124:292|176:320,1,180,0|0,0:0|0:0,0:0:0:0:
228,232,12402,2,0,P|244:280|240:348,1,90,8|0,0:0|0:0,0:0:0:0:
344,120,12626,2,0,P|332:184|328:252,1,90,0|0,0:0|0:0,0:0:0:0:
240,40,12849,2,0,P|284:34|328:25,1,90,8|0,0:0|0:0,0:0:0:0:
168,136,13073,6,0,P|123:126|79:121,1,90,0|0,0:0|0:0,0:0:0:0:
136,340,13297,2,0,B|156:300|156:300|144:244,1,90,8|0,0:0|0:0,0:0:0:0:
104,176,13521,1,0,0:0:0:0:
240,320,13633,1,0,0:0:0:0:
56,288,13745,1,8,0:0:0:0:
240,208,13857,6,0,P|288:192|384:288,1,180,0|8,0:0|0:0,0:0:0:0:
452,348,14193,1,8,0:0:0:0:
480,208,14305,1,8,0:0:0:0:
296,280,14417,2,0,L|288:380,1,90,8|0,0:0|0:0,0:0:0:0:
120,168,14640,2,0,L|128:268,1,90,8|0,0:0|0:0,0:0:0:0:
396,48,14864,6,2,L|380:236,2,180,0|0|2,0:0|0:0|0:0,0:0:0:0:
48,60,15536,1,0,0:0:0:0:
48,60,15648,2,0,B|140:36|128:104|224:76,1,180,2|0,0:0|0:0,0:0:0:0:
296,128,15984,2,0,L|285:259,1,90,0|0,0:0|0:0,0:0:0:0:
128,336,16208,2,0,P|88:300|172:276,1,180,10|0,0:0|0:0,0:0:0:0:
252,300,16543,1,0,0:0:0:0:
340,288,16655,5,4,0:0:0:0:
84,144,16879,1,8,0:0:0:0:
300,8,17103,2,0,P|312:44|304:100,2,80.9999975280763,0|0|8,0:0|0:0|0:0,0:0:0:0:
216,60,17439,6,0,P|196:104|204:228,1,161.999995056153,0|0,0:0|0:0,0:0:0:0:
84,144,17775,2,0,P|48:124|4:120,1,80.9999975280763,8|0,0:0|0:0,0:0:0:0:
52,288,17999,2,0,P|89:279|160:268,1,80.9999975280763,0|0,0:0|0:0,0:0:0:0:
284,232,18223,2,0,P|276:271|267:311,1,80.9999975280763,8|0,0:0|0:0,0:0:0:0:
428,260,18446,6,0,P|420:212|404:92,2,161.999995056153,0|8|0,0:0|0:0|0:0,0:0:0:0:
400,336,19006,1,0,0:0:0:0:
320,320,19118,1,8,0:0:0:0:
380,180,19230,6,0,B|352:200|352:200|332:180|332:180|292:224|212:204,1,161.999995056153,0|0,0:0|0:0,0:0:0:0:
264,116,19566,2,0,P|256:72|264:32,1,80.9999975280763,8|0,0:0|0:0,0:0:0:0:
140,224,19790,2,0,L|36:208,1,80.9999975280763,0|0,0:0|0:0,0:0:0:0:
316,312,20014,2,0,L|420:296,1,80.9999975280763,8|0,0:0|0:0,0:0:0:0:
208,376,20238,6,0,L|224:192,1,161.999995056153,0|8,0:0|0:0,0:0:0:0:
188,140,20573,1,0,0:0:0:0:
88,216,20685,2,0,L|0:232,1,80.9999975280763,0|0,0:0|0:0,0:0:0:0:
96,40,20909,1,8,0:0:0:0:
148,128,21021,6,0,P|71:143|10:94,1,161.999995056153,0|0,0:0|0:0,0:0:0:0:
265,202,21357,2,0,P|283:165|289:125,1,80.9999975280763,8|0,0:0|0:0,0:0:0:0:
128,292,21581,2,0,P|176:316|232:312,1,80.9999975280763,0|0,0:0|0:0,0:0:0:0:
424,216,21805,2,0,P|376:240|320:236,1,80.9999975280763,8|0,0:0|0:0,0:0:0:0:
200,140,22029,5,0,0:0:0:0:
432,24,22252,2,0,B|460:84|460:84|432:192,1,161.999995056153,8|0,0:0|0:0,0:0:0:0:
160,208,22700,2,0,L|176:304,1,80.9999975280763,8|0,0:0|0:0,0:0:0:0:
248,360,22924,6,0,P|200:328|84:336,2,161.999995056153,0|8|0,0:0|0:0|0:0,0:0:0:0:
368,96,23596,2,0,L|288:109,1,80.9999975280763,8|8,0:0|0:0,0:0:0:0:
208,124,23820,5,0,0:0:0:0:
20,336,24043,2,0,B|88:320|88:320|112:328|112:328|188:312,1,161.999995056153,12|0,0:0|0:0,0:0:0:0:
272,228,24379,1,0,0:0:0:0:
316,356,24491,1,8,0:0:0:0:
420,268,24603,2,0,P|448:216|416:108,1,161.999995056153,0|0,0:0|0:0,0:0:0:0:
320,56,24939,2,0,P|304:100|312:160,1,80.9999975280763,8|0,0:0|0:0,0:0:0:0:
280,236,25163,2,0,P|237:228|200:224,1,80.9999975280763,0|0,0:0|0:0,0:0:0:0:
44,160,25387,2,0,P|87:152|124:148,1,80.9999975280763,8|0,0:0|0:0,0:0:0:0:
216,344,25611,6,0,P|259:351|296:356,1,80.9999975280763,0|0,0:0|0:0,0:0:0:0:
400,128,25835,2,0,P|357:120|320:116,1,80.9999975280763,8|0,0:0|0:0,0:0:0:0:
199,223,26058,1,0,0:0:0:0:
320,316,26170,2,0,P|352:312|404:272,1,80.9999975280763,0|8,0:0|0:0,0:0:0:0:
360,64,26394,6,0,P|328:108|340:244,1,161.999995056153,0|0,0:0|0:0,0:0:0:0:
112,360,26730,2,0,L|128:268,1,80.9999975280763,8|0,0:0|0:0,0:0:0:0:
168,56,26954,2,0,L|181:135,1,80.9999975280763,0|0,0:0|0:0,0:0:0:0:
8,208,27178,2,0,P|56:200|104:192,1,80.9999975280763,8|0,0:0|0:0,0:0:0:0:
324,292,27402,6,0,P|260:276|132:272,1,161.999995056153,4|8,0:0|0:0,0:0:0:0:
336,128,27738,2,0,P|416:123|495:105,1,161.999995056153,0|0,0:0|0:0,0:0:0:0:
228,100,28073,2,0,P|208:148|200:212,1,80.9999975280763,8|0,0:0|0:0,0:0:0:0:
304,372,28297,6,0,P|297:320|272:261,1,80.9999975280763,4|0,0:0|0:0,0:0:0:0:
443,238,28521,2,0,P|419:192|375:145,1,80.9999975280763,8|0,0:0|0:0,0:0:0:0:
228,24,28745,1,0,0:0:0:0:
202,176,28857,2,0,P|238:196|294:204,1,80.9999975280763,0|8,0:0|0:0,0:0:0:0:
144,88,29081,1,0,0:0:0:0:
0,176,29193,6,0,B|44:184|68:156|68:156|112:204|176:184,1,161.999995056153,0|4,0:0|0:0,0:0:0:0:
448,136,29640,1,0,0:0:0:0:
304,192,29752,1,0,0:0:0:0:
352,44,29864,1,0,0:0:0:0:
432,160,29976,6,0,L|412:352,1,161.999995056153,8|8,0:0|0:0,0:0:0:0:
176,352,30312,1,8,0:0:0:0:
212,232,30424,1,8,0:0:0:0:
300,320,30536,1,0,0:0:0:0:
124,264,30648,1,0,0:0:0:0:
276,176,30760,1,0,0:0:0:0:
192,320,30872,1,0,0:0:0:0:
48,232,30984,6,0,B|28:192|28:192|36:136,1,90,4|0,0:0|0:0,0:0:0:0:
100,52,31208,2,0,L|188:68,1,90,10|0,0:0|0:0,0:0:0:0:
276,176,31432,2,0,L|364:160,1,90,0|0,0:0|0:0,0:0:0:0:
444,24,31655,2,0,P|460:68|448:132,1,90,10|0,0:0|0:0,0:0:0:0:
308,272,31879,6,0,P|263:274|221:259,1,90,0|0,0:0|0:0,0:0:0:0:
243,94,32103,2,0,P|268:131|276:176,1,90,10|0,0:0|0:0,0:0:0:0:
120,236,32327,2,0,P|139:195|174:167,1,90,0|0,0:0|0:0,0:0:0:0:
400,244,32551,2,0,P|402:288|387:330,1,90,10|0,0:0|0:0,0:0:0:0:
168,360,32775,6,0,P|212:332|272:332,1,90,0|0,0:0|0:0,0:0:0:0:
80,200,32999,2,0,P|56:252|68:316,1,90,10|0,0:0|0:0,0:0:0:0:
248,96,33223,2,0,L|232:4,1,90,0|0,0:0|0:0,0:0:0:0:
60,108,33446,2,0,L|152:124,1,90,10|0,0:0|0:0,0:0:0:0:
288,188,33670,6,0,L|376:172,1,90,0|0,0:0|0:0,0:0:0:0:
168,360,33894,2,0,B|161:317|161:317|177:273,1,90,10|0,0:0|0:0,0:0:0:0:
392,56,34118,2,0,B|408:100|408:100|401:142,1,90,0|0,0:0|0:0,0:0:0:0:
272,288,34342,1,10,0:0:0:0:
272,288,34454,1,0,0:0:0:0:
128,200,34566,6,0,L|144:92,1,90,0|0,0:0|0:0,0:0:0:0:
288,308,34790,2,0,L|272:200,1,90,10|0,0:0|0:0,0:0:0:0:
244,24,35014,2,0,L|230:113,1,90,0|0,0:0|0:0,0:0:0:0:
160,296,35238,2,0,P|96:284|52:280,1,90,10|0,0:0|0:0,0:0:0:0:
4,184,35461,6,0,P|68:172|112:168,1,90,0|0,0:0|0:0,0:0:0:0:
244,240,35685,2,0,P|260:284|252:344,1,90,10|0,0:0|0:0,0:0:0:0:
192,148,35909,2,0,L|208:36,1,90,0|0,0:0|0:0,0:0:0:0:
432,104,36133,2,0,B|392:128|392:128|336:116,1,90,10|0,0:0|0:0,0:0:0:0:
344,252,36357,6,0,P|412:244|508:332,1,180,0|10,0:0|0:0,0:0:0:0:
60,340,36805,1,0,0:0:0:0:
184,248,36917,1,0,0:0:0:0:
28,200,37029,1,10,0:0:0:0:
160,344,37140,1,0,0:0:0:0:
256,320,37252,6,0,P|264:268|268:212,1,90,0|0,0:0|0:0,0:0:0:0:
240,52,37476,1,10,0:0:0:0:
240,52,37588,1,0,0:0:0:0:
364,192,37700,1,0,0:0:0:0:
188,148,37812,1,0,0:0:0:0:
416,24,37924,1,10,0:0:0:0:
252,72,38036,1,0,0:0:0:0:
448,144,38148,6,0,P|460:172|452:228,1,67.5000025749208,4|0,0:0|0:0,0:0:0:0:
436,288,38372,2,0,P|417:312|365:333,1,67.5000025749208,0|0,0:0|0:0,0:0:0:0:
312,364,38596,2,0,L|152:352,1,135.000005149842,8|0,0:0|0:0,0:0:0:0:
44,72,39043,6,0,L|133:65,1,67.5000025749208,0|0,0:0|0:0,0:0:0:0:
208,164,39267,2,0,L|140:158,1,67.5000025749208,0|0,0:0|0:0,0:0:0:0:
40,200,39491,2,0,L|60:364,1,135.000005149842,8|0,0:0|0:0,0:0:0:0:
432,148,39939,6,0,P|448:112|444:68,1,67.5000025749208,0|0,0:0|0:0,0:0:0:0:
344,52,40163,2,0,P|304:56|268:81,1,67.5000025749208,0|0,0:0|0:0,0:0:0:0:
252,176,40387,2,0,P|300:208|396:192,1,135.000005149842,8|0,0:0|0:0,0:0:0:0:
432,148,40723,1,0,0:0:0:0:
432,148,40835,6,0,B|476:256|476:256|404:388,1,233.999989288331,4|0,0:0|0:0,0:0:0:0:
360,296,41170,2,0,B|256:240|256:240|155:296,1,233.999989288331,4|0,0:0|0:0,0:0:0:0:
92,359,41506,2,0,B|36:256|36:256|80:148,1,233.999989288331,4|4,0:0|0:0,0:0:0:0:
448,56,41954,5,0,0:0:0:0:
256,312,42178,1,8,0:0:0:0:
324,132,42402,1,0,0:0:0:0:
448,276,42626,1,4,0:0:0:0:
64,276,42849,1,0,0:0:0:0:
188,132,43073,1,8,0:0:0:0:
256,312,43297,1,0,0:0:0:0:
64,56,43521,5,4,0:0:0:0:
168,240,43745,1,0,0:0:0:0:
448,56,43969,1,8,0:0:0:0:
344,240,44193,1,0,0:0:0:0:
150,110,44417,6,0,P|256:39|362:111,2,270,4|0|0,0:0|0:0|0:0,0:0:0:0:
104,340,45312,6,0,L|212:328,1,90,4|0,0:0|0:0,0:0:0:0:
112,352,45536,2,0,L|220:340,1,90,0|0,0:0|0:0,0:0:0:0:
300,316,45760,2,0,L|408:304,1,90,0|0,0:0|0:0,0:0:0:0:
308,328,45984,2,0,L|416:316,1,90,0|0,0:0|0:0,0:0:0:0:
484,212,46208,5,8,0:0:0:0:
460,124,46320,1,8,0:0:0:0:
380,84,46432,1,8,0:0:0:0:
296,116,46543,1,8,0:0:0:0:
248,192,46655,1,8,0:0:0:0:
164,220,46767,1,8,0:0:0:0:
76,196,46879,1,8,0:0:0:0:
32,116,46991,1,8,0:0:0:0:
52,28,47103,5,8,0:0:0:0:
56,32,47439,1,8,0:0:0:0:
60,36,47775,1,8,0:0:0:0:
64,40,47999,6,0,B|140:24|140:24|248:80,1,180,4|8,0:0|0:0,0:0:0:0:
272,264,48335,1,8,0:0:0:0:
128,116,48446,1,8,0:0:0:0:
332,68,48558,1,8,0:0:0:0:
188,168,48670,1,8,0:0:0:0:
188,168,48894,6,0,L|56:152,1,107.999996704102,4|0,0:0|0:0,0:0:0:0:
336,292,49118,2,0,P|380:300|452:256,1,107.999996704102,10|0,0:0|0:0,0:0:0:0:
296,112,49342,2,0,B|320:64|320:64|304:0,1,107.999996704102,2|0,0:0|0:0,0:0:0:0:
368,204,49566,1,10,0:0:0:0:
184,320,49678,6,0,P|132:348|32:244,1,215.999993408203,2|0,0:0|0:0,0:0:0:0:
28,80,50014,2,0,P|68:56|148:64,1,107.999996704102,10|0,0:0|0:0,0:0:0:0:
368,204,50238,2,0,P|314:205|267:179,1,107.999996704102,2|0,0:0|0:0,0:0:0:0:
328,4,50461,2,0,B|352:52|352:52|336:116,1,107.999996704102,10|0,0:0|0:0,0:0:0:0:
180,288,50685,6,0,L|164:168,1,107.999996704102,2|0,0:0|0:0,0:0:0:0:
228,72,50909,1,8,0:0:0:0:
464,144,51021,2,0,P|420:184|372:332,1,215.999993408203,2|0,0:0|0:0,0:0:0:0:
180,288,51357,2,0,P|244:276|300:268,1,107.999996704102,10|0,0:0|0:0,0:0:0:0:
228,72,51581,6,0,P|222:125|219:179,1,107.999996704102,0|0,0:0|0:0,0:0:0:0:
84,336,51805,2,0,P|78:282|75:228,1,107.999996704102,10|0,0:0|0:0,0:0:0:0:
24,104,52029,2,0,P|76:108|152:132,1,107.999996704102,2|0,0:0|0:0,0:0:0:0:
286,269,52252,2,0,P|339:264|391:250,1,107.999996704102,10|0,0:0|0:0,0:0:0:0:
484,96,52476,6,0,P|472:44|316:68,1,215.999993408203,6|10,0:0|0:0,0:0:0:0:
216,80,52812,1,0,0:0:0:0:
368,216,52924,2,0,L|480:204,1,107.999996704102,2|2,0:0|0:0,0:0:0:0:
304,132,53148,1,8,0:0:0:0:
312,336,53260,6,0,B|224:324|224:324|188:332|188:332|64:316,1,215.999993408203,2|0,0:0|0:0,0:0:0:0:
216,80,53596,2,0,P|232:132|232:200,1,107.999996704102,10|0,0:0|0:0,0:0:0:0:
64,292,53820,2,0,P|48:240|48:172,1,107.999996704102,2|0,0:0|0:0,0:0:0:0:
136,20,54043,2,0,B|116:72|116:72|120:128,1,107.999996704102,10|0,0:0|0:0,0:0:0:0:
344,324,54267,6,0,B|364:272|364:272|360:216,1,107.999996704102,2|0,0:0|0:0,0:0:0:0:
176,280,54491,2,0,B|174:335|174:335|197:386,1,107.999996704102,12|0,0:0|0:0,0:0:0:0:
244,180,54715,2,0,P|192:160|112:176,1,107.999996704102,0|0,0:0|0:0,0:0:0:0:
296,312,54939,2,0,L|408:300,1,107.999996704102,8|0,0:0|0:0,0:0:0:0:
472,140,55163,6,0,P|484:88|472:28,1,107.999996704102,2|0,0:0|0:0,0:0:0:0:
246,74,55387,2,0,P|234:126|246:186,1,107.999996704102,10|0,0:0|0:0,0:0:0:0:
403,300,55611,1,2,0:0:0:0:
328,156,55723,1,0,0:0:0:0:
208,312,55835,2,0,L|80:304,1,107.999996704102,10|0,0:0|0:0,0:0:0:0:
28,84,56058,6,0,P|80:64|128:196,1,215.999993408203,4|8,0:0|0:0,0:0:0:0:
292,240,56394,1,0,0:0:0:0:
139,283,56506,2,0,P|85:280|32:272,1,107.999996704102,2|0,0:1|0:0,0:0:0:0:
248,368,56730,2,0,P|301:364|355:356,1,107.999996704102,8|0,0:0|0:0,0:0:0:0:
480,252,56954,6,0,P|476:198|468:144,1,107.999996704102,2|0,0:0|0:0,0:0:0:0:
284,143,57178,2,0,P|286:89|296:36,1,107.999996704102,8|0,0:0|0:0,0:0:0:0:
188,284,57402,2,0,P|238:264|286:240,1,107.999996704102,2|0,0:0|0:0,0:0:0:0:
456,260,57626,2,0,P|413:226|369:196,1,107.999996704102,10|0,0:0|0:0,0:0:0:0:
176,120,57849,6,0,P|140:172|-4:160,1,215.999993408203,0|8,0:0|0:0,0:0:0:0:
80,40,58185,1,0,0:0:0:0:
252,52,58297,2,0,B|268:104|268:104|264:180,1,107.999996704102,2|0,0:1|0:0,0:0:0:0:
104,332,58521,6,0,B|88:280|88:280|104:208,1,107.999996704102,8|0,0:0|0:0,0:0:0:0:
412,227,58745,2,0,B|424:280|424:280|408:332,1,107.999996704102,2|0,0:0|0:0,0:0:0:0:
132,200,58969,2,0,L|272:184,1,107.999996704102,8|0,0:0|0:0,0:0:0:0:
408,68,59193,1,2,0:0:0:0:
320,232,59305,1,0,0:0:0:0:
184,116,59417,2,0,B|168:64|168:64|184:12,1,107.999996704102,10|0,0:0|0:0,0:0:0:0:
440,172,59640,5,4,0:0:0:0:
320,232,59752,1,0,0:0:0:0:
400,336,59864,2,0,P|457:328|516:324,1,107.999996704102,8|0,0:0|0:0,0:0:0:0:
220,164,60088,5,4,0:0:0:0:
272,340,60200,1,0,0:0:0:0:
76,360,60312,2,0,P|68:302|64:244,1,107.999996704102,8|0,0:0|0:0,0:0:0:0:
168,40,60536,6,0,P|236:24|288:152,1,215.999993408203,4|8,0:0|0:0,0:0:0:0:
160,232,60872,1,0,0:0:0:0:
160,232,60984,2,0,L|40:216,1,107.999996704102,4|0,0:0|0:0,0:0:0:0:
254,277,61208,2,0,P|256:331|268:384,1,107.999996704102,8|0,0:0|0:0,0:0:0:0:
328,200,61432,6,0,P|340:148|216:44,1,215.999993408203,4|8,0:0|0:0,0:0:0:0:
156,276,61767,2,0,B|280:256|240:332|376:308,1,215.999993408203,4|0,0:0|0:0,0:0:0:0:
496,224,62103,2,0,L|480:100,1,107.999996704102,8|8,0:0|0:0,0:0:0:0:
208,112,62327,5,0,0:0:0:0:
372,216,62439,1,8,0:0:0:0:
160,268,62551,1,8,0:0:0:0:
304,136,62663,1,8,0:0:0:0:
96,104,62775,1,0,0:0:0:0:
252,236,62887,1,0,0:0:0:0:
316,12,62999,2,0,B|332:60|332:60|320:136,1,107.999996704102,0|0,0:0|0:0,0:0:0:0:
76,332,63223,6,0,B|60:284|60:284|72:208,1,107.999996704102,4|0,0:0|0:0,0:0:0:0:
148,120,63446,2,0,L|272:132,1,107.999996704102,10|0,0:0|0:0,0:0:0:0:
352,280,63670,2,0,L|459:269,1,107.999996704102,2|0,0:0|0:0,0:0:0:0:
212,328,63894,1,10,0:0:0:0:
336,192,64006,6,0,P|360:140|264:28,1,215.999993408203,2|0,0:0|0:0,0:0:0:0:
52,56,64342,2,0,L|68:176,1,107.999996704102,10|0,0:0|0:0,0:0:0:0:
128,264,64566,2,0,L|248:248,1,107.999996704102,2|0,0:0|0:0,0:0:0:0:
416,172,64790,2,0,L|296:156,1,107.999996704102,10|0,0:0|0:0,0:0:0:0:
172,176,65014,6,0,P|228:168|360:308,1,215.999993408203,6|8,0:0|0:0,0:0:0:0:
350,256,65349,1,2,0:0:0:0:
188,376,65461,2,0,P|176:320|200:248,1,107.999996704102,2|0,0:0|0:0,0:0:0:0:
40,148,65685,2,0,P|78:190|93:264,1,107.999996704102,10|0,0:0|0:0,0:0:0:0:
420,188,65909,6,0,B|376:152|376:152|288:172,1,107.999996704102,0|0,0:0|0:0,0:0:0:0:
220,184,66133,2,0,L|240:60,1,107.999996704102,10|0,0:0|0:0,0:0:0:0:
360,0,66357,2,0,L|377:106,1,107.999996704102,2|0,0:0|0:0,0:0:0:0:
336,372,66581,2,0,P|342:321|353:265,1,107.999996704102,10|0,0:0|0:0,0:0:0:0:
112,204,66805,6,0,P|122:256|129:310,1,107.999996704102,4|0,0:0|0:0,0:0:0:0:
180,116,67029,2,0,P|126:109|73:98,1,107.999996704102,10|0,0:0|0:0,0:0:0:0:
224,240,67252,1,2,0:0:0:0:
348,164,67364,1,0,0:0:0:0:
288,348,67476,1,10,0:0:0:0:
168,156,67588,6,0,P|188:252|200:376,1,215.999993408203,2|0,0:0|0:0,0:0:0:0:
348,272,67924,2,0,P|400:264|472:256,1,107.999996704102,10|0,0:0|0:0,0:0:0:0:
512,136,68148,2,0,P|458:129|404:121,1,107.999996704102,2|0,0:0|0:0,0:0:0:0:
84,96,68372,1,10,0:0:0:0:
264,160,68484,1,0,0:0:0:0:
164,24,68596,6,0,B|184:100|184:100|168:156|168:156|196:256,1,215.999993408203,0|12,0:0|0:0,0:0:0:0:
216,360,68932,1,0,0:0:0:0:
388,223,69043,2,0,B|412:175|412:175|404:121,1,107.999996704102,0|0,0:0|0:0,0:0:0:0:
344,344,69267,2,0,L|476:328,1,107.999996704102,8|0,0:0|0:0,0:0:0:0:
172,252,69491,6,0,L|279:264,1,107.999996704102,2|0,0:1|0:0,0:0:0:0:
264,48,69715,2,0,P|236:96|260:168,1,107.999996704102,8|0,0:0|0:0,0:0:0:0:
464,224,69939,1,2,0:1:0:0:
376,64,70051,1,0,0:0:0:0:
500,100,70163,1,8,0:0:0:0:
340,188,70275,1,0,0:0:0:0:
452,356,70387,6,0,L|432:140,1,215.999993408203,4|8,0:0|0:0,0:0:0:0:
292,52,70723,1,0,0:0:0:0:
312,276,70835,2,0,L|322:168,1,107.999996704102,2|0,0:0|0:0,0:0:0:0:
164,72,71058,2,0,L|174:180,1,107.999996704102,8|0,0:0|0:0,0:0:0:0:
272,364,71282,6,0,P|328:360|384:348,1,107.999996704102,2|0,0:0|0:0,0:0:0:0:
472,208,71506,2,0,P|480:160|460:100,1,107.999996704102,8|0,0:0|0:0,0:0:0:0:
280,48,71730,1,2,0:0:0:0:
184,132,71842,1,0,0:0:0:0:
240,248,71954,2,0,B|296:260|296:260|344:239,1,107.999996704102,8|0,0:0|0:0,0:0:0:0:
152,100,72178,6,0,L|124:324,1,215.999993408203,4|8,0:0|0:0,0:0:0:0:
32,204,72514,1,0,0:0:0:0:
32,204,72626,2,0,P|80:156|228:168,1,215.999993408203,4|8,0:0|0:0,0:0:0:0:
324,244,72961,1,0,0:0:0:0:
432,192,73073,6,0,P|452:148|444:76,1,107.999996704102,4|0,0:0|0:0,0:0:0:0:
324,244,73297,2,0,P|352:283|418:312,1,107.999996704102,8|0,0:0|0:0,0:0:0:0:
332,124,73521,2,0,P|283:128|225:171,1,107.999996704102,4|0,0:0|0:0,0:0:0:0:
56,208,73745,2,0,L|68:84,1,107.999996704102,8|0,0:0|0:0,0:0:0:0:
234,160,73969,6,0,L|258:396,1,215.999993408203,4|8,0:0|0:0,0:0:0:0:
152,312,74305,1,0,0:0:0:0:
348,292,74417,2,0,L|464:308,1,107.999996704102,2|0,0:0|0:0,0:0:0:0:
432,92,74640,2,0,L|416:208,1,107.999996704102,8|0,0:0|0:0,0:0:0:0:
224,140,74864,6,0,B|276:120|276:120|340:132,1,107.999996704102,2|0,0:0|0:0,0:0:0:0:
168,300,75088,2,0,L|52:316,1,107.999996704102,10|0,0:0|0:0,0:0:0:0:
104,192,75312,1,2,0:0:0:0:
284,248,75424,1,0,0:0:0:0:
128,160,75536,2,0,L|116:48,1,107.999996704102,8|0,0:0|0:0,0:0:0:0:
412,64,75760,6,0,P|440:128|424:176,1,107.999996704102,2|0,0:0|0:0,0:0:0:0:
308,200,75984,2,0,P|356:236|360:388,1,215.999993408203,12|0,0:0|0:0,0:0:0:0:
104,336,76320,1,0,0:0:0:0:
48,220,76432,1,8,0:0:0:0:
148,140,76543,1,0,0:0:0:0:
244,276,76655,6,0,P|240:348|236:388,1,107.999996704102,0|8,0:0|0:0,0:0:0:0:
168,176,76879,1,8,0:0:0:0:
348,296,76991,1,8,0:0:0:0:
152,328,77103,1,8,0:0:0:0:
312,196,77215,1,8,0:0:0:0:
108,132,77327,2,0,L|-12:148,1,107.999996704102,0|0,0:0|0:0,0:0:0:0:
264,36,77551,6,0,L|356:48,1,67.5000025749208,4|0,0:0|0:0,0:0:0:0:
384,112,77775,2,0,L|450:120,1,67.5000025749208,0|0,0:0|0:0,0:0:0:0:
488,208,77999,2,0,L|508:364,1,135.000005149842,8|0,0:0|0:0,0:0:0:0:
232,372,78446,6,0,P|220:328|236:284,1,67.5000025749208,0|0,0:0|0:0,0:0:0:0:
256,216,78670,2,0,P|288:183|334:175,1,67.5000025749208,0|0,0:0|0:0,0:0:0:0:
400,184,78894,2,0,P|352:196|256:144,1,135.000005149842,8|0,0:0|0:0,0:0:0:0:
116,56,79342,6,0,L|192:40,1,67.5000025749208,0|0,0:0|0:0,0:0:0:0:
68,128,79566,2,0,L|-8:112,1,67.5000025749208,0|0,0:0|0:0,0:0:0:0:
116,200,79790,2,0,L|136:348,1,135.000005149842,8|0,0:0|0:0,0:0:0:0:
134,333,80126,1,0,0:0:0:0:
352,352,80238,6,0,B|364:320|364:320|356:280,1,67.5000025749208,0|0,0:0|0:0,0:0:0:0:
264,172,80461,2,0,B|252:204|252:204|260:244,1,67.5000025749208,0|0,0:0|0:0,0:0:0:0:
216,308,80685,2,0,L|296:316,1,67.5000025749208,8|0,0:0|0:0,0:0:0:0:
400,216,80908,2,0,L|320:208,1,67.5000025749208,0|0,0:0|0:0,0:0:0:0:
128,112,81133,6,0,P|156:64|352:76,1,270.000010299683,4|0,0:0|0:0,0:0:0:0:
472,316,82029,2,0,B|368:300|368:300|312:312|312:312|192:292,1,270.000010299683,4|0,0:0|0:0,0:0:0:0:
52,168,82924,6,0,L|32:20,1,135.000005149842,4|0,0:0|0:0,0:0:0:0:
128,56,83260,1,0,0:0:0:0:
128,56,83372,2,0,P|172:64|208:60,1,67.5000025749208,8|0,0:0|0:0,0:0:0:0:
336,104,83596,2,0,P|292:112|256:108,1,67.5000025749208,0|0,0:0|0:0,0:0:0:0:
139,219,83820,6,0,P|207:217|271:197,1,135.000005149842,0|0,0:0|0:0,0:0:0:0:
271,197,84155,1,0,0:0:0:0:
388,212,84267,2,0,P|368:256|368:304,1,67.5000025749208,8|0,0:0|0:0,0:0:0:0:
476,360,84491,2,0,L|466:293,1,67.5000025749208,0|0,0:0|0:0,0:0:0:0:
440,104,84715,5,8,0:0:0:0:
440,104,85051,1,8,0:0:0:0:
440,104,85387,1,8,0:0:0:0:
460,184,85611,6,0,B|383:194|363:122|363:122|351:170|299:178,1,202.500007724762,8|0,0:0|0:0,0:0:0:0:
268,236,86058,2,0,L|284:84,1,135.000005149842,8|0,0:0|0:0,0:0:0:0:
282,101,86506,1,4,0:0:0:0:
68,116,95461,5,4,0:0:0:0:
68,116,95685,1,0,0:0:0:0:
68,116,95909,2,0,P|116:144|212:64,1,180,0|0,0:0|0:0,0:0:0:0:
300,112,96581,2,0,L|288:216,2,90,0|0|0,0:0|0:0|0:0,0:0:0:0:
376,44,97252,6,0,P|404:88|396:144,1,90,0|0,0:0|0:0,0:0:0:0:
480,244,97700,2,0,L|376:232,1,90,0|0,0:0|0:0,0:0:0:0:
332,312,98036,2,0,P|284:284|188:364,1,180,0|0,0:0|0:0,0:0:0:0:
190,345,98596,5,0,0:0:0:0:
100,332,98820,1,0,0:0:0:0:
12,320,99043,5,0,0:0:0:0:
118,133,99267,2,0,B|156:110|156:110|201:119,1,90,0|0,0:0|0:0,0:0:0:0:
201,264,99715,1,0,0:0:0:0:
201,264,99827,2,0,B|156:273|156:273|118:250,1,90,0|0,0:0|0:0,0:0:0:0:
256,192,100163,2,0,L|352:192,2,90,0|0|0,0:0|0:0|0:0,0:0:0:0:
208,280,100835,6,0,L|224:328,1,45,0|0,0:0|0:0,0:0:0:0:
304,104,101058,2,0,L|288:56,1,45,0|0,0:0|0:0,0:0:0:0:
300,276,101282,2,0,L|337:309,1,45,0|0,0:0|0:0,0:0:0:0:
212,108,101506,2,0,L|174:74,1,45,0|0,0:0|0:0,0:0:0:0:
376,224,101730,2,0,L|425:234,1,45,0|0,0:0|0:0,0:0:0:0:
136,160,101954,2,0,L|86:149,1,45,0|0,0:0|0:0,0:0:0:0:
432,156,102178,5,8,0:0:0:0:
256,192,102290,1,8,0:0:0:0:
80,228,102402,1,0,0:0:0:0:
84,232,102626,5,4,0:0:0:0:
88,236,102849,2,0,P|140:248|236:176,1,161.999995056153,12|0,0:0|0:0,0:0:0:0:
336,248,103185,2,0,L|316:340,1,80.9999975280763,0|8,0:0|0:0,0:0:0:0:
424,112,103409,6,0,B|468:180|468:180|436:280,1,161.999995056153,0|0,0:0|0:0,0:0:0:0:
276,192,103745,2,0,P|320:164|364:172,1,80.9999975280763,8|0,0:0|0:0,0:0:0:0:
432,120,103969,2,0,P|424:76|420:36,1,80.9999975280763,0|0,0:0|0:0,0:0:0:0:
340,264,104193,2,0,P|332:308|328:348,1,80.9999975280763,8|0,0:0|0:0,0:0:0:0:
192,168,104417,6,0,P|148:160|108:156,1,80.9999975280763,0|0,0:0|0:0,0:0:0:0:
48,328,104640,2,0,P|88:323|128:316,1,80.9999975280763,8|0,0:0|0:0,0:0:0:0:
304,188,104864,2,0,P|299:147|292:107,1,80.9999975280763,0|0,0:0|0:0,0:0:0:0:
68,40,105088,1,8,0:0:0:0:
68,40,105200,6,0,P|48:113|111:156,1,161.999995056153,0|0,0:0|0:0,0:0:0:0:
192,208,105536,2,0,L|292:192,1,80.9999975280763,8|0,0:0|0:0,0:0:0:0:
372,120,105760,2,0,L|272:104,1,80.9999975280763,0|0,0:0|0:0,0:0:0:0:
200,28,105984,2,0,L|216:128,1,80.9999975280763,8|0,0:0|0:0,0:0:0:0:
272,344,106208,6,0,P|264:292|324:184,1,161.999995056153,4|8,0:0|0:0,0:0:0:0:
496,208,106543,2,0,P|428:220|364:292,1,161.999995056153,0|0,0:0|0:0,0:0:0:0:
309,195,106879,2,0,P|325:143|325:95,1,80.9999975280763,8|0,0:0|0:0,0:0:0:0:
456,240,107103,6,0,P|402:252|361:276,1,80.9999975280763,4|0,0:0|0:0,0:0:0:0:
276,348,107327,2,0,P|239:331|199:324,1,80.9999975280763,8|0,0:0|0:0,0:0:0:0:
56,172,107551,1,0,0:0:0:0:
56,172,107663,2,0,P|76:228|72:280,1,80.9999975280763,0|0,0:0|0:0,0:0:0:0:
192,184,107887,6,0,P|196:128|216:12,1,161.999995056153,0|0,0:0|0:0,0:0:0:0:
213,23,108223,2,0,L|120:40,1,80.9999975280763,12|0,0:0|0:0,0:0:0:0:
308,128,108446,1,0,0:0:0:0:
468,156,108558,1,0,0:0:0:0:
368,52,108670,1,0,0:0:0:0:
380,204,108782,6,0,L|404:392,1,161.999995056153,8|8,0:0|0:0,0:0:0:0:
204,336,109118,1,8,0:0:0:0:
304,320,109230,1,8,0:0:0:0:
176,248,109342,1,8,0:0:0:0:
200,360,109454,1,0,0:0:0:0:
280,224,109566,1,8,0:0:0:0:
100,176,109678,1,0,0:0:0:0:
36,264,109790,6,0,P|44:324|56:368,1,90,4|0,0:0|0:0,0:0:0:0:
191,159,110014,2,0,P|183:219|171:263,1,90,10|0,0:0|0:0,0:0:0:0:
304,320,110238,2,0,P|347:309|392:304,1,90,0|0,0:0|0:0,0:0:0:0:
492,224,110461,2,0,P|447:218|403:208,1,90,10|0,0:0|0:0,0:0:0:0:
208,120,110685,6,0,P|252:114|296:104,1,90,0|0,0:0|0:0,0:0:0:0:
400,20,110909,2,0,P|389:63|384:108,1,90,10|0,0:0|0:0,0:0:0:0:
292,300,111133,2,0,P|286:255|276:211,1,90,0|0,0:0|0:0,0:0:0:0:
128,68,111357,1,10,0:0:0:0:
128,68,111469,1,0,0:0:0:0:
24,184,111581,6,0,P|88:240|192:216,1,180,0|10,0:0|0:0,0:0:0:0:
276,211,111917,1,0,0:0:0:0:
208,124,112029,2,0,P|212:80|232:32,1,90,0|0,0:0|0:0,0:0:0:0:
388,212,112252,2,0,P|384:256|364:304,1,90,10|0,0:0|0:0,0:0:0:0:
236,324,112476,6,0,P|192:320|144:300,1,90,0|0,0:0|0:0,0:0:0:0:
124,172,112700,2,0,P|128:128|148:80,1,90,10|0,0:0|0:0,0:0:0:0:
276,60,112924,2,0,P|320:64|368:84,1,90,0|0,0:0|0:0,0:0:0:0:
388,212,113148,2,0,P|384:256|364:304,1,90,10|0,0:0|0:0,0:0:0:0:
236,324,113372,6,0,L|220:228,1,90,0|0,0:0|0:0,0:0:0:0:
276,60,113596,2,0,L|292:156,1,90,10|0,0:0|0:0,0:0:0:0:
472,243,113820,2,0,L|380:208,1,90,0|0,0:0|0:0,0:0:0:0:
220,312,114043,2,0,L|295:250,1,90,10|0,0:0|0:0,0:0:0:0:
168,112,114267,6,0,P|120:104|72:100,1,90,0|0,0:0|0:0,0:0:0:0:
96,300,114491,2,0,B|116:260|116:260|108:212,1,90,10|0,0:0|0:0,0:0:0:0:
168,112,114715,2,0,L|264:120,1,90,0|0,0:0|0:0,0:0:0:0:
360,240,114939,2,0,L|449:232,1,90,10|0,0:0|0:0,0:0:0:0:
256,384,115163,6,0,L|280:188,1,180,0|10,0:0|0:0,0:0:0:0:
356,44,115499,1,0,0:0:0:0:
472,124,115611,2,0,P|436:148|360:140,1,90,0|0,0:0|0:0,0:0:0:0:
277,205,115835,2,0,P|232:201|195:177,1,90,10|0,0:0|0:0,0:0:0:0:
148,32,116058,5,0,0:0:0:0:
260,112,116170,1,8,0:0:0:0:
96,188,116282,1,8,0:0:0:0:
160,72,116394,1,8,0:0:0:0:
184,268,116506,1,8,0:0:0:0:
56,172,116618,1,8,0:0:0:0:
252,200,116730,1,8,0:0:0:0:
80,280,116842,1,8,0:0:0:0:
260,368,116954,6,0,L|332:356,1,67.5000025749208,4|0,0:0|0:0,0:0:0:0:
404,376,117178,2,0,L|429:307,1,67.5000025749208,0|0,0:0|0:0,0:0:0:0:
488,256,117402,2,0,P|472:204|456:108,1,135.000005149842,8|0,0:0|0:0,0:0:0:0:
280,16,117849,6,0,P|256:48|256:104,1,67.5000025749208,0|0,0:0|0:0,0:0:0:0:
252,156,118073,2,0,P|267:192|316:220,1,67.5000025749208,0|0,0:0|0:0,0:0:0:0:
364,240,118297,2,0,P|424:244|496:220,1,135.000005149842,8|0,0:0|0:0,0:0:0:0:
272,356,118745,6,0,P|238:353|205:346,1,67.5000025749208,0|0,0:0|0:0,0:0:0:0:
124,364,118969,2,0,P|109:333|98:301,1,67.5000025749208,0|0,0:0|0:0,0:0:0:0:
132,228,119193,2,0,P|140:176|148:84,1,135.000005149842,8|0,0:0|0:0,0:0:0:0:
132,16,119529,1,0,0:0:0:0:
132,16,119640,6,0,P|48:32|96:172,1,233.999989288331,4|0,0:0|0:0,0:0:0:0:
148,256,119976,2,0,B|256:209|256:209|362:255,1,233.999989288331,4|0,0:0|0:0,0:0:0:0:
455,157,120312,2,0,P|480:53|380:16,1,233.999989288331,4|4,0:0|0:0,0:0:0:0:
148,256,120760,5,0,0:0:0:0:
408,96,120984,1,8,0:0:0:0:
104,96,121208,1,0,0:0:0:0:
364,256,121432,1,4,0:0:0:0:
72,348,121655,5,0,0:0:0:0:
256,144,121879,1,8,0:0:0:0:
440,348,122103,1,0,0:0:0:0:
128,224,122327,5,4,0:0:0:0:
256,36,122551,1,0,0:0:0:0:
384,224,122775,1,8,0:0:0:0:
149,78,122999,1,0,0:0:0:0:
362,78,123223,6,0,P|255:148|149:78,2,270,4|0|0,0:0|0:0|0:0,0:0:0:0:
49,195,124118,6,0,L|38:284,1,90,4|0,0:0|0:0,0:0:0:0:
49,358,124342,2,0,L|59:268,1,90,8|0,0:3|0:0,0:0:0:0:
161,165,124566,6,0,L|167:263,1,90,4|0,0:3|0:0,0:0:0:0:
191,340,124790,2,0,L|184:241,1,90,8|0,0:3|0:0,0:0:0:0:
273,77,125014,6,0,L|298:182,1,90,4|0,0:3|0:0,0:0:0:0:
338,260,125238,2,0,L|312:154,1,90,8|0,0:3|0:0,0:0:0:0:
360,4,125461,5,8,0:0:0:0:
448,228,125573,1,8,0:0:0:0:
328,152,125685,1,8,0:0:0:0:
372,384,125797,1,8,0:0:0:0:
95,271,125909,5,8,0:0:0:0:
99,275,126245,1,8,0:0:0:0:
103,279,126581,1,8,0:0:0:0:
107,283,126805,6,0,B|194:277|194:277|261:350,1,180,4|8,0:0|0:0,0:0:0:0:
296,178,127140,1,8,0:0:0:0:
158,361,127252,1,8,0:0:0:0:
162,154,127364,1,0,0:0:0:0:
348,265,127476,1,0,0:0:0:0:
348,265,127700,6,0,P|392:240|468:240,1,107.999996704102,4|0,0:0|0:0,0:0:0:0:
332,92,127924,2,0,P|278:88|231:62,1,107.999996704102,10|0,0:0|0:0,0:0:0:0:
52,184,128148,2,0,P|55:130|81:83,1,107.999996704102,2|0,0:0|0:0,0:0:0:0:
264,168,128372,1,10,0:0:0:0:
196,308,128484,6,0,P|156:348|4:340,1,215.999993408203,2|0,0:0|0:0,0:0:0:0:
156,157,128820,2,0,L|276:169,1,107.999996704102,10|0,0:0|0:0,0:0:0:0:
376,204,129043,2,0,B|396:248|396:248|384:312,1,107.999996704102,2|0,0:0|0:0,0:0:0:0:
228,64,129267,2,0,B|256:24|256:24|317:3,1,107.999996704102,10|0,0:0|0:0,0:0:0:0:
180,256,129491,6,0,B|131:251|131:251|82:208,1,107.999996704102,2|0,0:0|0:0,0:0:0:0:
180,144,129715,1,8,0:0:0:0:
72,344,129827,2,0,P|120:304|292:316,1,215.999993408203,2|0,0:0|0:0,0:0:0:0:
388,264,130163,2,0,L|400:376,1,107.999996704102,10|0,0:0|0:0,0:0:0:0:
284,88,130387,6,0,L|272:200,1,107.999996704102,0|0,0:0|0:0,0:0:0:0:
464,184,130611,2,0,P|420:156|348:160,1,107.999996704102,10|0,0:0|0:0,0:0:0:0:
180,312,130835,2,0,L|168:204,1,107.999996704102,2|0,0:0|0:0,0:0:0:0:
300,72,131058,2,0,L|288:180,1,107.999996704102,10|0,0:0|0:0,0:0:0:0:
188,336,131282,6,0,L|80:324,1,107.999996704102,6|0,0:0|0:0,0:0:0:0:
0,248,131506,2,0,P|44:216|132:232,1,107.999996704102,10|0,0:0|0:0,0:0:0:0:
424,208,131730,1,2,0:0:0:0:
300,360,131842,1,2,0:0:0:0:
228,180,131954,1,8,0:0:0:0:
372,284,132066,6,0,B|300:268|300:268|232:284|232:284|140:264,1,215.999993408203,2|0,0:0|0:0,0:0:0:0:
40,208,132402,2,0,P|51:262|60:320,1,107.999996704102,10|0,0:0|0:0,0:0:0:0:
228,136,132626,2,0,P|175:118|121:97,1,107.999996704102,2|0,0:0|0:0,0:0:0:0:
192,328,132849,2,0,P|233:291|278:254,1,107.999996704102,10|0,0:0|0:0,0:0:0:0:
352,88,133073,6,0,P|408:164|384:296,1,215.999993408203,2|12,0:0|0:0,0:0:0:0:
320,344,133409,1,0,0:0:0:0:
320,344,133521,2,0,P|256:340|188:332,1,107.999996704102,0|0,0:0|0:0,0:0:0:0:
20,260,133745,2,0,P|84:256|152:248,1,107.999996704102,8|0,0:0|0:0,0:0:0:0:
320,120,133969,6,0,P|256:116|188:108,1,107.999996704102,2|0,0:0|0:0,0:0:0:0:
84,40,134193,2,0,P|80:104|72:172,1,107.999996704102,10|0,0:0|0:0,0:0:0:0:
208,276,134417,1,2,0:0:0:0:
320,120,134529,1,0,0:0:0:0:
184,148,134640,1,10,0:0:0:0:
344,244,134752,1,0,0:0:0:0:
196,384,134864,6,0,L|220:156,1,215.999993408203,4|8,0:0|0:0,0:0:0:0:
232,48,135200,1,0,0:0:0:0:
424,136,135312,2,0,P|372:144|288:164,1,107.999996704102,2|0,0:1|0:0,0:0:0:0:
116,248,135536,2,0,P|169:256|222:267,1,107.999996704102,8|0,0:0|0:0,0:0:0:0:
328,352,135760,6,0,P|317:299|310:245,1,107.999996704102,2|0,0:0|0:0,0:0:0:0:
272,68,135984,2,0,P|231:103|188:136,1,107.999996704102,8|0,0:0|0:0,0:0:0:0:
84,227,136208,2,0,P|125:263|168:296,1,107.999996704102,2|0,0:0|0:0,0:0:0:0:
228,224,136432,1,10,0:0:0:0:
40,320,136543,1,0,0:0:0:0:
264,352,136655,6,0,P|320:336|480:312,1,215.999993408203,0|8,0:0|0:0,0:0:0:0:
424,184,136991,1,0,0:0:0:0:
440,88,137103,2,0,P|388:88|348:124,1,107.999996704102,2|0,0:1|0:0,0:0:0:0:
308,318,137327,2,0,P|320:266|304:216,1,107.999996704102,8|0,0:0|0:0,0:0:0:0:
248,132,137551,6,0,L|92:116,1,107.999996704102,2|0,0:0|0:0,0:0:0:0:
352,20,137775,2,0,L|244:31,1,107.999996704102,8|0,0:0|0:0,0:0:0:0:
132,235,137999,2,0,B|111:185|111:185|120:127,1,107.999996704102,2|0,0:0|0:0,0:0:0:0:
380,106,138223,2,0,B|401:156|401:156|391:213,1,107.999996704102,10|0,0:0|0:0,0:0:0:0:
183,312,138446,5,4,0:0:0:0:
296,166,138558,1,0,0:0:0:0:
280,364,138670,2,0,L|263:238,1,107.999996704102,8|0,0:0|0:0,0:0:0:0:
232,88,138894,5,4,0:0:0:0:
136,248,139006,1,0,0:0:0:0:
332,168,139118,2,0,P|385:174|439:182,1,107.999996704102,8|0,0:0|0:0,0:0:0:0:
232,0,139342,6,0,P|208:64|44:72,1,215.999993408203,4|8,0:0|0:0,0:0:0:0:
16,200,139678,1,0,0:0:0:0:
16,200,139790,2,0,P|24:260|44:336,1,107.999996704102,4|0,0:0|0:0,0:0:0:0:
244,196,140014,2,0,P|236:136|216:60,1,107.999996704102,8|0,0:0|0:0,0:0:0:0:
168,372,140238,6,0,P|274:356|382:348,1,215.999993408203,4|8,0:0|0:0,0:0:0:0:
492,239,140573,2,0,P|494:135|418:62,1,215.999993408203,4|0,0:0|0:0,0:0:0:0:
212,56,140909,2,0,P|199:108|193:162,1,107.999996704102,8|8,0:0|0:0,0:0:0:0:
308,320,141133,5,0,0:0:0:0:
288,136,141245,1,8,0:0:0:0:
204,308,141357,1,8,0:0:0:0:
364,200,141469,1,8,0:0:0:0:
172,176,141581,1,0,0:0:0:0:
336,36,141693,1,0,0:0:0:0:
256,236,141805,2,0,P|198:230|144:224,1,107.999996704102,0|0,0:0|0:0,0:0:0:0:
192,20,142029,6,0,P|218:67|219:121,1,107.999996704102,4|0,0:0|0:0,0:0:0:0:
48,288,142252,2,0,L|36:152,1,107.999996704102,10|0,0:0|0:0,0:0:0:0:
312,324,142476,2,0,P|258:332|206:347,1,107.999996704102,2|0,0:0|0:0,0:0:0:0:
460,296,142700,1,10,0:0:0:0:
320,204,142812,6,0,P|300:144|428:56,1,215.999993408203,2|0,0:0|0:0,0:0:0:0:
468,160,143148,2,0,B|484:208|484:208|468:280,1,107.999996704102,10|0,0:0|0:0,0:0:0:0:
224,356,143372,2,0,B|208:308|208:308|224:236,1,107.999996704102,2|0,0:0|0:0,0:0:0:0:
312,64,143596,2,0,P|328:124|332:208,1,107.999996704102,10|0,0:0|0:0,0:0:0:0:
296,308,143820,6,0,P|236:344|124:260,1,215.999993408203,6|8,0:0|0:0,0:0:0:0:
152,68,144155,1,2,0:0:0:0:
224,180,144267,2,0,L|332:169,1,107.999996704102,2|0,0:0|0:0,0:0:0:0:
468,76,144491,2,0,L|360:64,1,107.999996704102,10|0,0:0|0:0,0:0:0:0:
336,300,144715,6,0,P|328:240|396:96,1,215.999993408203,0|10,0:0|0:0,0:0:0:0:
460,220,145051,1,0,0:0:0:0:
460,220,145163,2,0,P|460:284|488:356,1,107.999996704102,2|0,0:0|0:0,0:0:0:0:
268,356,145387,2,0,P|212:324|136:312,1,107.999996704102,10|0,0:0|0:0,0:0:0:0:
212,136,145611,6,0,P|228:200|228:260,1,107.999996704102,4|0,0:0|0:0,0:0:0:0:
88,372,145835,2,0,P|51:317|30:260,1,107.999996704102,10|0,0:0|0:0,0:0:0:0:
124,48,146058,2,0,P|105:111|75:163,1,107.999996704102,2|0,0:0|0:0,0:0:0:0:
20,0,146282,1,10,0:0:0:0:
212,136,146394,6,0,B|352:168|280:84|448:120,1,215.999993408203,2|0,0:0|0:0,0:0:0:0:
477,206,146730,2,0,P|423:207|372:192,1,107.999996704102,10|0,0:0|0:0,0:0:0:0:
176,292,146954,2,0,P|229:293|281:277,1,107.999996704102,2|0,0:0|0:0,0:0:0:0:
464,300,147178,1,10,0:0:0:0:
248,164,147290,1,0,0:0:0:0:
352,88,147402,6,0,B|368:156|368:156|356:212|356:212|380:312,1,215.999993408203,0|12,0:0|0:0,0:0:0:0:
248,364,147738,1,0,0:0:0:0:
248,364,147849,2,0,L|264:232,1,107.999996704102,0|0,0:0|0:0,0:0:0:0:
136,44,148073,2,0,L|152:176,1,107.999996704102,8|0,0:0|0:0,0:0:0:0:
112,344,148297,6,0,P|123:288|205:250,1,107.999996704102,2|0,0:1|0:0,0:0:0:0:
442,134,148521,2,0,P|392:114|339:116,1,107.999996704102,8|0,0:0|0:0,0:0:0:0:
43,242,148745,2,0,P|83:193|132:172,1,107.999996704102,2|0,0:1|0:0,0:0:0:0:
434,257,148969,2,0,P|399:217|348:205,1,107.999996704102,8|0,0:0|0:0,0:0:0:0:
248,28,149193,6,0,L|228:268,1,215.999993408203,4|8,0:0|0:0,0:0:0:0:
84,324,149529,1,0,0:0:0:0:
84,324,149640,2,0,P|60:276|68:200,1,107.999996704102,2|0,0:0|0:0,0:0:0:0:
40,96,149864,2,0,P|93:99|155:144,1,107.999996704102,8|0,0:0|0:0,0:0:0:0:
256,176,150088,2,0,P|226:220|156:251,1,107.999996704102,2|0,0:0|0:0,0:0:0:0:
416,344,150312,6,0,P|364:324|300:308,1,107.999996704102,8|0,0:0|0:0,0:0:0:0:
476,184,150536,2,0,P|484:239|502:302,1,107.999996704102,2|0,0:0|0:0,0:0:0:0:
308,212,150760,2,0,P|351:176|397:129,1,107.999996704102,8|0,0:0|0:0,0:0:0:0:
228,8,150984,6,0,P|196:84|308:96,1,215.999993408203,4|8,0:0|0:0,0:0:0:0:
412,232,151320,1,0,0:0:0:0:
412,232,151432,2,0,B|328:220|328:220|280:236|280:236|176:220,1,215.999993408203,4|8,0:0|0:0,0:0:0:0:
48,160,151767,1,0,0:0:0:0:
48,160,151879,6,0,P|32:116|40:36,1,107.999996704102,4|0,0:0|0:0,0:0:0:0:
220,240,152103,2,0,L|100:256,1,107.999996704102,8|0,0:0|0:0,0:0:0:0:
188,352,152327,1,4,0:0:0:0:
336,248,152439,1,0,0:0:0:0:
120,140,152551,1,8,0:0:0:0:
356,64,152663,1,0,0:0:0:0:
248,0,152775,6,0,B|208:124|272:104|212:232,1,215.999993408203,4|8,0:0|0:0,0:0:0:0:
300,352,153111,1,0,0:0:0:0:
300,352,153223,2,0,P|353:351|405:335,1,107.999996704102,2|0,0:0|0:0,0:0:0:0:
508,176,153446,2,0,P|456:160|402:159,1,107.999996704102,8|0,0:0|0:0,0:0:0:0:
280,92,153670,6,0,L|296:232,1,107.999996704102,2|0,0:0|0:0,0:0:0:0:
176,312,153894,2,0,L|188:204,1,107.999996704102,10|0,0:0|0:0,0:0:0:0:
65,260,154118,2,0,L|72:368,1,107.999996704102,2|0,0:0|0:0,0:0:0:0:
192,176,154342,1,8,0:0:0:0:
12,128,154454,1,0,0:0:0:0:
200,324,154566,5,2,0:0:0:0:
200,324,154678,1,0,0:0:0:0:
200,324,154790,2,0,B|320:352|284:272|440:304,1,215.999993408203,12|0,0:0|0:0,0:0:0:0:
440,88,155126,1,0,0:0:0:0:
288,160,155238,1,8,0:0:0:0:
444,224,155349,1,0,0:0:0:0:
312,52,155461,6,0,L|328:192,1,107.999996704102,0|8,0:0|0:0,0:0:0:0:
164,288,155685,1,8,0:0:0:0:
200,128,155797,1,8,0:0:0:0:
148,304,155909,1,8,0:0:0:0:
191,111,156021,1,8,0:0:0:0:
196,364,156133,1,0,0:0:0:0:
104,156,156245,1,0,0:0:0:0:
40,312,156357,6,0,L|128:300,1,67.5000025749208,4|0,0:0|0:0,0:0:0:0:
188,340,156581,2,0,L|276:328,1,67.5000025749208,0|0,0:0|0:0,0:0:0:0:
332,248,156805,2,0,L|465:266,1,135.000005149842,8|0,0:0|0:0,0:0:0:0:
472,72,157252,6,0,L|384:84,1,67.5000025749208,0|0,0:0|0:0,0:0:0:0:
324,44,157476,2,0,L|236:56,1,67.5000025749208,0|0,0:0|0:0,0:0:0:0:
180,136,157700,2,0,L|46:117,1,135.000005149842,8|0,0:0|0:0,0:0:0:0:
144,364,158148,6,0,P|132:328|144:280,1,67.5000025749208,0|0,0:0|0:0,0:0:0:0:
56,256,158372,2,0,P|81:227|128:214,1,67.5000025749208,0|0,0:0|0:0,0:0:0:0:
232,320,158596,2,0,P|272:352|372:348,1,135.000005149842,8|0,0:0|0:0,0:0:0:0:
456,308,158932,1,0,0:0:0:0:
456,308,159043,6,0,L|448:236,1,67.5000025749208,0|0,0:0|0:0,0:0:0:0:
456,152,159267,2,0,L|384:160,1,67.5000025749208,0|0,0:0|0:0,0:0:0:0:
300,152,159491,2,0,L|308:224,1,67.5000025749208,8|0,0:0|0:0,0:0:0:0:
300,308,159715,2,0,L|372:300,1,67.5000025749208,0|0,0:0|0:0,0:0:0:0:
376,228,159939,6,0,P|336:176|136:200,1,270.000010299683,4|0,0:0|0:0,0:0:0:0:
264,376,160835,2,0,L|236:144,1,202.500007724762,4|8,0:0|0:3,0:0:0:0:
200,80,161282,6,0,L|276:88,1,67.5000025749208,8|0,0:0|0:0,0:0:0:0:
396,144,161506,2,0,L|320:152,1,67.5000025749208,8|0,0:0|0:0,0:0:0:0:
168,240,161730,1,4,0:0:0:0:
100,136,168894,5,4,0:0:0:0:
180,204,169118,2,0,L|188:120,1,67.5000025749208,0|0,0:0|0:0,0:0:0:0:
192,224,169342,2,0,L|240:155,1,67.5000025749208,8|0,0:0|0:0,0:0:0:0:
200,248,169566,2,0,L|276:212,1,67.5000025749208,0|0,0:0|0:0,0:0:0:0:
440,340,169790,6,0,P|384:352|260:300,1,180,4|0,0:0|0:0,0:0:0:0:
344,148,170126,2,0,P|400:136|524:188,1,180,4|0,0:0|0:0,0:0:0:0:
392,244,170461,1,4,0:0:0:0:
42,188,170685,5,4,0:0:0:0:
292,19,170909,2,0,P|306:56|307:108,1,67.5000025749208
331,46,171133,2,0,P|331:85|314:134,1,67.5000025749208,8|0,0:0|0:0,0:0:0:0:
362,81,171357,2,0,P|348:118|316:158,1,67.5000025749208,0|0,0:0|0:0,0:0:0:0:
432,200,171581,6,0,P|440:254|358:377,1,180,4|0,0:0|0:0,0:0:0:0:
239,198,171917,2,0,P|231:144|313:21,1,180,4|0,0:0|0:0,0:0:0:0:
334,249,172252,1,4,0:0:0:0:
56,346,172476,5,4,0:0:0:0:
64,248,172700,2,0,P|29:249|-9:276,1,67.5000025749208,0|0,0:0|0:0,0:0:0:0:
144,209,172924,2,0,P|125:179|83:159,1,67.5000025749208,8|0,0:0|0:0,0:0:0:0:
215,264,173148,2,0,P|231:233|227:186,1,67.5000025749208,0|0,0:0|0:0,0:0:0:0:
239,358,173372,6,0,B|324:349|324:349|355:360|355:360|454:351,1,215.999993408203,4|0,0:0|0:0,0:0:0:0:
458,269,173708,2,0,B|373:278|373:278|342:267|342:267|243:276,1,215.999993408203,8|8,0:0|0:3,0:0:0:0:
244,275,174043,1,0,0:0:0:0:
323,37,174267,6,0,P|367:32|426:68,1,90,4|0,0:0|0:0,0:0:0:0:
384,204,174491,2,0,P|340:209|281:173,1,90,8|0,0:0|0:0,0:0:0:0:
352,121,174715,1,8,0:0:0:0:
151,138,174827,1,0,0:0:0:0:
352,121,174939,1,0,0:0:0:0:
202,34,175051,2,0,L|182:217,1,180,4|0,0:0|0:0,0:0:0:0:
44,362,175387,6,0,L|27:224,2,135.000005149842,0|8|0,0:0|0:3|0:0,0:0:0:0:
192,125,176058,5,4,0:0:0:0:
345,244,176170,1,0,0:0:0:0:
378,72,176282,1,8,0:0:0:0:
257,288,176394,2,0,B|238:167|312:210|275:67,1,215.999993408203,0|0,0:0|0:0,0:0:0:0:
72,49,176730,2,0,P|44:102|55:160,1,107.999996704102,8|0,0:0|0:0,0:0:0:0:
92,324,176954,5,0,0:0:0:0:
188,231,177066,1,0,0:0:0:0:
103,213,177178,1,8,0:0:0:0:
201,247,177290,1,0,0:0:0:0:
174,148,177402,1,0,0:0:0:0:
214,263,177514,1,0,0:0:0:0:
163,361,177626,1,8,0:0:0:0:
299,231,177738,1,0,0:0:0:0:
106,185,177849,6,0,L|0:200,1,107.999996704102,0|0,0:0|0:0,0:0:0:0:
187,67,178073,2,0,L|293:52,1,107.999996704102,8|0,0:0|0:0,0:0:0:0:
492,152,178297,2,0,B|451:169|451:169|384:159,1,107.999996704102,0|0,0:0|0:0,0:0:0:0:
265,180,178521,2,0,P|335:182|450:282,1,215.999993408203,8|0,0:0|0:0,0:0:0:0:
333,369,178857,5,0,0:0:0:0:
186,358,178969,2,0,P|169:305|181:229,1,107.999996704102,8|0,0:0|0:0,0:0:0:0:
204,50,179193,1,0,0:0:0:0:
265,180,179305,1,0,0:0:0:0:
127,119,179417,1,8,0:0:0:0:
72,296,179529,1,0,0:0:0:0:
301,248,179640,6,0,L|191:233,1,107.999996704102,0|0,0:0|0:0,0:0:0:0:
11,162,179864,1,8,0:0:0:0:
179,78,179976,1,0,0:0:0:0:
223,346,180088,1,0,0:0:0:0:
381,189,180200,2,0,B|399:239|399:239|387:314,1,107.999996704102,0|8,0:0|0:0,0:0:0:0:
110,317,180424,6,0,B|75:257|75:257|110:83,1,215.999993408203,0|0,0:0|0:0,0:0:0:0:
303,24,180760,2,0,L|321:135,1,107.999996704102,8|0,0:0|0:0,0:0:0:0:
209,360,180984,2,0,L|191:249,1,107.999996704102,0|0,0:0|0:0,0:0:0:0:
428,204,181208,2,0,P|420:264|368:332,1,107.999996704102,8|0,0:0|0:0,0:0:0:0:
26,117,181432,6,0,P|76:99|144:110,1,107.999996704102,4|0,0:0|0:0,0:0:0:0:
301,214,181655,2,0,P|249:200|207:166,1,107.999996704102,8|0,0:0|0:0,0:0:0:0:
287,34,181879,1,0,0:0:0:0:
400,143,181991,2,0,P|419:183|409:268,1,107.999996704102,0|8,0:0|0:0,0:0:0:0:
216,370,182215,6,0,P|210:318|353:322,1,215.999993408203,0|0,0:0|0:0,0:0:0:0:
194,344,182551,2,0,L|51:331,1,107.999996704102,8|0,0:0|0:0,0:0:0:0:
341,192,182775,2,0,L|198:179,1,107.999996704102,8|0,0:0|0:0,0:0:0:0:
476,322,182999,2,0,L|333:309,1,107.999996704102,8|0,0:0|0:0,0:0:0:0:
38,97,183223,6,0,B|73:81|84:43|84:43|152:26|253:104,1,215.999993408203,4|8,0:0|0:0,0:0:0:0:
343,29,183558,1,0,0:0:0:0:
464,126,183670,2,0,L|340:144,1,107.999996704102,0|0,0:0|0:0,0:0:0:0:
287,240,183894,2,0,L|393:224,1,107.999996704102,8|0,0:0|0:0,0:0:0:0:
445,336,184118,5,0,0:0:0:0:
197,281,184230,1,0,0:0:0:0:
357,141,184342,1,8,0:0:0:0:
297,369,184454,2,0,B|284:300|284:300|300:267|300:267|278:154,1,215.999993408203,0|0,0:0|0:0,0:0:0:0:
115,28,184790,2,0,P|147:52|174:127,1,107.999996704102,8|0,0:0|0:0,0:0:0:0:
65,296,185014,6,0,L|82:184,1,107.999996704102,0|0,0:0|0:0,0:0:0:0:
168,371,185238,2,0,L|204:263,1,107.999996704102,8|0,0:0|0:0,0:0:0:0:
311,79,185461,1,0,0:0:0:0:
345,304,185573,2,0,B|357:249|357:249|322:184,1,107.999996704102,0|8,0:0|0:0,0:0:0:0:
406,26,185797,6,0,P|354:77|314:245,1,215.999993408203,0|0,0:0|0:0,0:0:0:0:
81,189,186133,2,0,B|129:180|172:201|172:201|222:238|238:176|218:159|175:174,1,215.999993408203,12|0,0:0|0:0,0:0:0:0:
93,94,186469,1,0,0:0:0:0:
126,287,186581,1,8,0:0:0:0:
76,74,186693,1,0,0:0:0:0:
1,290,186805,6,0,L|114:269,1,107.999996704102,4|0,0:0|0:0,0:0:0:0:
232,40,187029,2,0,L|193:148,1,107.999996704102,8|0,0:0|0:0,0:0:0:0:
272,384,187252,2,0,L|251:271,1,107.999996704102,0|0,0:0|0:0,0:0:0:0:
184,120,187476,1,8,0:0:0:0:
184,340,187588,6,0,B|248:252|248:252|348:304,1,215.999993408203,4|0,0:0|0:0,0:0:0:0:
500,256,187924,2,0,P|460:232|384:240,1,107.999996704102,8|0,0:0|0:0,0:0:0:0:
304,88,188148,2,0,L|324:204,1,107.999996704102,0|0,0:0|0:0,0:0:0:0:
396,380,188372,2,0,L|377:273,1,107.999996704102,8|0,0:0|0:0,0:0:0:0:
285,81,188596,6,0,L|325:192,1,107.999996704102,0|0,0:0|0:0,0:0:0:0:
504,140,188820,2,0,B|456:112|456:112|400:128,1,107.999996704102,12|0,0:0|0:0,0:0:0:0:
216,264,189043,1,0,0:0:0:0:
321,182,189155,1,0,0:0:0:0:
360,356,189267,1,8,0:0:0:0:
192,168,189379,6,0,P|183:281|176:383,1,215.999993408203,8|8,0:0|0:0,0:0:0:0:
104,32,189827,1,8,0:0:0:0:
224,280,189939,1,8,0:0:0:0:
296,92,190051,1,8,0:0:0:0:
156,168,190163,1,8,0:0:0:0:
360,216,190275,1,8,0:0:0:0:
208,304,190387,6,0,L|192:224,1,80.9999975280763,4|0,0:0|0:0,0:0:0:0:
460,156,190611,2,0,L|359:190,1,80.9999975280763,2|0,0:0|0:0,0:0:0:0:
428,360,190835,2,0,L|443:280,1,80.9999975280763
176,100,191059,2,0,L|276:134,1,80.9999975280763,2|0,0:0|0:0,0:0:0:0:
192,224,191282,6,0,P|152:248|32:252,1,161.999995056153,0|2,0:0|0:0,0:0:0:0:
0,156,191618,1,0,0:0:0:0:
80,96,191730,2,0,P|100:136|96:180,1,80.9999975280763
120,4,191954,2,0,P|157:28|175:68,1,80.9999975280763,2|0,0:0|0:0,0:0:0:0:
280,188,192178,6,0,P|306:152|309:109,1,80.9999975280763
336,32,192402,2,0,P|292:26|252:45,1,80.9999975280763,2|0,2:0|2:0,2:0:0:0:
173,60,192626,2,0,P|190:100|226:125,1,80.9999975280763,0|0,2:0|2:0,2:0:0:0:
248,272,192849,2,0,P|291:277|331:258,1,80.9999975280763,2|0,2:0|2:0,2:0:0:0:
504,208,193073,6,0,P|472:176|356:184,1,161.999995056153,0|2,0:0|0:0,0:0:0:0:
324,264,193409,1,0,0:0:0:0:
324,264,193521,2,0,P|336:308|328:352,1,80.9999975280763
144,360,193745,2,0,P|132:316|140:272,1,80.9999975280763,2|0,0:0|0:0,0:0:0:0:
216,192,193969,6,0,L|124:184,1,80.9999975280763
16,108,194193,2,0,L|108:100,1,80.9999975280763,2|0,0:0|0:0,0:0:0:0:
232,24,194417,2,0,L|224:104,1,80.9999975280763
324,264,194640,2,0,L|331:183,1,80.9999975280763,2|0,0:0|0:0,0:0:0:0:
196,256,194864,6,0,P|156:228|40:228,1,161.999995056153,0|2,0:0|0:0,0:0:0:0:
32,344,195200,1,0,0:0:0:0:
32,343,195312,2,0,P|68:327|109:325,1,80.9999975280763
272,312,195536,2,0,P|288:275|290:234,1,80.9999975280763,2|0,0:0|0:0,0:0:0:0:
200,84,195760,6,0,P|183:120|181:161,1,80.9999975280763
332,376,195984,2,0,P|359:346|375:308,1,80.9999975280763,2|0,0:0|0:0,0:0:0:0:
372,144,196208,1,0,0:0:0:0:
290,234,196320,1,0,0:0:0:0:
460,272,196432,1,2,0:0:0:0:
460,272,196543,1,0,0:0:0:0:
392,176,196655,6,0,L|388:84,1,80.9999975280763,2|2,0:0|0:0,0:0:0:0:
300,24,196879,1,2,0:0:0:0:
196,72,196991,1,2,0:0:0:0:
88,40,197103,1,2,0:0:0:0:
88,40,197327,1,4,0:0:0:0:
88,40,197551,6,0,P|116:96|104:212,1,161.999995056153,4|2,0:0|0:0,0:0:0:0:
88,304,197887,1,0,0:0:0:0:
88,304,197999,2,0,L|8:296,1,80.9999975280763
196,356,198223,2,0,L|276:348,1,80.9999975280763,2|0,0:0|0:0,0:0:0:0:
440,376,198446,6,0,P|464:340|448:204,1,161.999995056153,0|2,0:0|0:0,0:0:0:0:
300,84,198782,1,0,0:0:0:0:
296,272,198894,2,0,P|333:286|374:288,1,80.9999975280763
480,120,199118,2,0,P|439:122|401:136,1,80.9999975280763,2|0,0:0|0:0,0:0:0:0:
240,180,199342,6,0,L|260:12,1,161.999995056153,0|2,0:0|0:0,0:0:0:0:
128,64,199678,1,0,0:0:0:0:
128,64,199790,2,0,L|160:156,1,80.9999975280763
60,276,200014,2,0,L|74:158,1,80.9999975280763,2|0,0:0|0:0,0:0:0:0:
272,140,200238,6,0,L|252:300,1,161.999995056153,0|2,0:0|0:0,0:0:0:0:
168,220,200573,1,0,0:0:0:0:
368,136,200685,2,0,P|356:84|232:60,1,161.999995056153,0|2,0:0|0:0,0:0:0:0:
12,280,201133,6,0,B|44:288|72:264|72:264|100:324|184:320,1,161.999995056153,4|2,0:0|0:0,0:0:0:0:
244,201,201469,1,0,0:0:0:0:
244,201,201581,2,0,P|192:205|144:249,1,80.9999975280763
328,360,201805,2,0,P|345:323|346:283,1,80.9999975280763,2|0,0:0|0:0,0:0:0:0:
288,128,202029,6,0,P|276:84|352:4,1,161.999995056153,4|2,0:0|0:0,0:0:0:0:
512,88,202364,2,0,B|464:116|464:116|340:80,1,161.999995056153
380,192,202700,1,2,0:0:0:0:
448,20,202812,1,0,0:0:0:0:
484,216,202924,6,0,L|468:384,1,161.999995056153,4|2,0:0|0:0,0:0:0:0:
312,300,203260,1,0,0:0:0:0:
312,300,203372,2,0,L|408:292,1,80.9999975280763
196,172,203596,2,0,L|100:164,1,80.9999975280763,2|0,0:0|0:0,0:0:0:0:
308,20,203820,6,0,P|348:60|340:160,1,161.999995056153,4|2,0:0|0:0,0:0:0:0:
204,364,204155,2,0,P|164:324|172:224,1,161.999995056153
256,192,204491,1,0,0:0:0:0:
256,192,204603,1,0,0:0:0:0:
476,304,204715,6,0,L|284:320,1,180,4|0,0:0|0:0,0:0:0:0:
108,180,205051,1,0,0:0:0:0:
32,288,205163,2,0,L|211:273,1,180,4|0,0:0|0:0,0:0:0:0:
400,104,205499,1,0,0:0:0:0:
476,212,205611,2,0,L|296:197,1,180,4|0,0:0|0:0,0:0:0:0:
112,80,205946,1,0,0:0:0:0:
260,52,206058,1,8,0:0:0:0:
224,176,206170,1,8,0:0:0:0:
36,152,206282,1,8,0:0:0:0:
28,24,206394,1,8,0:0:0:0:
112,264,206506,5,8,0:0:0:0:
112,264,206842,1,8,0:0:0:0:
112,264,207178,1,8,0:0:0:0:
184,340,207402,6,0,B|240:364|240:364|312:376|400:344,1,180,4|8,0:0|0:0,0:0:0:0:
440,288,207738,1,8,0:0:0:0:
456,184,207849,1,8,0:0:0:0:
428,80,207961,1,8,0:0:0:0:
332,32,208073,1,8,0:0:0:0:
184,340,208297,5,4,0:0:0:0:
40,76,214566,5,0,0:0:0:0:
64,77,214677,1,0,0:0:0:0:
88,79,214789,1,0,0:0:0:0:
112,80,214901,1,0,0:0:0:0:
137,82,215013,1,0,0:0:0:0:
161,83,215125,1,0,0:0:0:0:
185,85,215237,1,0,0:0:0:0:
209,86,215349,1,0,0:0:0:0:
234,88,215461,6,0,L|244:160,1,62.9999980773926,4|0,0:0|0:0,0:0:0:0:
316,48,215685,2,0,L|326:120,1,62.9999980773926
390,244,215909,2,0,L|381:181,1,62.9999980773926
472,204,216133,2,0,L|463:141,1,62.9999980773926
424,328,216357,6,0,L|332:316,1,76.5000014591217,8|0,0:0|0:0,0:0:0:0:
264,252,216581,2,0,L|172:240,1,76.5000014591217,8|0,0:0|0:0,0:0:0:0:
252,348,216805,2,0,L|160:336,1,76.5000014591217,8|0,0:0|0:0,0:0:0:0:
92,272,217029,2,0,L|0:260,1,76.5000014591217,8|0,0:0|0:0,0:0:0:0:
68,16,217252,6,0,P|92:80|80:124,1,90,8|0,0:0|0:0,0:0:0:0:
188,84,217476,2,0,P|176:151|144:183,1,90,8|0,0:0|0:0,0:0:0:0:
260,204,217700,2,0,P|216:256|172:268,1,90,8|0,0:0|0:0,0:0:0:0:
260,344,217924,2,0,P|196:368|152:356,1,90,8|0,0:0|0:0,0:0:0:0:
8,320,218148,6,0,P|72:296|116:308,1,103.500001974106,8|0,0:0|0:0,0:0:0:0:
76,200,218372,2,0,P|143:211|175:243,1,103.500001974106,8|0,0:0|0:0,0:0:0:0:
196,128,218596,2,0,P|248:171|260:215,1,103.500001974106,8|0,0:0|0:0,0:0:0:0:
336,128,218820,2,0,P|360:191|348:235,1,103.500001974106,8|0,0:0|0:0,0:0:0:0:
464,296,219043,6,0,B|416:352|416:352|196:328,1,270,4|0,0:0|0:0,0:0:0:0:
104,376,219491,2,0,L|140:88,1,270,4|0,0:0|0:0,0:0:0:0:
220,20,219939,2,0,B|312:36|312:36|360:148|244:196,1,270,4|0,0:0|0:0,0:0:0:0:
168,128,220387,2,0,P|108:108|52:264,1,270,4|0,0:0|0:0,0:0:0:0:
128,360,220835,6,0,L|336:340,2,202.500007724762,4|8|8,0:0|0:0|0:0,0:0:0:0:
128,360,221730,6,0,P|112:320|120:268,1,67.5000025749208,0|8,0:0|0:0,0:0:0:0:
164,196,221954,1,8,0:0:0:0:
200,308,222066,1,0,0:0:0:0:
244,136,222178,1,8,0:0:0:0:
280,280,222290,1,0,0:0:0:0:
340,84,222402,1,8,0:0:0:0:
360,280,222514,1,0,0:0:0:0:
444,56,222626,1,0,0:0:0:0:
444,56,223073,6,0,L|432:216,1,135.000005149842,4|0,0:0|0:0,0:0:0:0:
480,272,223409,2,0,B|348:300|412:208|260:240,1,202.500007724762,8|8,0:0|0:3,0:0:0:0:
289,234,223969,1,8,0:0:0:0:
272,316,224081,1,8,0:0:0:0:
272,316,224193,1,0,0:0:0:0:
272,316,224305,1,0,0:0:0:0:
272,316,224417,6,0,P|220:348|96:336,1,180,4|0,0:0|0:0,0:0:0:0:
8,192,224752,2,0,B|72:152|152:180|152:180|104:228,1,180,4|0,0:0|0:0,0:0:0:0:
380,240,225088,2,0,P|332:236|244:112,1,180,4|0,0:0|0:0,0:0:0:0:
252,44,225424,1,0,0:0:0:0:
344,12,225536,5,8,0:0:0:0:
328,112,225648,1,8,0:0:0:0:
252,44,225760,1,8,0:0:0:0:
424,76,225872,1,8,0:0:0:0:
256,224,225984,1,8,0:0:0:0:
144,32,226096,1,8,0:0:0:0:
360,216,226208,6,0,L|376:336,1,107.999996704102,4|0,0:0|0:0,0:0:0:0:
152,224,226432,2,0,L|137:116,1,107.999996704102,10|0,0:0|0:0,0:0:0:0:
228,336,226655,2,0,P|181:360|35:287,1,215.999993408203,2|10,0:0|0:0,0:0:0:0:
121,10,226991,6,0,L|153:238,1,215.999993408203,2|0,0:0|0:0,0:0:0:0:
360,216,227327,2,0,P|320:192|248:196,1,107.999996704102,10|0,0:0|0:0,0:0:0:0:
100,312,227551,2,0,L|207:303,1,107.999996704102,2|0,0:0|0:0,0:0:0:0:
368,108,227775,2,0,L|360:216,1,107.999996704102,10|0,0:0|0:0,0:0:0:0:
132,332,227999,6,0,B|112:256|176:216|176:216|176:172|124:136,1,215.999993408203,4|8,0:0|0:0,0:0:0:0:
20,216,228335,1,0,0:0:0:0:
228,300,228446,2,0,P|272:280|348:292,1,107.999996704102,2|0,0:1|0:0,0:0:0:0:
456,316,228670,2,0,L|444:200,1,107.999996704102,8|0,0:0|0:0,0:0:0:0:
360,40,228894,6,0,B|336:92|336:92|356:160,1,107.999996704102,2|0,0:1|0:0,0:0:0:0:
152,344,229118,2,0,B|176:292|176:292|161:243,1,107.999996704102,8|0,0:0|0:0,0:0:0:0:
344,16,229342,2,0,B|349:73|349:73|400:121,1,107.999996704102,2|0,0:1|0:0,0:0:0:0:
168,368,229566,2,0,B|162:310|162:310|111:262,1,107.999996704102,8|0,0:0|0:0,0:0:0:0:
1,143,229790,6,0,B|116:116|88:196|209:169,1,215.999993408203,4|8,0:0|0:0,0:0:0:0:
168,72,230126,1,0,0:0:0:0:
344,220,230238,1,2,0:1:0:0:
385,108,230349,1,0,0:0:0:0:
232,180,230461,2,0,L|256:332,1,107.999996704102,8|0,0:0|0:0,0:0:0:0:
448,360,230685,6,0,L|464:253,1,107.999996704102,2|0,0:0|0:0,0:0:0:0:
487,73,230909,2,0,P|439:93|375:109,1,107.999996704102,8|0,0:0|0:0,0:0:0:0:
232,180,231133,2,0,P|273:211|319:258,1,107.999996704102,2|0,0:0|0:0,0:0:0:0:
443,358,231357,2,0,P|449:306|467:243,1,107.999996704102,10|0,0:0|0:0,0:0:0:0:
277,38,231581,6,0,P|293:110|313:262,1,215.999993408203,4|8,0:0|0:0,0:0:0:0:
240,372,231917,1,0,0:0:0:0:
4,248,232029,2,0,P|32:180|180:184,1,215.999993408203,4|8,0:0|0:0,0:0:0:0:
200,272,232364,1,0,0:0:0:0:
116,340,232476,6,0,P|96:288|108:220,1,107.999996704102,4|0,0:0|0:0,0:0:0:0:
108,52,232700,2,0,P|160:32|228:44,1,107.999996704102,8|0,0:0|0:0,0:0:0:0:
396,44,232924,2,0,P|416:96|404:164,1,107.999996704102,4|0,0:0|0:0,0:0:0:0:
404,332,233148,2,0,P|352:352|284:340,1,107.999996704102,8|0,0:0|0:0,0:0:0:0:
100,236,233372,6,0,B|144:136|144:136|252:200,1,215.999993408203,4|8,0:0|0:0,0:0:0:0:
352,220,233708,1,0,0:0:0:0:
188,272,233820,2,0,L|172:384,1,107.999996704102,2|0,0:0|0:0,0:0:0:0:
388,225,234043,2,0,L|404:337,1,107.999996704102,8|0,0:0|0:0,0:0:0:0:
328,84,234267,6,0,L|434:68,1,107.999996704102,2|0,0:0|0:0,0:0:0:0:
400,248,234491,2,0,L|293:232,1,107.999996704102,10|0,0:0|0:0,0:0:0:0:
48,120,234715,1,2,0:0:0:0:
204,76,234827,1,0,0:0:0:0:
252,232,234939,1,10,0:0:0:0:
96,276,235051,1,0,0:0:0:0:
156,176,235163,5,0,0:0:0:0:
196,336,235275,1,0,0:0:0:0:
196,336,235387,2,0,B|280:352|280:352|324:324|324:324|420:344,1,215.999993408203,12|0,0:0|0:0,0:0:0:0:
488,204,235723,1,0,0:0:0:0:
332,160,235835,1,8,0:0:0:0:
428,264,235946,1,0,0:0:0:0:
436,76,236058,6,0,P|420:136|404:196,1,107.999996704102,0|8,0:0|0:0,0:0:0:0:
240,280,236282,1,8,0:0:0:0:
332,160,236394,1,8,0:0:0:0:
228,96,236506,1,8,0:0:0:0:
320,252,236618,1,0,0:0:0:0:
136,288,236730,1,8,0:0:0:0:
256,192,236842,1,0,0:0:0:0:
244,372,236954,6,0,L|236:288,1,67.5000025749208,4|0,0:0|0:0,0:0:0:0:
129,220,237178,2,0,L|135:287,1,67.5000025749208
32,160,237402,2,0,L|48:0,1,135.000005149842,8|0,0:0|0:0,0:0:0:0:
368,44,237849,6,0,P|332:60|280:56,1,67.5000025749208
248,130,238073,2,0,P|278:145|312:148,1,67.5000025749208
400,180,238297,2,0,L|413:314,1,135.000005149842,8|0,0:0|0:0,0:0:0:0:
116,372,238745,6,0,P|104:324|112:296,1,67.5000025749208
260,288,238969,2,0,P|271:319|268:352,1,67.5000025749208
188,328,239193,2,0,L|168:192,1,135.000005149842,8|0,0:0|0:0,0:0:0:0:
120,104,239529,1,0,0:0:0:0:
192,32,239640,6,0,L|272:40,1,67.5000025749208
384,112,239864,2,0,L|316:105,1,67.5000025749208
200,44,240088,2,0,L|280:52,1,67.5000025749208,8|0,0:0|0:0,0:0:0:0:
392,124,240312,2,0,L|324:117,1,67.5000025749208
256,200,240536,5,0,0:0:0:0:
256,200,240648,1,0,0:0:0:0:
256,200,240760,1,0,0:0:0:0:
256,200,240872,1,0,0:0:0:0:
256,200,240984,2,0,P|245:254|292:339,1,135.000005149842,8|0,0:0|0:0,0:0:0:0:
472,88,241432,5,0,0:0:0:0:
472,88,241543,1,0,0:0:0:0:
472,88,241655,1,0,0:0:0:0:
472,88,241767,1,0,0:0:0:0:
472,88,241879,2,0,L|324:72,1,135.000005149842,8|0,0:0|0:0,0:0:0:0:
104,76,242327,6,0,L|84:12,1,67.5000025749208
112,96,242551,2,0,L|48:116,1,67.5000025749208
136,92,242775,2,0,L|156:156,1,67.5000025749208,8|0,0:0|0:0,0:0:0:0:
128,72,242999,2,0,L|192:52,1,67.5000025749208
280,104,243223,5,0,0:0:0:0:
280,104,243335,1,0,0:0:0:0:
236,196,243446,2,0,L|224:268,1,67.5000025749208
328,364,243670,1,8,0:0:0:0:
320,256,243782,1,8,0:0:0:0:
416,212,243894,1,8,0:0:0:0:
496,284,244006,1,8,0:0:0:0:
435,374,244118,6,0,L|315:362,1,107.999996704102,4|0,0:0|0:0,0:0:0:0:
136,316,244342,2,0,L|243:305,1,107.999996704102,8|0,0:0|0:0,0:0:0:0:
336,176,244566,1,0,0:0:0:0:
336,176,244678,1,0,0:0:0:0:
232,84,244790,2,0,P|192:112|128:112,1,107.999996704102,8|0,0:0|0:0,0:0:0:0:
0,224,245014,6,0,B|48:200|48:200|104:212,1,107.999996704102
396,248,245238,2,0,B|348:272|348:272|292:260,1,107.999996704102,8|0,0:0|0:0,0:0:0:0:
156,336,245461,1,0,0:0:0:0:
156,336,245573,1,0,0:0:0:0:
243,191,245685,2,0,L|231:83,1,107.999996704102,8|0,0:0|0:0,0:0:0:0:
8,264,245909,6,0,P|52:244|180:332,1,215.999993408203,4|0,0:0|0:0,0:0:0:0:
260,368,246245,1,0,0:0:0:0:
260,368,246357,2,0,L|348:356,1,67.5000025749208
436,364,246581,2,0,L|448:276,1,67.5000025749208
392,96,246805,6,0,L|379:189,1,90,8|0,0:0|0:0,0:0:0:0:
260,368,247029,2,0,L|272:278,1,90,8|0,0:0|0:0,0:0:0:0:
272,32,247252,2,0,L|284:125,1,90,8|0,0:0|0:0,0:0:0:0:
448,320,247476,2,0,L|354:332,1,90,8|0,0:0|0:0,0:0:0:0:
100,360,247700,6,0,P|32:312|68:136,1,270,4|0,0:0|0:0,0:0:0:0:
376,200,248596,2,0,B|208:272|208:272|104:228,1,270.000010299683,4|0,0:0|0:0,0:0:0:0:
76,24,249491,6,0,L|236:40,1,135.000005149842,4|0,0:0|0:0,0:0:0:0:
280,80,249827,1,0,0:0:0:0:
280,80,249939,2,0,P|292:44|288:4,1,67.5000025749208,8|0,0:0|0:0,0:0:0:0:
408,120,250163,2,0,P|370:127|338:151,1,67.5000025749208
408,212,250387,6,0,P|416:272|380:360,1,135.000005149842
316,364,250723,1,0,0:0:0:0:
204,320,250835,1,8,0:0:0:0:
300,244,250946,1,0,0:0:0:0:
232,336,251058,1,0,0:0:0:0:
136,272,251170,1,0,0:0:0:0:
200,172,251282,5,8,0:0:0:0:
200,172,251618,1,8,0:0:0:0:
200,172,251954,1,8,0:0:0:0:
200,172,252178,6,0,B|256:184|308:136|308:136|280:172|288:220,1,202.500007724762,8|0,0:0|0:0,0:0:0:0:
224,84,252626,2,0,L|64:72,1,135.000005149842,8|0,0:3|0:0,0:0:0:0:
89,73,253073,1,4,0:0:0:0:
