osu file format v14

[General]
AudioFilename: audio_tv.mp3
AudioLeadIn: 0
PreviewTime: 48422
Countdown: 0
SampleSet: Soft
StackLeniency: 0.7
Mode: 3
LetterboxInBreaks: 0
SpecialStyle: 0
WidescreenStoryboard: 1

[Editor]
Bookmarks: 30981,48892
DistanceSpacing: 1.26
BeatDivisor: 4
GridSize: 8
TimelineZoom: 1.6

[Metadata]
Title:adrenaline!!!
TitleUnicode:adrenaline!!!
Artist:TrySail
ArtistUnicode:TrySail
Creator:Remuring
Version:Insane
Source:エロマンガ先生
Tags:Eromanga-sensei Ending Theme ED JPop
BeatmapID:2471257
BeatmapSetID:909876

[Difficulty]
HPDrainRate:8
CircleSize:7
OverallDifficulty:8
ApproachRate:5
SliderMultiplier:1.4
SliderTickRate:1

[Events]
//Background and Video events
0,0,"BG.jpg",0,0
//Break Periods
//Storyboard Layer 0 (Background)
//Storyboard Layer 1 (Fail)
//Storyboard Layer 2 (Pass)
//Storyboard Layer 3 (Foreground)
//Storyboard Layer 4 (Overlay)
//Storyboard Sound Samples

[TimingPoints]
736,447.761194029851,4,2,1,50,1,0

[HitObjects]
109,192,400,5,0,0:0:0:0:
402,192,400,1,0,0:0:0:0:
256,192,512,1,0,0:0:0:0:
475,192,512,1,0,0:0:0:0:
36,192,512,1,0,0:0:0:0:
36,192,736,1,0,0:0:0:0:
329,192,736,1,0,0:0:0:0:
475,192,736,1,0,0:0:0:0:
182,192,736,128,0,959:0:0:0:0:
109,192,959,128,0,1183:0:0:0:0:
329,192,959,1,0,0:0:0:0:
402,192,1071,1,0,0:0:0:0:
36,192,1183,128,0,1407:0:0:0:0:
329,192,1183,1,0,0:0:0:0:
475,192,1295,1,0,0:0:0:0:
182,192,1407,128,0,1631:0:0:0:0:
402,192,1407,1,0,0:0:0:0:
475,192,1519,1,0,0:0:0:0:
109,192,1631,128,0,1855:0:0:0:0:
329,192,1631,1,0,0:0:0:0:
402,192,1743,1,0,0:0:0:0:
182,192,1855,128,0,2079:0:0:0:0:
329,192,1855,1,0,0:0:0:0:
475,192,1967,1,0,0:0:0:0:
36,192,2079,128,0,2303:0:0:0:0:
402,192,2079,1,0,0:0:0:0:
475,192,2191,1,0,0:0:0:0:
182,192,2303,128,0,2527:0:0:0:0:
329,192,2303,1,0,0:0:0:0:
402,192,2415,1,0,0:0:0:0:
256,192,2527,1,0,0:0:0:0:
36,192,2527,1,0,0:0:0:0:
475,192,2527,128,0,2974:0:0:0:0:
402,192,2750,128,0,3198:0:0:0:0:
182,192,2750,1,0,0:0:0:0:
109,192,2862,1,0,0:0:0:0:
329,192,2974,128,0,3422:0:0:0:0:
182,192,2974,1,0,0:0:0:0:
36,192,3086,1,0,0:0:0:0:
475,192,3198,128,0,3646:0:0:0:0:
109,192,3198,1,0,0:0:0:0:
36,192,3310,1,0,0:0:0:0:
402,192,3422,128,0,3870:0:0:0:0:
182,192,3422,1,0,0:0:0:0:
109,192,3534,1,0,0:0:0:0:
329,192,3646,128,0,4094:0:0:0:0:
182,192,3646,1,0,0:0:0:0:
36,192,3758,1,0,0:0:0:0:
475,192,3870,128,0,4318:0:0:0:0:
109,192,3870,1,0,0:0:0:0:
36,192,3982,1,0,0:0:0:0:
402,192,4094,128,0,4318:0:0:0:0:
256,192,4094,1,0,0:0:0:0:
109,192,4094,1,0,0:0:0:0:
329,192,4318,1,0,0:0:0:0:
182,192,4318,128,0,4430:0:0:0:0:
36,192,4318,128,0,4430:0:0:0:0:
109,192,4430,128,0,4541:0:0:0:0:
256,192,4430,128,0,4541:0:0:0:0:
182,192,4541,128,0,4653:0:0:0:0:
329,192,4541,128,0,4653:0:0:0:0:
36,192,4765,128,0,4877:0:0:0:0:
182,192,4765,1,0,0:0:0:0:
329,192,4877,1,0,0:0:0:0:
256,192,4989,1,0,0:0:0:0:
109,192,4989,128,0,5101:0:0:0:0:
402,192,5101,1,0,0:0:0:0:
329,192,5213,1,0,0:0:0:0:
182,192,5213,128,0,5325:0:0:0:0:
475,192,5325,1,0,0:0:0:0:
256,192,5437,128,0,5549:0:0:0:0:
402,192,5437,1,0,0:0:0:0:
109,192,5549,1,0,0:0:0:0:
329,192,5661,128,0,5773:0:0:0:0:
475,192,5661,1,0,0:0:0:0:
36,192,5661,1,0,0:0:0:0:
182,192,5773,1,0,0:0:0:0:
256,192,5773,1,0,0:0:0:0:
402,192,5885,128,0,5997:0:0:0:0:
109,192,5885,1,0,0:0:0:0:
36,192,5885,1,0,0:0:0:0:
256,192,5997,1,0,0:0:0:0:
329,192,5997,1,0,0:0:0:0:
402,192,6109,1,0,0:0:0:0:
475,192,6109,1,0,0:0:0:0:
36,192,6109,128,0,6221:0:0:0:0:
182,192,6109,128,0,6221:0:0:0:0:
329,192,6444,128,0,6556:0:0:0:0:
475,192,6444,128,0,6556:0:0:0:0:
109,192,6444,1,0,0:0:0:0:
36,192,6444,1,0,0:0:0:0:
182,192,6780,128,0,6892:0:0:0:0:
36,192,6780,128,0,6892:0:0:0:0:
402,192,6780,1,0,0:0:0:0:
475,192,6780,1,0,0:0:0:0:
329,192,7004,128,0,7788:0:0:0:0:
475,192,7004,128,0,7788:0:0:0:0:
182,192,7004,1,0,0:0:0:0:
36,192,7004,1,0,0:0:0:0:
109,192,7228,1,0,0:0:0:0:
36,192,7452,128,0,7788:0:0:0:0:
109,192,7452,128,0,7788:0:0:0:0:
182,192,7452,128,0,7788:0:0:0:0:
256,192,7900,1,0,0:0:0:0:
109,192,7900,1,0,0:0:0:0:
36,192,7900,1,0,0:0:0:0:
402,192,7900,1,0,0:0:0:0:
475,192,7900,1,0,0:0:0:0:
402,192,8124,1,0,0:0:0:0:
109,192,8124,1,0,0:0:0:0:
256,192,8124,1,0,0:0:0:0:
182,192,8347,128,0,8459:0:0:0:0:
36,192,8347,128,0,8459:0:0:0:0:
329,192,8459,128,0,8571:0:0:0:0:
475,192,8459,128,0,8571:0:0:0:0:
109,192,8571,1,0,0:0:0:0:
256,192,8571,1,0,0:0:0:0:
402,192,8571,1,0,0:0:0:0:
36,192,8683,128,0,9131:0:0:0:0:
182,192,8683,128,0,9131:0:0:0:0:
475,192,8795,1,0,0:0:0:0:
329,192,8795,1,0,0:0:0:0:
329,192,9019,128,0,9131:0:0:0:0:
475,192,9019,128,0,9131:0:0:0:0:
402,192,9019,1,0,0:0:0:0:
256,192,9243,128,0,9355:0:0:0:0:
109,192,9243,128,0,9355:0:0:0:0:
329,192,9467,128,0,9579:0:0:0:0:
475,192,9467,128,0,9579:0:0:0:0:
402,192,9467,1,0,0:0:0:0:
182,192,9691,128,0,9803:0:0:0:0:
36,192,9691,128,0,9803:0:0:0:0:
402,192,9915,128,0,10027:0:0:0:0:
256,192,9915,128,0,10027:0:0:0:0:
109,192,9915,1,0,0:0:0:0:
329,192,10138,128,0,10250:0:0:0:0:
475,192,10138,128,0,10250:0:0:0:0:
182,192,10250,128,0,10362:0:0:0:0:
36,192,10250,128,0,10362:0:0:0:0:
109,192,10362,1,0,0:0:0:0:
256,192,10362,1,0,0:0:0:0:
402,192,10362,1,0,0:0:0:0:
475,192,10474,128,0,10922:0:0:0:0:
329,192,10474,128,0,10922:0:0:0:0:
36,192,10586,1,0,0:0:0:0:
182,192,10586,1,0,0:0:0:0:
182,192,10810,128,0,10922:0:0:0:0:
36,192,10810,128,0,10922:0:0:0:0:
109,192,10810,1,0,0:0:0:0:
256,192,11034,128,0,11146:0:0:0:0:
402,192,11034,128,0,11146:0:0:0:0:
182,192,11258,128,0,11370:0:0:0:0:
36,192,11258,128,0,11370:0:0:0:0:
109,192,11258,1,0,0:0:0:0:
109,192,11482,1,0,0:0:0:0:
402,192,11482,1,0,0:0:0:0:
109,192,11706,1,0,0:0:0:0:
256,192,11706,1,0,0:0:0:0:
402,192,11706,1,0,0:0:0:0:
182,192,11930,128,0,12041:0:0:0:0:
36,192,11930,128,0,12041:0:0:0:0:
475,192,12041,128,0,12153:0:0:0:0:
329,192,12041,128,0,12153:0:0:0:0:
256,192,12153,1,0,0:0:0:0:
109,192,12153,1,0,0:0:0:0:
402,192,12153,1,0,0:0:0:0:
182,192,12265,128,0,12713:0:0:0:0:
36,192,12265,128,0,12713:0:0:0:0:
329,192,12377,1,0,0:0:0:0:
475,192,12377,1,0,0:0:0:0:
402,192,12601,1,0,0:0:0:0:
475,192,12601,128,0,12713:0:0:0:0:
329,192,12601,128,0,12713:0:0:0:0:
109,192,12825,128,0,12937:0:0:0:0:
256,192,12825,128,0,12937:0:0:0:0:
402,192,13049,1,0,0:0:0:0:
475,192,13049,128,0,13161:0:0:0:0:
329,192,13049,128,0,13161:0:0:0:0:
36,192,13273,128,0,13385:0:0:0:0:
182,192,13273,128,0,13385:0:0:0:0:
109,192,13497,1,0,0:0:0:0:
256,192,13497,128,0,13609:0:0:0:0:
402,192,13497,128,0,13609:0:0:0:0:
182,192,13721,128,0,13833:0:0:0:0:
36,192,13721,128,0,13833:0:0:0:0:
329,192,13833,128,0,13944:0:0:0:0:
475,192,13833,128,0,13944:0:0:0:0:
402,192,13944,1,0,0:0:0:0:
256,192,13944,1,0,0:0:0:0:
109,192,13944,1,0,0:0:0:0:
36,192,14056,128,0,14504:0:0:0:0:
182,192,14056,128,0,14504:0:0:0:0:
475,192,14168,1,0,0:0:0:0:
402,192,14168,1,0,0:0:0:0:
329,192,14280,1,0,0:0:0:0:
256,192,14280,1,0,0:0:0:0:
475,192,14392,1,0,0:0:0:0:
402,192,14504,1,0,0:0:0:0:
329,192,14504,1,0,0:0:0:0:
256,192,14616,1,0,0:0:0:0:
109,192,14616,1,0,0:0:0:0:
36,192,14616,1,0,0:0:0:0:
402,192,14728,1,0,0:0:0:0:
475,192,14728,1,0,0:0:0:0:
329,192,14840,1,0,0:0:0:0:
182,192,14840,1,0,0:0:0:0:
402,192,15064,128,0,15288:0:0:0:0:
475,192,15064,128,0,15400:0:0:0:0:
36,192,15064,128,0,15400:0:0:0:0:
109,192,15064,128,0,15400:0:0:0:0:
256,192,15288,128,0,15624:0:0:0:0:
402,192,15400,128,0,15624:0:0:0:0:
475,192,15512,128,0,15624:0:0:0:0:
36,192,15512,128,0,15624:0:0:0:0:
109,192,15512,128,0,15624:0:0:0:0:
182,192,15736,128,0,15847:0:0:0:0:
329,192,15736,128,0,15847:0:0:0:0:
402,192,15847,128,0,15959:0:0:0:0:
475,192,15847,128,0,15959:0:0:0:0:
36,192,15847,128,0,15959:0:0:0:0:
256,192,16071,128,0,16295:0:0:0:0:
182,192,16183,128,0,16407:0:0:0:0:
109,192,16295,128,0,16519:0:0:0:0:
329,192,16407,128,0,16519:0:0:0:0:
475,192,16407,128,0,16743:0:0:0:0:
402,192,16407,128,0,16631:0:0:0:0:
182,192,16631,1,0,0:0:0:0:
182,192,16743,1,0,0:0:0:0:
475,192,16855,1,0,0:0:0:0:
109,192,16855,1,0,0:0:0:0:
36,192,16855,1,0,0:0:0:0:
329,192,16855,128,0,17079:0:0:0:0:
182,192,17079,1,0,0:0:0:0:
109,192,17079,1,0,0:0:0:0:
36,192,17079,1,0,0:0:0:0:
402,192,17191,1,0,0:0:0:0:
256,192,17303,1,0,0:0:0:0:
402,192,17415,1,0,0:0:0:0:
182,192,17527,1,0,0:0:0:0:
109,192,17527,1,0,0:0:0:0:
36,192,17527,1,0,0:0:0:0:
402,192,17638,1,0,0:0:0:0:
256,192,17750,1,0,0:0:0:0:
329,192,17862,1,0,0:0:0:0:
182,192,17974,1,0,0:0:0:0:
109,192,17974,1,0,0:0:0:0:
36,192,17974,1,0,0:0:0:0:
329,192,18086,1,0,0:0:0:0:
256,192,18198,1,0,0:0:0:0:
329,192,18310,1,0,0:0:0:0:
109,192,18422,1,0,0:0:0:0:
36,192,18422,1,0,0:0:0:0:
182,192,18422,128,0,18534:0:0:0:0:
256,192,18534,128,0,18646:0:0:0:0:
36,192,18646,1,0,0:0:0:0:
182,192,18646,128,0,18870:0:0:0:0:
329,192,18870,1,0,0:0:0:0:
475,192,18870,1,0,0:0:0:0:
402,192,18870,1,0,0:0:0:0:
109,192,18982,1,0,0:0:0:0:
256,192,19094,1,0,0:0:0:0:
109,192,19206,1,0,0:0:0:0:
329,192,19318,1,0,0:0:0:0:
402,192,19318,1,0,0:0:0:0:
475,192,19318,1,0,0:0:0:0:
109,192,19430,1,0,0:0:0:0:
256,192,19541,1,0,0:0:0:0:
182,192,19653,1,0,0:0:0:0:
329,192,19765,1,0,0:0:0:0:
402,192,19765,1,0,0:0:0:0:
475,192,19765,1,0,0:0:0:0:
182,192,19877,1,0,0:0:0:0:
256,192,19989,1,0,0:0:0:0:
182,192,20101,1,0,0:0:0:0:
329,192,20213,1,0,0:0:0:0:
402,192,20213,128,0,20437:0:0:0:0:
475,192,20213,1,0,0:0:0:0:
329,192,20437,128,0,20661:0:0:0:0:
475,192,20437,1,0,0:0:0:0:
182,192,20661,1,0,0:0:0:0:
109,192,20661,1,0,0:0:0:0:
36,192,20661,1,0,0:0:0:0:
402,192,20773,1,0,0:0:0:0:
256,192,20885,1,0,0:0:0:0:
402,192,20997,1,0,0:0:0:0:
182,192,21109,1,0,0:0:0:0:
109,192,21109,1,0,0:0:0:0:
36,192,21109,1,0,0:0:0:0:
402,192,21221,1,0,0:0:0:0:
256,192,21333,1,0,0:0:0:0:
329,192,21444,1,0,0:0:0:0:
182,192,21556,1,0,0:0:0:0:
109,192,21556,1,0,0:0:0:0:
36,192,21556,1,0,0:0:0:0:
329,192,21668,1,0,0:0:0:0:
256,192,21780,1,0,0:0:0:0:
329,192,21892,1,0,0:0:0:0:
109,192,22004,1,0,0:0:0:0:
36,192,22004,1,0,0:0:0:0:
182,192,22004,128,0,22116:0:0:0:0:
256,192,22116,128,0,22228:0:0:0:0:
182,192,22228,128,0,22452:0:0:0:0:
36,192,22228,128,0,23907:0:0:0:0:
329,192,22452,1,0,0:0:0:0:
402,192,22452,1,0,0:0:0:0:
475,192,22452,1,0,0:0:0:0:
109,192,22564,1,0,0:0:0:0:
256,192,22676,128,0,23124:0:0:0:0:
182,192,22788,1,0,0:0:0:0:
329,192,22900,1,0,0:0:0:0:
402,192,22900,1,0,0:0:0:0:
475,192,22900,1,0,0:0:0:0:
109,192,23124,128,0,23571:0:0:0:0:
256,192,23236,1,0,0:0:0:0:
329,192,23347,1,0,0:0:0:0:
402,192,23347,1,0,0:0:0:0:
475,192,23347,1,0,0:0:0:0:
182,192,23459,1,0,0:0:0:0:
256,192,23571,128,0,23907:0:0:0:0:
109,192,23683,1,0,0:0:0:0:
329,192,23795,1,0,0:0:0:0:
402,192,23795,1,0,0:0:0:0:
475,192,23795,1,0,0:0:0:0:
256,192,24019,1,0,0:0:0:0:
36,192,24019,1,0,0:0:0:0:
475,192,24019,1,0,0:0:0:0:
182,192,24243,128,0,24355:0:0:0:0:
329,192,24243,128,0,24355:0:0:0:0:
109,192,24243,128,0,24467:0:0:0:0:
402,192,24243,128,0,24467:0:0:0:0:
182,192,24467,1,0,0:0:0:0:
329,192,24467,1,0,0:0:0:0:
256,192,24579,1,0,0:0:0:0:
109,192,24691,1,0,0:0:0:0:
36,192,24691,1,0,0:0:0:0:
475,192,24691,1,0,0:0:0:0:
402,192,24803,1,0,0:0:0:0:
182,192,24915,1,0,0:0:0:0:
329,192,24915,1,0,0:0:0:0:
256,192,25027,1,0,0:0:0:0:
402,192,25138,1,0,0:0:0:0:
475,192,25138,1,0,0:0:0:0:
36,192,25138,1,0,0:0:0:0:
256,192,25250,1,0,0:0:0:0:
329,192,25362,1,0,0:0:0:0:
182,192,25362,1,0,0:0:0:0:
402,192,25474,1,0,0:0:0:0:
36,192,25586,1,0,0:0:0:0:
475,192,25586,1,0,0:0:0:0:
109,192,25586,128,0,25698:0:0:0:0:
256,192,25698,128,0,25810:0:0:0:0:
109,192,25810,128,0,26034:0:0:0:0:
402,192,25810,1,0,0:0:0:0:
329,192,26034,1,0,0:0:0:0:
475,192,26034,1,0,0:0:0:0:
36,192,26034,1,0,0:0:0:0:
256,192,26146,1,0,0:0:0:0:
109,192,26258,1,0,0:0:0:0:
402,192,26258,1,0,0:0:0:0:
329,192,26370,1,0,0:0:0:0:
182,192,26482,1,0,0:0:0:0:
36,192,26482,1,0,0:0:0:0:
475,192,26482,1,0,0:0:0:0:
256,192,26594,1,0,0:0:0:0:
109,192,26706,1,0,0:0:0:0:
402,192,26706,1,0,0:0:0:0:
256,192,26818,1,0,0:0:0:0:
36,192,26930,128,0,27153:0:0:0:0:
182,192,26930,128,0,27153:0:0:0:0:
329,192,26930,1,0,0:0:0:0:
402,192,27041,1,0,0:0:0:0:
109,192,27153,128,0,27377:0:0:0:0:
256,192,27153,128,0,27377:0:0:0:0:
402,192,27265,1,0,0:0:0:0:
182,192,27377,128,0,27601:0:0:0:0:
329,192,27377,128,0,27601:0:0:0:0:
475,192,27377,1,0,0:0:0:0:
36,192,27601,128,0,28385:0:0:0:0:
109,192,27601,128,0,28385:0:0:0:0:
256,192,27601,1,0,0:0:0:0:
402,192,27601,1,0,0:0:0:0:
475,192,27601,1,0,0:0:0:0:
329,192,27825,1,0,0:0:0:0:
475,192,27825,1,0,0:0:0:0:
402,192,27825,1,0,0:0:0:0:
256,192,27937,1,0,0:0:0:0:
182,192,28049,1,0,0:0:0:0:
475,192,28049,1,0,0:0:0:0:
329,192,28161,1,0,0:0:0:0:
402,192,28273,1,0,0:0:0:0:
256,192,28273,1,0,0:0:0:0:
475,192,28273,1,0,0:0:0:0:
402,192,28497,128,0,29280:0:0:0:0:
475,192,28497,128,0,29280:0:0:0:0:
256,192,28497,1,0,0:0:0:0:
109,192,28497,1,0,0:0:0:0:
36,192,28497,1,0,0:0:0:0:
182,192,28721,1,0,0:0:0:0:
109,192,28721,1,0,0:0:0:0:
36,192,28721,1,0,0:0:0:0:
256,192,28833,1,0,0:0:0:0:
329,192,28944,1,0,0:0:0:0:
36,192,28944,1,0,0:0:0:0:
182,192,29056,1,0,0:0:0:0:
109,192,29168,1,0,0:0:0:0:
36,192,29168,1,0,0:0:0:0:
256,192,29168,1,0,0:0:0:0:
402,192,29392,1,0,0:0:0:0:
475,192,29392,1,0,0:0:0:0:
109,192,29616,128,0,29728:0:0:0:0:
36,192,29616,128,0,29728:0:0:0:0:
182,192,29616,1,0,0:0:0:0:
402,192,29616,1,0,0:0:0:0:
475,192,29616,1,0,0:0:0:0:
256,192,29728,1,0,0:0:0:0:
329,192,29840,128,0,29952:0:0:0:0:
402,192,29840,128,0,29952:0:0:0:0:
475,192,29840,128,0,29952:0:0:0:0:
182,192,29952,128,0,30064:0:0:0:0:
109,192,29952,128,0,30064:0:0:0:0:
36,192,30064,1,0,0:0:0:0:
475,192,30064,1,0,0:0:0:0:
182,192,30176,128,0,30288:0:0:0:0:
256,192,30176,128,0,30288:0:0:0:0:
329,192,30176,128,0,30288:0:0:0:0:
402,192,30288,1,0,0:0:0:0:
475,192,30288,1,0,0:0:0:0:
182,192,30400,1,0,0:0:0:0:
109,192,30400,1,0,0:0:0:0:
36,192,30400,1,0,0:0:0:0:
402,192,30512,128,0,30624:0:0:0:0:
329,192,30512,128,0,30624:0:0:0:0:
182,192,30624,1,0,0:0:0:0:
256,192,30624,1,0,0:0:0:0:
109,192,30736,1,0,0:0:0:0:
36,192,30736,1,0,0:0:0:0:
475,192,30736,128,0,30847:0:0:0:0:
402,192,30736,128,0,30847:0:0:0:0:
109,192,30847,128,0,31071:0:0:0:0:
36,192,30847,128,0,31071:0:0:0:0:
329,192,30959,1,0,0:0:0:0:
182,192,31071,1,0,0:0:0:0:
256,192,31183,1,0,0:0:0:0:
109,192,31183,1,0,0:0:0:0:
36,192,31183,1,0,0:0:0:0:
402,192,31183,1,0,0:0:0:0:
475,192,31183,128,0,31855:0:0:0:0:
109,192,31407,1,0,0:0:0:0:
256,192,31407,1,0,0:0:0:0:
402,192,31407,1,0,0:0:0:0:
36,192,31631,128,0,32303:0:0:0:0:
182,192,31631,1,0,0:0:0:0:
329,192,31743,1,0,0:0:0:0:
109,192,31855,1,0,0:0:0:0:
256,192,31855,1,0,0:0:0:0:
402,192,31855,1,0,0:0:0:0:
475,192,32079,128,0,32750:0:0:0:0:
329,192,32079,1,0,0:0:0:0:
109,192,32303,1,0,0:0:0:0:
256,192,32303,1,0,0:0:0:0:
402,192,32303,1,0,0:0:0:0:
36,192,32527,128,0,33422:0:0:0:0:
182,192,32527,1,0,0:0:0:0:
329,192,32638,1,0,0:0:0:0:
109,192,32750,1,0,0:0:0:0:
256,192,32750,1,0,0:0:0:0:
402,192,32750,1,0,0:0:0:0:
475,192,32974,128,0,33422:0:0:0:0:
329,192,32974,1,0,0:0:0:0:
109,192,33198,1,0,0:0:0:0:
256,192,33198,1,0,0:0:0:0:
402,192,33198,1,0,0:0:0:0:
182,192,33422,1,0,0:0:0:0:
329,192,33422,1,0,0:0:0:0:
475,192,33534,1,0,0:0:0:0:
36,192,33534,1,0,0:0:0:0:
109,192,33646,128,0,33758:0:0:0:0:
256,192,33646,1,0,0:0:0:0:
402,192,33646,1,0,0:0:0:0:
182,192,33870,128,0,33982:0:0:0:0:
329,192,33870,1,0,0:0:0:0:
256,192,34094,128,0,34206:0:0:0:0:
109,192,34094,1,0,0:0:0:0:
402,192,34094,1,0,0:0:0:0:
329,192,34318,128,0,34430:0:0:0:0:
182,192,34318,1,0,0:0:0:0:
36,192,34430,1,0,0:0:0:0:
475,192,34430,1,0,0:0:0:0:
256,192,34541,1,0,0:0:0:0:
109,192,34541,1,0,0:0:0:0:
402,192,34541,128,0,34653:0:0:0:0:
256,192,34765,1,0,0:0:0:0:
475,192,34765,1,0,0:0:0:0:
36,192,34765,128,0,35437:0:0:0:0:
402,192,34989,1,0,0:0:0:0:
256,192,34989,1,0,0:0:0:0:
109,192,34989,1,0,0:0:0:0:
475,192,35213,128,0,35885:0:0:0:0:
329,192,35213,1,0,0:0:0:0:
182,192,35325,1,0,0:0:0:0:
402,192,35437,1,0,0:0:0:0:
256,192,35437,1,0,0:0:0:0:
109,192,35437,1,0,0:0:0:0:
36,192,35661,128,0,36333:0:0:0:0:
182,192,35661,1,0,0:0:0:0:
402,192,35885,1,0,0:0:0:0:
256,192,35885,1,0,0:0:0:0:
109,192,35885,1,0,0:0:0:0:
475,192,36109,128,0,37004:0:0:0:0:
329,192,36109,1,0,0:0:0:0:
182,192,36221,1,0,0:0:0:0:
402,192,36333,1,0,0:0:0:0:
256,192,36333,1,0,0:0:0:0:
109,192,36333,1,0,0:0:0:0:
36,192,36556,128,0,37004:0:0:0:0:
182,192,36556,1,0,0:0:0:0:
402,192,36780,1,0,0:0:0:0:
256,192,36780,1,0,0:0:0:0:
109,192,36780,1,0,0:0:0:0:
329,192,37004,1,0,0:0:0:0:
182,192,37004,1,0,0:0:0:0:
36,192,37116,1,0,0:0:0:0:
475,192,37116,1,0,0:0:0:0:
402,192,37228,1,0,0:0:0:0:
256,192,37228,1,0,0:0:0:0:
109,192,37228,1,0,0:0:0:0:
182,192,37452,1,0,0:0:0:0:
36,192,37452,1,0,0:0:0:0:
109,192,37564,1,0,0:0:0:0:
256,192,37564,1,0,0:0:0:0:
402,192,37564,1,0,0:0:0:0:
329,192,37676,1,0,0:0:0:0:
475,192,37676,1,0,0:0:0:0:
182,192,37900,1,0,0:0:0:0:
36,192,37900,1,0,0:0:0:0:
109,192,37900,1,0,0:0:0:0:
329,192,38124,1,0,0:0:0:0:
402,192,38124,1,0,0:0:0:0:
475,192,38124,1,0,0:0:0:0:
109,192,38347,128,0,38683:0:0:0:0:
475,192,38347,128,0,38459:0:0:0:0:
182,192,38347,128,0,38459:0:0:0:0:
36,192,38347,128,0,38459:0:0:0:0:
329,192,38459,128,0,38571:0:0:0:0:
475,192,38571,128,0,38683:0:0:0:0:
36,192,38571,1,0,0:0:0:0:
182,192,38571,1,0,0:0:0:0:
329,192,38683,128,0,38907:0:0:0:0:
475,192,38795,128,0,38907:0:0:0:0:
182,192,38795,128,0,38907:0:0:0:0:
109,192,38795,128,0,38907:0:0:0:0:
36,192,38795,128,0,38907:0:0:0:0:
256,192,39019,1,0,0:0:0:0:
109,192,39131,1,0,0:0:0:0:
402,192,39243,128,0,39579:0:0:0:0:
36,192,39243,128,0,39355:0:0:0:0:
329,192,39243,128,0,39355:0:0:0:0:
475,192,39243,128,0,39355:0:0:0:0:
182,192,39355,128,0,39467:0:0:0:0:
36,192,39467,128,0,39579:0:0:0:0:
329,192,39467,1,0,0:0:0:0:
475,192,39467,1,0,0:0:0:0:
182,192,39579,128,0,39803:0:0:0:0:
36,192,39691,128,0,39803:0:0:0:0:
329,192,39691,128,0,39803:0:0:0:0:
402,192,39691,128,0,39803:0:0:0:0:
475,192,39691,128,0,39803:0:0:0:0:
256,192,39915,1,0,0:0:0:0:
402,192,40027,1,0,0:0:0:0:
109,192,40138,128,0,40474:0:0:0:0:
475,192,40138,128,0,40250:0:0:0:0:
182,192,40138,128,0,40250:0:0:0:0:
36,192,40138,128,0,40250:0:0:0:0:
329,192,40250,128,0,40362:0:0:0:0:
475,192,40362,128,0,40474:0:0:0:0:
36,192,40362,1,0,0:0:0:0:
182,192,40362,1,0,0:0:0:0:
329,192,40474,128,0,40698:0:0:0:0:
475,192,40586,128,0,40698:0:0:0:0:
36,192,40586,128,0,40698:0:0:0:0:
109,192,40586,128,0,40698:0:0:0:0:
182,192,40586,128,0,40698:0:0:0:0:
109,192,40810,1,0,0:0:0:0:
402,192,40810,1,0,0:0:0:0:
329,192,40922,1,0,0:0:0:0:
182,192,40922,1,0,0:0:0:0:
256,192,41034,1,0,0:0:0:0:
402,192,41034,1,0,0:0:0:0:
475,192,41034,1,0,0:0:0:0:
109,192,41034,1,0,0:0:0:0:
36,192,41034,1,0,0:0:0:0:
109,192,41258,1,0,0:0:0:0:
402,192,41258,1,0,0:0:0:0:
182,192,41370,1,0,0:0:0:0:
256,192,41370,1,0,0:0:0:0:
329,192,41370,1,0,0:0:0:0:
475,192,41370,1,0,0:0:0:0:
36,192,41370,1,0,0:0:0:0:
182,192,41594,1,0,0:0:0:0:
329,192,41594,1,0,0:0:0:0:
109,192,41706,1,0,0:0:0:0:
36,192,41706,1,0,0:0:0:0:
256,192,41706,1,0,0:0:0:0:
402,192,41706,1,0,0:0:0:0:
475,192,41706,1,0,0:0:0:0:
182,192,41930,1,0,0:0:0:0:
329,192,41930,1,0,0:0:0:0:
256,192,41930,1,0,0:0:0:0:
36,192,41930,128,0,42377:0:0:0:0:
475,192,41930,128,0,42377:0:0:0:0:
182,192,42377,1,0,0:0:0:0:
256,192,42377,1,0,0:0:0:0:
329,192,42377,1,0,0:0:0:0:
402,192,42601,128,0,42825:0:0:0:0:
109,192,42601,128,0,42825:0:0:0:0:
256,192,42825,1,0,0:0:0:0:
182,192,42825,128,0,43161:0:0:0:0:
329,192,42825,128,0,43161:0:0:0:0:
109,192,43049,1,0,0:0:0:0:
402,192,43049,1,0,0:0:0:0:
329,192,43273,1,0,0:0:0:0:
256,192,43273,1,0,0:0:0:0:
182,192,43273,1,0,0:0:0:0:
36,192,43497,128,0,43721:0:0:0:0:
475,192,43497,128,0,43721:0:0:0:0:
256,192,43721,1,0,0:0:0:0:
329,192,43721,128,0,44056:0:0:0:0:
182,192,43721,128,0,44056:0:0:0:0:
36,192,43944,1,0,0:0:0:0:
475,192,43944,1,0,0:0:0:0:
182,192,44168,1,0,0:0:0:0:
256,192,44168,1,0,0:0:0:0:
329,192,44168,1,0,0:0:0:0:
109,192,44392,128,0,44616:0:0:0:0:
402,192,44392,128,0,44616:0:0:0:0:
329,192,44616,1,0,0:0:0:0:
182,192,44616,1,0,0:0:0:0:
256,192,44616,128,0,44840:0:0:0:0:
329,192,44840,128,0,44952:0:0:0:0:
182,192,44840,128,0,44952:0:0:0:0:
36,192,44952,128,0,45400:0:0:0:0:
475,192,44952,128,0,45400:0:0:0:0:
182,192,45064,1,0,0:0:0:0:
329,192,45064,1,0,0:0:0:0:
256,192,45064,1,0,0:0:0:0:
182,192,45288,128,0,45400:0:0:0:0:
329,192,45288,128,0,45400:0:0:0:0:
256,192,45512,128,0,47191:0:0:0:0:
109,192,45512,1,0,0:0:0:0:
36,192,45512,1,0,0:0:0:0:
402,192,45512,1,0,0:0:0:0:
475,192,45512,1,0,0:0:0:0:
182,192,45624,1,0,0:0:0:0:
329,192,45736,1,0,0:0:0:0:
109,192,45847,1,0,0:0:0:0:
402,192,45959,1,0,0:0:0:0:
36,192,46071,1,0,0:0:0:0:
475,192,46183,1,0,0:0:0:0:
109,192,46295,1,0,0:0:0:0:
329,192,46407,1,0,0:0:0:0:
475,192,46407,1,0,0:0:0:0:
182,192,46519,1,0,0:0:0:0:
36,192,46519,1,0,0:0:0:0:
402,192,46631,1,0,0:0:0:0:
475,192,46631,1,0,0:0:0:0:
109,192,46743,1,0,0:0:0:0:
36,192,46743,1,0,0:0:0:0:
329,192,46855,1,0,0:0:0:0:
475,192,46855,1,0,0:0:0:0:
182,192,46967,1,0,0:0:0:0:
36,192,46967,1,0,0:0:0:0:
402,192,47079,1,0,0:0:0:0:
475,192,47079,1,0,0:0:0:0:
109,192,47191,1,0,0:0:0:0:
36,192,47191,1,0,0:0:0:0:
182,192,47303,1,0,0:0:0:0:
256,192,47303,1,0,0:0:0:0:
329,192,47303,1,0,0:0:0:0:
402,192,47303,1,0,0:0:0:0:
475,192,47303,1,0,0:0:0:0:
402,192,47638,1,0,0:0:0:0:
329,192,47638,1,0,0:0:0:0:
256,192,47638,1,0,0:0:0:0:
182,192,47638,1,0,0:0:0:0:
109,192,47638,1,0,0:0:0:0:
329,192,47974,1,0,0:0:0:0:
256,192,47974,1,0,0:0:0:0:
182,192,47974,1,0,0:0:0:0:
109,192,47974,1,0,0:0:0:0:
36,192,47974,1,0,0:0:0:0:
182,192,48198,1,0,0:0:0:0:
256,192,48198,1,0,0:0:0:0:
329,192,48198,1,0,0:0:0:0:
402,192,48198,1,0,0:0:0:0:
475,192,48198,1,0,0:0:0:0:
36,192,48422,1,0,0:0:0:0:
402,192,48422,1,0,0:0:0:0:
329,192,48534,1,0,0:0:0:0:
109,192,48534,1,0,0:0:0:0:
182,192,48646,1,0,0:0:0:0:
402,192,48646,1,0,0:0:0:0:
36,192,48646,1,0,0:0:0:0:
256,192,48758,1,0,0:0:0:0:
475,192,48758,1,0,0:0:0:0:
329,192,48870,1,0,0:0:0:0:
109,192,48870,1,0,0:0:0:0:
256,192,49094,1,0,0:0:0:0:
109,192,49094,1,0,0:0:0:0:
36,192,49094,1,0,0:0:0:0:
402,192,49094,1,0,0:0:0:0:
475,192,49094,1,0,0:0:0:0:
182,192,49318,1,0,0:0:0:0:
36,192,49318,1,0,0:0:0:0:
329,192,49318,1,0,0:0:0:0:
475,192,49318,1,0,0:0:0:0:
329,192,49541,1,0,0:0:0:0:
109,192,49541,1,0,0:0:0:0:
475,192,49541,1,0,0:0:0:0:
182,192,49653,1,0,0:0:0:0:
36,192,49653,1,0,0:0:0:0:
329,192,49765,1,0,0:0:0:0:
402,192,49765,1,0,0:0:0:0:
475,192,49765,1,0,0:0:0:0:
256,192,49765,1,0,0:0:0:0:
109,192,49989,1,0,0:0:0:0:
256,192,49989,1,0,0:0:0:0:
402,192,49989,1,0,0:0:0:0:
182,192,50213,1,0,0:0:0:0:
36,192,50213,1,0,0:0:0:0:
329,192,50213,1,0,0:0:0:0:
475,192,50213,1,0,0:0:0:0:
182,192,50437,1,0,0:0:0:0:
36,192,50437,1,0,0:0:0:0:
402,192,50437,1,0,0:0:0:0:
329,192,50549,1,0,0:0:0:0:
475,192,50549,1,0,0:0:0:0:
256,192,50661,1,0,0:0:0:0:
182,192,50661,1,0,0:0:0:0:
109,192,50661,1,0,0:0:0:0:
36,192,50661,1,0,0:0:0:0:
475,192,50885,128,0,51333:0:0:0:0:
256,192,50885,1,0,0:0:0:0:
36,192,50885,1,0,0:0:0:0:
402,192,50885,1,0,0:0:0:0:
182,192,51109,1,0,0:0:0:0:
109,192,51109,1,0,0:0:0:0:
36,192,51109,1,0,0:0:0:0:
329,192,51109,1,0,0:0:0:0:
402,192,51333,128,0,51780:0:0:0:0:
329,192,51333,1,0,0:0:0:0:
36,192,51333,1,0,0:0:0:0:
109,192,51444,1,0,0:0:0:0:
256,192,51444,1,0,0:0:0:0:
475,192,51556,1,0,0:0:0:0:
182,192,51556,1,0,0:0:0:0:
329,192,51556,1,0,0:0:0:0:
36,192,51556,1,0,0:0:0:0:
36,192,51780,128,0,52228:0:0:0:0:
256,192,51780,1,0,0:0:0:0:
475,192,51780,1,0,0:0:0:0:
182,192,52004,1,0,0:0:0:0:
329,192,52004,1,0,0:0:0:0:
402,192,52004,1,0,0:0:0:0:
475,192,52004,1,0,0:0:0:0:
109,192,52228,128,0,52676:0:0:0:0:
182,192,52228,1,0,0:0:0:0:
475,192,52228,1,0,0:0:0:0:
402,192,52340,1,0,0:0:0:0:
256,192,52340,1,0,0:0:0:0:
329,192,52452,1,0,0:0:0:0:
475,192,52452,1,0,0:0:0:0:
182,192,52452,1,0,0:0:0:0:
36,192,52452,1,0,0:0:0:0:
36,192,52676,128,0,54467:0:0:0:0:
256,192,52676,1,0,0:0:0:0:
475,192,52676,1,0,0:0:0:0:
402,192,52676,1,0,0:0:0:0:
329,192,52900,1,0,0:0:0:0:
402,192,52900,1,0,0:0:0:0:
475,192,52900,1,0,0:0:0:0:
182,192,52900,1,0,0:0:0:0:
109,192,53124,1,0,0:0:0:0:
475,192,53124,1,0,0:0:0:0:
329,192,53124,1,0,0:0:0:0:
182,192,53236,1,0,0:0:0:0:
402,192,53236,1,0,0:0:0:0:
256,192,53347,1,0,0:0:0:0:
329,192,53347,1,0,0:0:0:0:
475,192,53347,1,0,0:0:0:0:
109,192,53347,1,0,0:0:0:0:
182,192,53571,1,0,0:0:0:0:
402,192,53571,1,0,0:0:0:0:
475,192,53571,1,0,0:0:0:0:
182,192,53795,1,0,0:0:0:0:
329,192,53795,1,0,0:0:0:0:
402,192,53795,1,0,0:0:0:0:
475,192,53795,1,0,0:0:0:0:
109,192,54019,1,0,0:0:0:0:
256,192,54019,1,0,0:0:0:0:
475,192,54019,1,0,0:0:0:0:
182,192,54131,1,0,0:0:0:0:
402,192,54131,1,0,0:0:0:0:
109,192,54243,1,0,0:0:0:0:
256,192,54243,1,0,0:0:0:0:
475,192,54243,1,0,0:0:0:0:
329,192,54243,1,0,0:0:0:0:
475,192,54467,1,0,0:0:0:0:
182,192,54467,1,0,0:0:0:0:
329,192,54467,1,0,0:0:0:0:
109,192,54691,1,0,0:0:0:0:
36,192,54691,1,0,0:0:0:0:
256,192,54691,1,0,0:0:0:0:
402,192,54691,1,0,0:0:0:0:
402,192,54915,1,0,0:0:0:0:
109,192,54915,1,0,0:0:0:0:
36,192,54915,1,0,0:0:0:0:
182,192,55027,1,0,0:0:0:0:
329,192,55027,1,0,0:0:0:0:
475,192,55138,128,0,55362:0:0:0:0:
402,192,55138,1,0,0:0:0:0:
256,192,55138,1,0,0:0:0:0:
36,192,55138,1,0,0:0:0:0:
329,192,55362,128,0,55586:0:0:0:0:
109,192,55362,1,0,0:0:0:0:
36,192,55362,1,0,0:0:0:0:
182,192,55586,128,0,55810:0:0:0:0:
256,192,55586,1,0,0:0:0:0:
402,192,55586,1,0,0:0:0:0:
475,192,55586,1,0,0:0:0:0:
36,192,55810,128,0,56034:0:0:0:0:
329,192,55810,1,0,0:0:0:0:
475,192,55810,1,0,0:0:0:0:
182,192,56034,1,0,0:0:0:0:
256,192,56034,128,0,56258:0:0:0:0:
402,192,56034,1,0,0:0:0:0:
475,192,56034,1,0,0:0:0:0:
109,192,56258,1,0,0:0:0:0:
329,192,56258,1,0,0:0:0:0:
402,192,56258,1,0,0:0:0:0:
475,192,56258,1,0,0:0:0:0:
36,192,56258,128,0,56594:0:0:0:0:
182,192,56482,1,0,0:0:0:0:
109,192,56482,1,0,0:0:0:0:
329,192,56482,1,0,0:0:0:0:
475,192,56482,1,0,0:0:0:0:
475,192,56706,128,0,57153:0:0:0:0:
36,192,56706,1,0,0:0:0:0:
329,192,56706,1,0,0:0:0:0:
109,192,56818,1,0,0:0:0:0:
256,192,56818,1,0,0:0:0:0:
182,192,56930,1,0,0:0:0:0:
402,192,56930,1,0,0:0:0:0:
329,192,56930,1,0,0:0:0:0:
36,192,56930,128,0,57041:0:0:0:0:
109,192,57153,128,0,57265:0:0:0:0:
256,192,57153,1,0,0:0:0:0:
402,192,57153,1,0,0:0:0:0:
36,192,57377,128,0,57489:0:0:0:0:
329,192,57377,1,0,0:0:0:0:
182,192,57377,1,0,0:0:0:0:
475,192,57377,1,0,0:0:0:0:
182,192,57601,128,0,57713:0:0:0:0:
475,192,57601,1,0,0:0:0:0:
402,192,57601,1,0,0:0:0:0:
329,192,57713,1,0,0:0:0:0:
256,192,57713,1,0,0:0:0:0:
109,192,57825,128,0,57937:0:0:0:0:
402,192,57825,1,0,0:0:0:0:
475,192,57825,1,0,0:0:0:0:
36,192,57825,1,0,0:0:0:0:
256,192,58049,1,0,0:0:0:0:
475,192,58049,1,0,0:0:0:0:
36,192,58049,128,0,58385:0:0:0:0:
182,192,58273,1,0,0:0:0:0:
109,192,58273,1,0,0:0:0:0:
329,192,58273,1,0,0:0:0:0:
475,192,58273,1,0,0:0:0:0:
475,192,58497,128,0,59056:0:0:0:0:
329,192,58497,1,0,0:0:0:0:
36,192,58497,1,0,0:0:0:0:
109,192,58609,1,0,0:0:0:0:
256,192,58609,1,0,0:0:0:0:
182,192,58721,1,0,0:0:0:0:
402,192,58721,1,0,0:0:0:0:
329,192,58721,1,0,0:0:0:0:
36,192,58721,128,0,58944:0:0:0:0:
109,192,58944,128,0,59168:0:0:0:0:
256,192,58944,1,0,0:0:0:0:
402,192,58944,1,0,0:0:0:0:
182,192,59168,128,0,59392:0:0:0:0:
329,192,59168,1,0,0:0:0:0:
475,192,59168,1,0,0:0:0:0:
36,192,59168,1,0,0:0:0:0:
256,192,59392,128,0,59616:0:0:0:0:
36,192,59392,1,0,0:0:0:0:
475,192,59392,1,0,0:0:0:0:
402,192,59504,1,0,0:0:0:0:
109,192,59504,1,0,0:0:0:0:
329,192,59616,128,0,59840:0:0:0:0:
182,192,59616,1,0,0:0:0:0:
475,192,59616,1,0,0:0:0:0:
36,192,59616,1,0,0:0:0:0:
475,192,59840,128,0,60288:0:0:0:0:
402,192,59840,1,0,0:0:0:0:
256,192,59840,1,0,0:0:0:0:
109,192,59840,1,0,0:0:0:0:
36,192,59840,1,0,0:0:0:0:
182,192,60064,1,0,0:0:0:0:
329,192,60064,1,0,0:0:0:0:
36,192,60064,1,0,0:0:0:0:
109,192,60064,1,0,0:0:0:0:
402,192,60288,128,0,60736:0:0:0:0:
256,192,60288,1,0,0:0:0:0:
109,192,60288,1,0,0:0:0:0:
182,192,60400,1,0,0:0:0:0:
329,192,60400,1,0,0:0:0:0:
475,192,60512,1,0,0:0:0:0:
256,192,60512,1,0,0:0:0:0:
109,192,60512,1,0,0:0:0:0:
36,192,60512,1,0,0:0:0:0:
329,192,60736,128,0,61183:0:0:0:0:
182,192,60736,1,0,0:0:0:0:
36,192,60736,1,0,0:0:0:0:
402,192,60959,1,0,0:0:0:0:
475,192,60959,1,0,0:0:0:0:
182,192,60959,1,0,0:0:0:0:
36,192,60959,1,0,0:0:0:0:
256,192,61183,128,0,61631:0:0:0:0:
36,192,61183,1,0,0:0:0:0:
475,192,61183,1,0,0:0:0:0:
402,192,61295,1,0,0:0:0:0:
109,192,61295,1,0,0:0:0:0:
182,192,61407,1,0,0:0:0:0:
329,192,61407,1,0,0:0:0:0:
475,192,61407,1,0,0:0:0:0:
36,192,61407,1,0,0:0:0:0:
36,192,61631,128,0,61855:0:0:0:0:
109,192,61631,1,0,0:0:0:0:
402,192,61631,1,0,0:0:0:0:
475,192,61631,1,0,0:0:0:0:
182,192,61855,1,0,0:0:0:0:
329,192,61855,1,0,0:0:0:0:
402,192,61855,1,0,0:0:0:0:
475,192,61855,1,0,0:0:0:0:
109,192,61967,128,0,62191:0:0:0:0:
402,192,62079,1,0,0:0:0:0:
36,192,62079,1,0,0:0:0:0:
475,192,62079,1,0,0:0:0:0:
256,192,62191,1,0,0:0:0:0:
329,192,62191,1,0,0:0:0:0:
182,192,62303,128,0,62527:0:0:0:0:
36,192,62303,1,0,0:0:0:0:
475,192,62303,1,0,0:0:0:0:
109,192,62303,1,0,0:0:0:0:
329,192,62415,1,0,0:0:0:0:
402,192,62415,1,0,0:0:0:0:
256,192,62527,1,0,0:0:0:0:
36,192,62527,1,0,0:0:0:0:
109,192,62638,1,0,0:0:0:0:
402,192,62638,1,0,0:0:0:0:
475,192,62638,1,0,0:0:0:0:
182,192,62750,1,0,0:0:0:0:
329,192,62750,1,0,0:0:0:0:
109,192,62862,1,0,0:0:0:0:
36,192,62862,1,0,0:0:0:0:
475,192,62862,1,0,0:0:0:0:
256,192,62974,1,0,0:0:0:0:
402,192,62974,1,0,0:0:0:0:
329,192,62974,1,0,0:0:0:0:
182,192,63086,1,0,0:0:0:0:
109,192,63086,1,0,0:0:0:0:
36,192,63086,1,0,0:0:0:0:
329,192,63198,1,0,0:0:0:0:
475,192,63198,1,0,0:0:0:0:
256,192,63422,1,0,0:0:0:0:
402,192,63422,1,0,0:0:0:0:
475,192,63422,1,0,0:0:0:0:
109,192,63422,1,0,0:0:0:0:
36,192,63422,1,0,0:0:0:0:
329,192,63646,1,0,0:0:0:0:
475,192,63646,1,0,0:0:0:0:
182,192,63646,1,0,0:0:0:0:
36,192,63646,1,0,0:0:0:0:
182,192,63870,1,0,0:0:0:0:
402,192,63870,1,0,0:0:0:0:
36,192,63870,1,0,0:0:0:0:
329,192,63982,1,0,0:0:0:0:
475,192,63982,1,0,0:0:0:0:
182,192,64094,1,0,0:0:0:0:
109,192,64094,1,0,0:0:0:0:
36,192,64094,1,0,0:0:0:0:
256,192,64094,1,0,0:0:0:0:
402,192,64318,1,0,0:0:0:0:
256,192,64318,1,0,0:0:0:0:
109,192,64318,1,0,0:0:0:0:
329,192,64541,1,0,0:0:0:0:
475,192,64541,1,0,0:0:0:0:
182,192,64541,1,0,0:0:0:0:
36,192,64541,1,0,0:0:0:0:
329,192,64765,1,0,0:0:0:0:
475,192,64765,1,0,0:0:0:0:
109,192,64765,1,0,0:0:0:0:
182,192,64877,1,0,0:0:0:0:
36,192,64877,1,0,0:0:0:0:
256,192,64989,1,0,0:0:0:0:
329,192,64989,1,0,0:0:0:0:
402,192,64989,1,0,0:0:0:0:
475,192,64989,1,0,0:0:0:0:
36,192,65213,128,0,65661:0:0:0:0:
256,192,65213,1,0,0:0:0:0:
475,192,65213,1,0,0:0:0:0:
109,192,65213,1,0,0:0:0:0:
329,192,65437,1,0,0:0:0:0:
402,192,65437,1,0,0:0:0:0:
475,192,65437,1,0,0:0:0:0:
182,192,65437,1,0,0:0:0:0:
109,192,65661,128,0,66109:0:0:0:0:
182,192,65661,1,0,0:0:0:0:
475,192,65661,1,0,0:0:0:0:
402,192,65773,1,0,0:0:0:0:
256,192,65773,1,0,0:0:0:0:
36,192,65885,1,0,0:0:0:0:
329,192,65885,1,0,0:0:0:0:
182,192,65885,1,0,0:0:0:0:
475,192,65885,1,0,0:0:0:0:
475,192,66109,128,0,66556:0:0:0:0:
256,192,66109,1,0,0:0:0:0:
36,192,66109,1,0,0:0:0:0:
329,192,66333,1,0,0:0:0:0:
182,192,66333,1,0,0:0:0:0:
109,192,66333,1,0,0:0:0:0:
36,192,66333,1,0,0:0:0:0:
402,192,66556,128,0,67004:0:0:0:0:
329,192,66556,1,0,0:0:0:0:
36,192,66556,1,0,0:0:0:0:
109,192,66668,1,0,0:0:0:0:
256,192,66668,1,0,0:0:0:0:
182,192,66780,1,0,0:0:0:0:
36,192,66780,1,0,0:0:0:0:
329,192,66780,1,0,0:0:0:0:
475,192,66780,1,0,0:0:0:0:
475,192,67004,128,0,68795:0:0:0:0:
256,192,67004,1,0,0:0:0:0:
36,192,67004,1,0,0:0:0:0:
109,192,67004,1,0,0:0:0:0:
182,192,67228,1,0,0:0:0:0:
109,192,67228,1,0,0:0:0:0:
36,192,67228,1,0,0:0:0:0:
329,192,67228,1,0,0:0:0:0:
402,192,67452,1,0,0:0:0:0:
36,192,67452,1,0,0:0:0:0:
182,192,67452,1,0,0:0:0:0:
329,192,67564,1,0,0:0:0:0:
109,192,67564,1,0,0:0:0:0:
256,192,67676,1,0,0:0:0:0:
182,192,67676,1,0,0:0:0:0:
36,192,67676,1,0,0:0:0:0:
402,192,67676,1,0,0:0:0:0:
329,192,67900,1,0,0:0:0:0:
109,192,67900,1,0,0:0:0:0:
36,192,67900,1,0,0:0:0:0:
329,192,68124,1,0,0:0:0:0:
182,192,68124,1,0,0:0:0:0:
109,192,68124,1,0,0:0:0:0:
36,192,68124,1,0,0:0:0:0:
402,192,68347,1,0,0:0:0:0:
256,192,68347,1,0,0:0:0:0:
36,192,68347,1,0,0:0:0:0:
329,192,68459,1,0,0:0:0:0:
109,192,68459,1,0,0:0:0:0:
402,192,68571,1,0,0:0:0:0:
256,192,68571,1,0,0:0:0:0:
36,192,68571,1,0,0:0:0:0:
182,192,68571,1,0,0:0:0:0:
36,192,68795,1,0,0:0:0:0:
329,192,68795,1,0,0:0:0:0:
182,192,68795,1,0,0:0:0:0:
402,192,69019,1,0,0:0:0:0:
475,192,69019,1,0,0:0:0:0:
256,192,69019,1,0,0:0:0:0:
109,192,69019,1,0,0:0:0:0:
109,192,69243,1,0,0:0:0:0:
402,192,69243,1,0,0:0:0:0:
475,192,69243,1,0,0:0:0:0:
329,192,69355,1,0,0:0:0:0:
182,192,69355,1,0,0:0:0:0:
36,192,69467,128,0,69691:0:0:0:0:
109,192,69467,1,0,0:0:0:0:
256,192,69467,1,0,0:0:0:0:
475,192,69467,1,0,0:0:0:0:
182,192,69691,128,0,69915:0:0:0:0:
402,192,69691,1,0,0:0:0:0:
475,192,69691,1,0,0:0:0:0:
329,192,69915,128,0,70138:0:0:0:0:
256,192,69915,1,0,0:0:0:0:
109,192,69915,1,0,0:0:0:0:
36,192,69915,1,0,0:0:0:0:
475,192,70138,128,0,70362:0:0:0:0:
182,192,70138,1,0,0:0:0:0:
36,192,70138,1,0,0:0:0:0:
329,192,70362,1,0,0:0:0:0:
256,192,70362,128,0,70586:0:0:0:0:
109,192,70362,1,0,0:0:0:0:
36,192,70362,1,0,0:0:0:0:
402,192,70586,1,0,0:0:0:0:
182,192,70586,1,0,0:0:0:0:
109,192,70586,1,0,0:0:0:0:
36,192,70586,1,0,0:0:0:0:
475,192,70586,128,0,70922:0:0:0:0:
329,192,70810,1,0,0:0:0:0:
402,192,70810,1,0,0:0:0:0:
182,192,70810,1,0,0:0:0:0:
36,192,70810,1,0,0:0:0:0:
36,192,71034,128,0,71482:0:0:0:0:
475,192,71034,1,0,0:0:0:0:
182,192,71034,1,0,0:0:0:0:
402,192,71146,1,0,0:0:0:0:
256,192,71146,1,0,0:0:0:0:
329,192,71258,1,0,0:0:0:0:
109,192,71258,1,0,0:0:0:0:
182,192,71258,1,0,0:0:0:0:
475,192,71258,128,0,71370:0:0:0:0:
402,192,71482,128,0,71594:0:0:0:0:
256,192,71482,1,0,0:0:0:0:
109,192,71482,1,0,0:0:0:0:
475,192,71706,128,0,71818:0:0:0:0:
182,192,71706,1,0,0:0:0:0:
329,192,71706,1,0,0:0:0:0:
36,192,71706,1,0,0:0:0:0:
329,192,71930,128,0,72041:0:0:0:0:
36,192,71930,1,0,0:0:0:0:
109,192,71930,1,0,0:0:0:0:
182,192,72041,1,0,0:0:0:0:
256,192,72041,1,0,0:0:0:0:
402,192,72153,128,0,72265:0:0:0:0:
109,192,72153,1,0,0:0:0:0:
36,192,72153,1,0,0:0:0:0:
475,192,72153,1,0,0:0:0:0:
36,192,72377,1,0,0:0:0:0:
475,192,72377,128,0,72713:0:0:0:0:
402,192,72377,1,0,0:0:0:0:
256,192,72377,1,0,0:0:0:0:
109,192,72377,1,0,0:0:0:0:
182,192,72601,1,0,0:0:0:0:
329,192,72601,1,0,0:0:0:0:
36,192,72601,1,0,0:0:0:0:
36,192,72825,128,0,73161:0:0:0:0:
109,192,72825,1,0,0:0:0:0:
256,192,72825,1,0,0:0:0:0:
402,192,72825,1,0,0:0:0:0:
475,192,72825,1,0,0:0:0:0:
182,192,73049,1,0,0:0:0:0:
329,192,73049,1,0,0:0:0:0:
475,192,73049,1,0,0:0:0:0:
402,192,73273,128,0,73609:0:0:0:0:
475,192,73273,1,0,0:0:0:0:
256,192,73273,1,0,0:0:0:0:
109,192,73273,1,0,0:0:0:0:
36,192,73273,1,0,0:0:0:0:
182,192,73497,1,0,0:0:0:0:
36,192,73497,1,0,0:0:0:0:
329,192,73497,1,0,0:0:0:0:
109,192,73721,128,0,74056:0:0:0:0:
256,192,73721,1,0,0:0:0:0:
36,192,73721,1,0,0:0:0:0:
402,192,73721,1,0,0:0:0:0:
475,192,73721,1,0,0:0:0:0:
182,192,73944,1,0,0:0:0:0:
329,192,73944,1,0,0:0:0:0:
475,192,73944,1,0,0:0:0:0:
402,192,74168,1,0,0:0:0:0:
475,192,74168,1,0,0:0:0:0:
36,192,74168,1,0,0:0:0:0:
109,192,74168,1,0,0:0:0:0:
256,192,74168,128,0,74616:0:0:0:0:
182,192,74392,1,0,0:0:0:0:
36,192,74392,1,0,0:0:0:0:
329,192,74392,1,0,0:0:0:0:
475,192,74392,1,0,0:0:0:0:
36,192,74616,1,0,0:0:0:0:
475,192,74616,1,0,0:0:0:0:
109,192,74728,1,0,0:0:0:0:
402,192,74728,1,0,0:0:0:0:
36,192,74840,1,0,0:0:0:0:
475,192,74840,1,0,0:0:0:0:
329,192,74840,128,0,74952:0:0:0:0:
182,192,74840,128,0,74952:0:0:0:0:
109,192,75064,128,0,75176:0:0:0:0:
256,192,75064,128,0,75176:0:0:0:0:
402,192,75064,1,0,0:0:0:0:
182,192,75288,128,0,75400:0:0:0:0:
36,192,75288,128,0,75400:0:0:0:0:
329,192,75288,1,0,0:0:0:0:
475,192,75288,1,0,0:0:0:0:
329,192,75512,128,0,75624:0:0:0:0:
475,192,75512,128,0,75624:0:0:0:0:
402,192,75512,1,0,0:0:0:0:
182,192,75624,1,0,0:0:0:0:
36,192,75624,1,0,0:0:0:0:
402,192,75736,128,0,75847:0:0:0:0:
256,192,75736,128,0,75847:0:0:0:0:
109,192,75736,1,0,0:0:0:0:
475,192,75736,1,0,0:0:0:0:
36,192,75959,128,0,76855:0:0:0:0:
182,192,75959,1,0,0:0:0:0:
329,192,75959,1,0,0:0:0:0:
475,192,75959,1,0,0:0:0:0:
256,192,76183,1,0,0:0:0:0:
182,192,76183,1,0,0:0:0:0:
329,192,76183,1,0,0:0:0:0:
402,192,76183,1,0,0:0:0:0:
475,192,76183,1,0,0:0:0:0:
109,192,76295,1,0,0:0:0:0:
329,192,76407,1,0,0:0:0:0:
475,192,76407,1,0,0:0:0:0:
109,192,76519,1,0,0:0:0:0:
256,192,76519,1,0,0:0:0:0:
329,192,76631,1,0,0:0:0:0:
475,192,76631,1,0,0:0:0:0:
182,192,76631,1,0,0:0:0:0:
402,192,76631,1,0,0:0:0:0:
109,192,76743,1,0,0:0:0:0:
256,192,76855,1,0,0:0:0:0:
475,192,76855,1,0,0:0:0:0:
182,192,76967,1,0,0:0:0:0:
36,192,76967,1,0,0:0:0:0:
402,192,76967,1,0,0:0:0:0:
329,192,77079,1,0,0:0:0:0:
475,192,77079,1,0,0:0:0:0:
256,192,77191,1,0,0:0:0:0:
36,192,77191,1,0,0:0:0:0:
109,192,77191,1,0,0:0:0:0:
402,192,77303,1,0,0:0:0:0:
475,192,77303,1,0,0:0:0:0:
329,192,77303,1,0,0:0:0:0:
182,192,77415,1,0,0:0:0:0:
36,192,77415,1,0,0:0:0:0:
109,192,77415,1,0,0:0:0:0:
329,192,77527,1,0,0:0:0:0:
475,192,77527,1,0,0:0:0:0:
36,192,77750,128,0,77862:0:0:0:0:
109,192,77750,1,0,0:0:0:0:
256,192,77750,1,0,0:0:0:0:
402,192,77750,1,0,0:0:0:0:
475,192,77750,1,0,0:0:0:0:
182,192,77862,128,0,77974:0:0:0:0:
36,192,77974,128,0,78086:0:0:0:0:
475,192,77974,1,0,0:0:0:0:
182,192,78086,128,0,78198:0:0:0:0:
329,192,78086,1,0,0:0:0:0:
109,192,78198,128,0,78534:0:0:0:0:
36,192,78198,128,0,78534:0:0:0:0:
402,192,78198,1,0,0:0:0:0:
475,192,78198,1,0,0:0:0:0:
256,192,78198,1,0,0:0:0:0:
256,192,78646,1,0,0:0:0:0:
36,192,78646,1,0,0:0:0:0:
109,192,78646,1,0,0:0:0:0:
475,192,78646,128,0,78758:0:0:0:0:
402,192,78646,1,0,0:0:0:0:
329,192,78758,128,0,78870:0:0:0:0:
36,192,78870,1,0,0:0:0:0:
475,192,78870,128,0,78982:0:0:0:0:
329,192,78982,128,0,79094:0:0:0:0:
182,192,78982,1,0,0:0:0:0:
36,192,79094,1,0,0:0:0:0:
109,192,79094,1,0,0:0:0:0:
402,192,79094,128,0,79430:0:0:0:0:
475,192,79094,128,0,79430:0:0:0:0:
256,192,79094,1,0,0:0:0:0:
36,192,79541,128,0,79653:0:0:0:0:
109,192,79541,1,0,0:0:0:0:
402,192,79541,1,0,0:0:0:0:
256,192,79541,1,0,0:0:0:0:
475,192,79541,1,0,0:0:0:0:
182,192,79653,128,0,79765:0:0:0:0:
329,192,79653,1,0,0:0:0:0:
36,192,79765,128,0,79877:0:0:0:0:
475,192,79765,1,0,0:0:0:0:
329,192,79877,1,0,0:0:0:0:
182,192,79877,128,0,79989:0:0:0:0:
36,192,79989,128,0,80325:0:0:0:0:
256,192,79989,1,0,0:0:0:0:
109,192,79989,128,0,80325:0:0:0:0:
475,192,79989,1,0,0:0:0:0:
402,192,79989,1,0,0:0:0:0:
256,192,80437,1,0,0:0:0:0:
36,192,80437,1,0,0:0:0:0:
109,192,80437,1,0,0:0:0:0:
475,192,80437,128,0,80549:0:0:0:0:
402,192,80437,1,0,0:0:0:0:
329,192,80549,128,0,80661:0:0:0:0:
182,192,80549,1,0,0:0:0:0:
36,192,80661,1,0,0:0:0:0:
475,192,80661,128,0,80773:0:0:0:0:
329,192,80773,128,0,80885:0:0:0:0:
182,192,80773,1,0,0:0:0:0:
36,192,80885,1,0,0:0:0:0:
109,192,80885,1,0,0:0:0:0:
402,192,80885,128,0,81221:0:0:0:0:
475,192,80885,128,0,81221:0:0:0:0:
256,192,80885,1,0,0:0:0:0:
182,192,81109,1,0,0:0:0:0:
36,192,81109,1,0,0:0:0:0:
329,192,81221,1,0,0:0:0:0:
256,192,81333,128,0,81780:0:0:0:0:
475,192,81333,128,0,81780:0:0:0:0:
182,192,81333,128,0,82116:0:0:0:0:
109,192,81333,128,0,82116:0:0:0:0:
36,192,81333,128,0,82116:0:0:0:0:
402,192,81780,128,0,82116:0:0:0:0:
256,192,82228,128,0,82676:0:0:0:0:
36,192,82228,128,0,82676:0:0:0:0:
402,192,82228,128,0,83012:0:0:0:0:
475,192,82228,128,0,83012:0:0:0:0:
329,192,82228,128,0,83012:0:0:0:0:
109,192,82676,128,0,83012:0:0:0:0:
182,192,83124,128,0,84691:0:0:0:0:
329,192,83124,1,0,0:0:0:0:
402,192,83124,1,0,0:0:0:0:
475,192,83124,1,0,0:0:0:0:
36,192,83124,1,0,0:0:0:0:
329,192,83347,128,0,83459:0:0:0:0:
402,192,83459,128,0,83571:0:0:0:0:
475,192,83571,128,0,83683:0:0:0:0:
36,192,83571,1,0,0:0:0:0:
109,192,83571,1,0,0:0:0:0:
329,192,83683,128,0,83795:0:0:0:0:
475,192,83795,128,0,83907:0:0:0:0:
402,192,83907,128,0,84019:0:0:0:0:
329,192,84019,128,0,84355:0:0:0:0:
475,192,84355,128,0,84467:0:0:0:0:
329,192,84467,128,0,84691:0:0:0:0:
109,192,84467,1,0,0:0:0:0:
36,192,84467,1,0,0:0:0:0:
402,192,84691,128,0,84803:0:0:0:0:
256,192,84803,128,0,84915:0:0:0:0:
329,192,84915,128,0,85138:0:0:0:0:
475,192,84915,128,0,85138:0:0:0:0:
182,192,84915,1,0,0:0:0:0:
109,192,84915,1,0,0:0:0:0:
36,192,84915,1,0,0:0:0:0:
182,192,85250,128,0,85474:0:0:0:0:
36,192,85250,128,0,85474:0:0:0:0:
329,192,85250,1,0,0:0:0:0:
402,192,85250,1,0,0:0:0:0:
475,192,85250,1,0,0:0:0:0:
329,192,85586,128,0,85698:0:0:0:0:
475,192,85586,128,0,85698:0:0:0:0:
182,192,85586,1,0,0:0:0:0:
36,192,85586,1,0,0:0:0:0:
109,192,85586,1,0,0:0:0:0:
329,192,85810,128,0,86482:0:0:0:0:
475,192,85810,128,0,86482:0:0:0:0:
182,192,85810,128,0,86370:0:0:0:0:
109,192,85810,128,0,86258:0:0:0:0:
36,192,85810,128,0,86146:0:0:0:0:
