osu file format v14

[General]
AudioFilename: adrenaline!!!.mp3
AudioLeadIn: 0
PreviewTime: 47958
Countdown: 0
SampleSet: Normal
StackLeniency: 0.7
Mode: 1
LetterboxInBreaks: 0
WidescreenStoryboard: 0

[Editor]
DistanceSpacing: 1.5
BeatDivisor: 4
GridSize: 32
TimelineZoom: 0.6999999

[Metadata]
Title:adrenaline!!!
TitleUnicode:adrenaline!!!
Artist:TrySail
ArtistUnicode:TrySail
Creator:Nardoxyribonucleic
Version:Muzukashii
Source:エロマンガ先生
Tags:Taiko Eromanga Sensei Ending Izumi Sagiri
BeatmapID:1536672
BeatmapSetID:723044

[Difficulty]
HPDrainRate:5
CircleSize:5
OverallDifficulty:5
ApproachRate:5
SliderMultiplier:1.4
SliderTickRate:1

[Events]
//Background and Video events
0,0,"Sagiri4.jpg",0,0
//Break Periods
//Storyboard Layer 0 (Background)
//Storyboard Layer 1 (Fail)
//Storyboard Layer 2 (Pass)
//Storyboard Layer 3 (Foreground)
//Storyboard Sound Samples

[TimingPoints]
496,223.880597014925,4,1,0,70,1,0
496,-142.857142857143,4,1,0,70,0,0
7660,-142.857142857143,4,1,0,85,0,0
16615,-142.857142857143,4,1,0,75,0,0
30943,-142.857142857143,4,1,0,80,0,0
41690,-142.857142857143,4,1,0,90,0,0
48854,-142.857142857143,4,1,0,100,0,1
77510,-142.857142857143,4,1,0,90,0,0
86466,-142.857142857143,4,1,0,85,0,0
95421,-142.857142857143,4,1,0,70,0,0
102585,-142.857142857143,4,1,0,75,0,0
109749,-142.857142857143,4,1,0,80,0,0
120495,-142.857142857143,4,1,0,90,0,0
127660,-142.857142857143,4,1,0,100,0,1
156316,-142.857142857143,4,1,0,90,0,0
176018,-142.857142857143,4,1,0,95,0,0
190346,-142.857142857143,4,1,0,90,0,0
208257,-142.857142857143,4,1,0,85,0,0
223033,-142.857142857143,4,1,0,100,0,1
236913,-142.857142857143,4,1,0,90,0,0
253033,-142.857142857143,4,1,0,85,0,0

[HitObjects]
256,192,496,5,8,0:0:0:0:
256,192,943,1,0,0:0:0:0:
256,192,1167,1,0,0:0:0:0:
256,192,1391,1,0,0:0:0:0:
256,192,1839,1,0,0:0:0:0:
256,192,2287,1,4,0:0:0:0:
256,192,2734,1,0,0:0:0:0:
256,192,2958,1,0,0:0:0:0:
256,192,3182,1,0,0:0:0:0:
256,192,3630,1,0,0:0:0:0:
256,192,4078,1,12,0:0:0:0:
256,192,4525,1,8,0:0:0:0:
256,192,4749,1,0,0:0:0:0:
256,192,4861,1,0,0:0:0:0:
256,192,4973,1,0,0:0:0:0:
256,192,5197,1,0,0:0:0:0:
256,192,5421,1,8,0:0:0:0:
256,192,5533,1,8,0:0:0:0:
256,192,5645,1,8,0:0:0:0:
256,192,5869,1,4,0:0:0:0:
256,192,6204,1,4,0:0:0:0:
256,192,6540,1,4,0:0:0:0:
256,192,6764,1,4,0:0:0:0:
256,192,7212,1,12,0:0:0:0:
256,192,7660,1,4,0:0:0:0:
256,192,7884,1,8,0:0:0:0:
256,192,8107,1,0,0:0:0:0:
256,192,8443,1,8,0:0:0:0:
256,192,8779,1,8,0:0:0:0:
256,192,9003,1,0,0:0:0:0:
256,192,9227,1,8,0:0:0:0:
256,192,9339,1,8,0:0:0:0:
256,192,9451,1,8,0:0:0:0:
256,192,9675,1,8,0:0:0:0:
256,192,9898,1,0,0:0:0:0:
256,192,10234,1,8,0:0:0:0:
256,192,10570,1,8,0:0:0:0:
256,192,10794,1,0,0:0:0:0:
256,192,10906,1,0,0:0:0:0:
256,192,11018,1,8,0:0:0:0:
256,192,11242,1,0,0:0:0:0:
256,192,11466,1,8,0:0:0:0:
256,192,11690,1,0,0:0:0:0:
256,192,12025,1,8,0:0:0:0:
256,192,12361,1,8,0:0:0:0:
256,192,12585,1,0,0:0:0:0:
256,192,12809,1,8,0:0:0:0:
256,192,12921,1,8,0:0:0:0:
256,192,13033,1,8,0:0:0:0:
256,192,13257,1,8,0:0:0:0:
256,192,13481,1,0,0:0:0:0:
256,192,13816,1,8,0:0:0:0:
256,192,14152,1,0,0:0:0:0:
256,192,14376,1,8,0:0:0:0:
256,192,14488,1,8,0:0:0:0:
256,192,14600,1,0,0:0:0:0:
256,192,14824,1,12,0:0:0:0:
256,192,15272,1,8,0:0:0:0:
256,192,15607,1,8,0:0:0:0:
256,192,15831,1,0,0:0:0:0:
256,192,15943,1,0,0:0:0:0:
256,192,16167,1,8,0:0:0:0:
256,192,16615,1,4,0:0:0:0:
256,192,16839,1,8,0:0:0:0:
256,192,17063,1,0,0:0:0:0:
256,192,17287,1,8,0:0:0:0:
256,192,17398,1,0,0:0:0:0:
256,192,17734,1,8,0:0:0:0:
256,192,17958,1,8,0:0:0:0:
256,192,18406,1,0,0:0:0:0:
256,192,18630,1,8,0:0:0:0:
256,192,18854,1,0,0:0:0:0:
256,192,19078,1,8,0:0:0:0:
256,192,19190,1,0,0:0:0:0:
256,192,19749,1,0,0:0:0:0:
256,192,19973,1,8,0:0:0:0:
256,192,20421,1,8,0:0:0:0:
256,192,20645,1,8,0:0:0:0:
256,192,20869,1,0,0:0:0:0:
256,192,20981,1,8,0:0:0:0:
256,192,21316,1,0,0:0:0:0:
256,192,21540,1,8,0:0:0:0:
256,192,21764,1,8,0:0:0:0:
256,192,21988,1,0,0:0:0:0:
256,192,22436,1,8,0:0:0:0:
256,192,22660,1,0,0:0:0:0:
256,192,22772,1,0,0:0:0:0:
256,192,22884,1,0,0:0:0:0:
256,192,23107,1,8,0:0:0:0:
256,192,23331,1,0,0:0:0:0:
256,192,23555,1,8,0:0:0:0:
256,192,23667,1,8,0:0:0:0:
256,192,23779,1,0,0:0:0:0:
256,192,24003,1,12,0:0:0:0:
256,192,24227,1,0,0:0:0:0:
256,192,24451,1,8,0:0:0:0:
256,192,24563,1,0,0:0:0:0:
256,192,24898,1,8,0:0:0:0:
256,192,25122,1,8,0:0:0:0:
256,192,25570,1,0,0:0:0:0:
256,192,25794,1,8,0:0:0:0:
256,192,26018,1,0,0:0:0:0:
256,192,26242,1,8,0:0:0:0:
256,192,26354,1,0,0:0:0:0:
256,192,26913,1,0,0:0:0:0:
256,192,27137,1,8,0:0:0:0:
256,192,27361,1,4,0:0:0:0:
256,192,27697,1,0,0:0:0:0:
256,192,28033,1,8,0:0:0:0:
256,192,28257,1,4,0:0:0:0:
256,192,28481,1,0,0:0:0:0:
256,192,28704,1,8,0:0:0:0:
256,192,28816,1,8,0:0:0:0:
256,192,29040,1,0,0:0:0:0:
256,192,29376,1,12,0:0:0:0:
256,192,29600,1,0,0:0:0:0:
256,192,29936,1,8,0:0:0:0:
256,192,30272,1,0,0:0:0:0:
256,192,30384,1,0,0:0:0:0:
256,192,30495,1,8,0:0:0:0:
256,192,30719,1,0,0:0:0:0:
256,192,30943,1,4,0:0:0:0:
256,192,31391,1,0,0:0:0:0:
256,192,31615,1,8,0:0:0:0:
256,192,31727,1,8,0:0:0:0:
256,192,31839,1,8,0:0:0:0:
256,192,32063,1,8,0:0:0:0:
256,192,32287,1,0,0:0:0:0:
256,192,32734,1,8,0:0:0:0:
256,192,32958,1,8,0:0:0:0:
256,192,33070,1,8,0:0:0:0:
256,192,33182,1,0,0:0:0:0:
256,192,33406,1,0,0:0:0:0:
256,192,33630,1,8,0:0:0:0:
256,192,33854,1,8,0:0:0:0:
256,192,34078,1,0,0:0:0:0:
256,192,34190,1,0,0:0:0:0:
256,192,34301,1,8,0:0:0:0:
256,192,34525,1,0,0:0:0:0:
256,192,34973,1,0,0:0:0:0:
256,192,35197,1,8,0:0:0:0:
256,192,35309,1,8,0:0:0:0:
256,192,35421,1,8,0:0:0:0:
256,192,35645,1,8,0:0:0:0:
256,192,35869,1,0,0:0:0:0:
256,192,36316,1,8,0:0:0:0:
256,192,36764,1,0,0:0:0:0:
256,192,36988,1,8,0:0:0:0:
256,192,37212,1,0,0:0:0:0:
256,192,37324,1,0,0:0:0:0:
256,192,37436,1,8,0:0:0:0:
256,192,37660,1,0,0:0:0:0:
256,192,37884,1,8,0:0:0:0:
256,192,38107,1,4,0:0:0:0:
256,192,38331,1,0,0:0:0:0:
256,192,38443,1,0,0:0:0:0:
256,192,38555,1,8,0:0:0:0:
256,192,39003,1,0,0:0:0:0:
256,192,39227,1,0,0:0:0:0:
256,192,39339,1,8,0:0:0:0:
256,192,39451,1,8,0:0:0:0:
256,192,39898,1,0,0:0:0:0:
256,192,40122,1,8,0:0:0:0:
256,192,40234,1,8,0:0:0:0:
256,192,40346,1,8,0:0:0:0:
256,192,40570,1,0,0:0:0:0:
256,192,40794,1,12,0:0:0:0:
256,192,41130,1,12,0:0:0:0:
256,192,41466,1,4,0:0:0:0:
256,192,41690,1,12,0:0:0:0:
256,192,42137,1,8,0:0:0:0:
256,192,42361,1,0,0:0:0:0:
256,192,42585,1,8,0:0:0:0:
256,192,43033,1,8,0:0:0:0:
256,192,43257,1,0,0:0:0:0:
256,192,43481,1,8,0:0:0:0:
256,192,43928,1,8,0:0:0:0:
256,192,44152,1,8,0:0:0:0:
256,192,44376,1,0,0:0:0:0:
256,192,44712,1,0,0:0:0:0:
256,192,44824,1,8,0:0:0:0:
256,192,45048,1,0,0:0:0:0:
256,192,45272,1,12,0:0:0:0:
256,192,45384,12,0,45943,0:0:0:0:
256,192,46167,5,0,0:0:0:0:
256,192,46391,1,8,0:0:0:0:
256,192,46503,1,8,0:0:0:0:
256,192,46615,1,8,0:0:0:0:
256,192,47063,1,4,0:0:0:0:
256,192,47398,1,4,0:0:0:0:
256,192,47734,1,4,0:0:0:0:
256,192,47958,1,12,0:0:0:0:
256,192,48406,1,8,0:0:0:0:
256,192,48630,1,0,0:0:0:0:
256,192,48854,1,12,0:0:0:0:
256,192,49078,1,0,0:0:0:0:
256,192,49301,1,8,0:0:0:0:
256,192,49525,1,0,0:0:0:0:
256,192,49637,1,8,0:0:0:0:
256,192,49973,1,8,0:0:0:0:
256,192,50197,1,8,0:0:0:0:
256,192,50421,1,0,0:0:0:0:
256,192,50533,1,0,0:0:0:0:
256,192,50645,1,0,0:0:0:0:
256,192,50981,1,8,0:0:0:0:
256,192,51316,1,8,0:0:0:0:
256,192,51764,1,8,0:0:0:0:
256,192,51988,1,0,0:0:0:0:
256,192,52100,1,0,0:0:0:0:
256,192,52212,1,8,0:0:0:0:
256,192,52436,1,0,0:0:0:0:
256,192,52660,1,8,0:0:0:0:
256,192,52884,1,0,0:0:0:0:
256,192,53107,1,0,0:0:0:0:
256,192,53219,1,8,0:0:0:0:
256,192,53555,1,0,0:0:0:0:
256,192,53779,1,8,0:0:0:0:
256,192,54003,1,8,0:0:0:0:
256,192,54115,1,8,0:0:0:0:
256,192,54227,1,8,0:0:0:0:
256,192,54675,1,8,0:0:0:0:
256,192,54787,1,8,0:0:0:0:
256,192,54898,1,0,0:0:0:0:
256,192,55122,1,8,0:0:0:0:
256,192,55346,1,8,0:0:0:0:
256,192,55570,1,0,0:0:0:0:
256,192,55794,1,8,0:0:0:0:
256,192,56018,1,4,0:0:0:0:
256,192,56466,1,0,0:0:0:0:
256,192,56690,1,0,0:0:0:0:
256,192,56801,1,0,0:0:0:0:
256,192,56913,1,8,0:0:0:0:
256,192,57137,1,8,0:0:0:0:
256,192,57361,1,0,0:0:0:0:
256,192,57585,1,8,0:0:0:0:
256,192,57809,1,0,0:0:0:0:
256,192,58257,1,0,0:0:0:0:
256,192,58481,1,8,0:0:0:0:
256,192,58593,1,0,0:0:0:0:
256,192,58704,1,0,0:0:0:0:
256,192,58928,1,8,0:0:0:0:
256,192,59152,1,8,0:0:0:0:
256,192,59376,1,8,0:0:0:0:
256,192,59600,1,4,0:0:0:0:
256,192,60048,1,12,0:0:0:0:
256,192,60495,1,12,0:0:0:0:
256,192,60943,1,4,0:0:0:0:
256,192,61391,1,12,0:0:0:0:
256,192,61727,1,12,0:0:0:0:
256,192,62063,1,4,0:0:0:0:
256,192,62510,1,0,0:0:0:0:
256,192,62734,1,8,0:0:0:0:
256,192,62846,1,8,0:0:0:0:
256,192,62958,1,0,0:0:0:0:
256,192,63182,1,12,0:0:0:0:
256,192,63406,1,0,0:0:0:0:
256,192,63630,1,8,0:0:0:0:
256,192,63854,1,0,0:0:0:0:
256,192,63966,1,8,0:0:0:0:
256,192,64301,1,8,0:0:0:0:
256,192,64525,1,8,0:0:0:0:
256,192,64749,1,0,0:0:0:0:
256,192,64861,1,0,0:0:0:0:
256,192,64973,1,0,0:0:0:0:
256,192,65309,1,8,0:0:0:0:
256,192,65645,1,8,0:0:0:0:
256,192,66093,1,8,0:0:0:0:
256,192,66316,1,0,0:0:0:0:
256,192,66428,1,0,0:0:0:0:
256,192,66540,1,8,0:0:0:0:
256,192,66764,1,8,0:0:0:0:
256,192,66988,1,0,0:0:0:0:
256,192,67212,1,8,0:0:0:0:
256,192,67436,1,0,0:0:0:0:
256,192,67548,1,8,0:0:0:0:
256,192,67884,1,8,0:0:0:0:
256,192,68107,1,0,0:0:0:0:
256,192,68331,1,8,0:0:0:0:
256,192,68443,1,8,0:0:0:0:
256,192,68555,1,8,0:0:0:0:
256,192,69003,1,8,0:0:0:0:
256,192,69227,1,0,0:0:0:0:
256,192,69339,1,0,0:0:0:0:
256,192,69451,1,8,0:0:0:0:
256,192,69675,1,8,0:0:0:0:
256,192,69898,1,0,0:0:0:0:
256,192,70122,1,8,0:0:0:0:
256,192,70346,1,4,0:0:0:0:
256,192,70794,1,0,0:0:0:0:
256,192,71018,1,8,0:0:0:0:
256,192,71130,1,8,0:0:0:0:
256,192,71242,1,8,0:0:0:0:
256,192,71466,1,8,0:0:0:0:
256,192,71690,1,0,0:0:0:0:
256,192,71913,1,8,0:0:0:0:
256,192,72137,1,4,0:0:0:0:
256,192,72585,1,12,0:0:0:0:
256,192,73033,1,4,0:0:0:0:
256,192,73481,1,12,0:0:0:0:
256,192,73928,1,4,0:0:0:0:
256,192,74376,1,8,0:0:0:0:
256,192,74600,1,0,0:0:0:0:
256,192,74712,1,0,0:0:0:0:
256,192,74824,1,8,0:0:0:0:
256,192,75048,1,8,0:0:0:0:
256,192,75272,1,0,0:0:0:0:
256,192,75495,1,8,0:0:0:0:
256,192,75607,1,8,0:0:0:0:
256,192,75719,1,0,0:0:0:0:
256,192,75943,1,12,0:0:0:0:
256,192,76391,1,8,0:0:0:0:
256,192,76615,1,0,0:0:0:0:
256,192,76727,1,0,0:0:0:0:
256,192,76839,1,0,0:0:0:0:
256,192,77063,1,8,0:0:0:0:
256,192,77287,1,8,0:0:0:0:
256,192,77510,1,4,0:0:0:0:
256,192,77958,1,8,0:0:0:0:
256,192,78182,1,8,0:0:0:0:
256,192,78406,1,0,0:0:0:0:
256,192,78630,1,0,0:0:0:0:
256,192,78742,1,0,0:0:0:0:
256,192,78854,1,8,0:0:0:0:
256,192,79078,1,0,0:0:0:0:
256,192,79301,1,8,0:0:0:0:
256,192,79749,1,0,0:0:0:0:
256,192,79973,1,8,0:0:0:0:
256,192,80085,1,8,0:0:0:0:
256,192,80197,1,0,0:0:0:0:
256,192,80421,1,8,0:0:0:0:
256,192,80533,1,8,0:0:0:0:
256,192,80645,1,8,0:0:0:0:
256,192,80869,1,0,0:0:0:0:
256,192,81093,1,4,0:0:0:0:
256,192,81540,1,0,0:0:0:0:
256,192,81988,1,12,0:0:0:0:
256,192,82436,1,8,0:0:0:0:
256,192,82884,1,4,0:0:0:0:
256,192,83331,1,8,0:0:0:0:
256,192,83555,1,8,0:0:0:0:
256,192,83667,1,8,0:0:0:0:
256,192,83779,1,8,0:0:0:0:
256,192,84115,1,0,0:0:0:0:
256,192,84227,1,8,0:0:0:0:
256,192,84451,1,0,0:0:0:0:
256,192,84675,1,12,0:0:0:0:
256,192,85010,1,4,0:0:0:0:
256,192,85346,1,4,0:0:0:0:
256,192,85570,1,12,0:0:0:0:
256,192,86018,1,12,0:0:0:0:
256,192,86466,1,4,0:0:0:0:
256,192,86690,1,8,0:0:0:0:
256,192,86913,1,0,0:0:0:0:
256,192,87249,1,8,0:0:0:0:
256,192,87585,1,8,0:0:0:0:
256,192,87809,1,0,0:0:0:0:
256,192,88033,1,8,0:0:0:0:
256,192,88145,1,8,0:0:0:0:
256,192,88257,1,8,0:0:0:0:
256,192,88481,1,8,0:0:0:0:
256,192,88704,1,0,0:0:0:0:
256,192,89040,1,8,0:0:0:0:
256,192,89376,1,8,0:0:0:0:
256,192,89600,1,0,0:0:0:0:
256,192,89712,1,0,0:0:0:0:
256,192,89824,1,8,0:0:0:0:
256,192,90048,1,0,0:0:0:0:
256,192,90272,1,8,0:0:0:0:
256,192,90495,1,0,0:0:0:0:
256,192,90831,1,8,0:0:0:0:
256,192,91167,1,8,0:0:0:0:
256,192,91391,1,0,0:0:0:0:
256,192,91615,1,8,0:0:0:0:
256,192,91727,1,8,0:0:0:0:
256,192,91839,1,8,0:0:0:0:
256,192,92063,1,8,0:0:0:0:
256,192,92287,1,0,0:0:0:0:
256,192,92622,1,8,0:0:0:0:
256,192,92958,1,0,0:0:0:0:
256,192,93182,1,8,0:0:0:0:
256,192,93294,1,8,0:0:0:0:
256,192,93406,1,0,0:0:0:0:
256,192,93630,1,12,0:0:0:0:
256,192,93742,12,0,94861,0:0:0:0:
256,192,94973,5,8,0:0:0:0:
256,192,95421,1,4,0:0:0:0:
256,192,95645,1,8,0:0:0:0:
256,192,95869,1,0,0:0:0:0:
256,192,96204,1,8,0:0:0:0:
256,192,96540,1,0,0:0:0:0:
256,192,96764,1,8,0:0:0:0:
256,192,97212,1,0,0:0:0:0:
256,192,97436,1,8,0:0:0:0:
256,192,97660,1,0,0:0:0:0:
256,192,97995,1,0,0:0:0:0:
256,192,98555,1,0,0:0:0:0:
256,192,98779,1,8,0:0:0:0:
256,192,99227,1,8,0:0:0:0:
256,192,99451,1,8,0:0:0:0:
256,192,99787,1,8,0:0:0:0:
256,192,100122,1,0,0:0:0:0:
256,192,100346,1,8,0:0:0:0:
256,192,100570,1,8,0:0:0:0:
256,192,100794,1,0,0:0:0:0:
256,192,101242,1,8,0:0:0:0:
256,192,101690,1,0,0:0:0:0:
256,192,101913,1,0,0:0:0:0:
256,192,102137,1,8,0:0:0:0:
256,192,102249,1,8,0:0:0:0:
256,192,102361,1,8,0:0:0:0:
256,192,102585,1,4,0:0:0:0:
256,192,102809,1,12,0:0:0:0:
256,192,103033,1,0,0:0:0:0:
256,192,103257,1,8,0:0:0:0:
256,192,103369,1,0,0:0:0:0:
256,192,103704,1,8,0:0:0:0:
256,192,103928,1,8,0:0:0:0:
256,192,104376,1,0,0:0:0:0:
256,192,104600,1,8,0:0:0:0:
256,192,104824,1,0,0:0:0:0:
256,192,105048,1,8,0:0:0:0:
256,192,105160,1,0,0:0:0:0:
256,192,105719,1,0,0:0:0:0:
256,192,105943,1,8,0:0:0:0:
256,192,106167,1,4,0:0:0:0:
256,192,106503,1,0,0:0:0:0:
256,192,106839,1,8,0:0:0:0:
256,192,107063,1,4,0:0:0:0:
256,192,107287,1,0,0:0:0:0:
256,192,107510,1,8,0:0:0:0:
256,192,107622,1,8,0:0:0:0:
256,192,107846,1,0,0:0:0:0:
256,192,108182,1,12,0:0:0:0:
256,192,108406,1,0,0:0:0:0:
256,192,108742,1,8,0:0:0:0:
256,192,109078,1,8,0:0:0:0:
256,192,109301,1,8,0:0:0:0:
256,192,109413,1,8,0:0:0:0:
256,192,109525,1,0,0:0:0:0:
256,192,109749,1,4,0:0:0:0:
256,192,110197,1,0,0:0:0:0:
256,192,110421,1,8,0:0:0:0:
256,192,110533,1,8,0:0:0:0:
256,192,110645,1,8,0:0:0:0:
256,192,110869,1,8,0:0:0:0:
256,192,111093,1,0,0:0:0:0:
256,192,111540,1,8,0:0:0:0:
256,192,111764,1,8,0:0:0:0:
256,192,111876,1,8,0:0:0:0:
256,192,111988,1,0,0:0:0:0:
256,192,112212,1,0,0:0:0:0:
256,192,112436,1,8,0:0:0:0:
256,192,112660,1,8,0:0:0:0:
256,192,112884,1,0,0:0:0:0:
256,192,112995,1,0,0:0:0:0:
256,192,113107,1,8,0:0:0:0:
256,192,113331,1,0,0:0:0:0:
256,192,113779,1,0,0:0:0:0:
256,192,114003,1,8,0:0:0:0:
256,192,114115,1,8,0:0:0:0:
256,192,114227,1,8,0:0:0:0:
256,192,114451,1,8,0:0:0:0:
256,192,114675,1,0,0:0:0:0:
256,192,115122,1,8,0:0:0:0:
256,192,115570,1,0,0:0:0:0:
256,192,115794,1,8,0:0:0:0:
256,192,116018,1,0,0:0:0:0:
256,192,116242,1,8,0:0:0:0:
256,192,116354,1,8,0:0:0:0:
256,192,116466,1,0,0:0:0:0:
256,192,116690,1,8,0:0:0:0:
256,192,116913,1,4,0:0:0:0:
256,192,117137,1,0,0:0:0:0:
256,192,117249,1,0,0:0:0:0:
256,192,117361,1,8,0:0:0:0:
256,192,117809,1,0,0:0:0:0:
256,192,118033,1,0,0:0:0:0:
256,192,118145,1,8,0:0:0:0:
256,192,118257,1,8,0:0:0:0:
256,192,118704,1,0,0:0:0:0:
256,192,118928,1,8,0:0:0:0:
256,192,119040,1,8,0:0:0:0:
256,192,119152,1,8,0:0:0:0:
256,192,119376,1,0,0:0:0:0:
256,192,119600,1,12,0:0:0:0:
256,192,119936,1,12,0:0:0:0:
256,192,120272,1,4,0:0:0:0:
256,192,120495,1,12,0:0:0:0:
256,192,120943,1,8,0:0:0:0:
256,192,121167,1,0,0:0:0:0:
256,192,121391,1,8,0:0:0:0:
256,192,121839,1,8,0:0:0:0:
256,192,122063,1,0,0:0:0:0:
256,192,122287,1,8,0:0:0:0:
256,192,122734,1,8,0:0:0:0:
256,192,122958,1,8,0:0:0:0:
256,192,123182,1,0,0:0:0:0:
256,192,123518,1,0,0:0:0:0:
256,192,123630,1,8,0:0:0:0:
256,192,123854,1,0,0:0:0:0:
256,192,124078,1,12,0:0:0:0:
256,192,124190,12,0,124749,0:0:0:0:
256,192,124973,5,0,0:0:0:0:
256,192,125197,1,8,0:0:0:0:
256,192,125309,1,8,0:0:0:0:
256,192,125421,1,8,0:0:0:0:
256,192,125869,1,4,0:0:0:0:
256,192,126204,1,4,0:0:0:0:
256,192,126540,1,4,0:0:0:0:
256,192,126764,1,12,0:0:0:0:
256,192,127212,1,8,0:0:0:0:
256,192,127436,1,0,0:0:0:0:
256,192,127660,1,12,0:0:0:0:
256,192,127884,1,0,0:0:0:0:
256,192,128107,1,8,0:0:0:0:
256,192,128331,1,0,0:0:0:0:
256,192,128443,1,8,0:0:0:0:
256,192,128779,1,8,0:0:0:0:
256,192,129003,1,8,0:0:0:0:
256,192,129227,1,0,0:0:0:0:
256,192,129339,1,0,0:0:0:0:
256,192,129451,1,0,0:0:0:0:
256,192,129787,1,8,0:0:0:0:
256,192,130122,1,8,0:0:0:0:
256,192,130570,1,8,0:0:0:0:
256,192,130794,1,0,0:0:0:0:
256,192,130906,1,0,0:0:0:0:
256,192,131018,1,8,0:0:0:0:
256,192,131242,1,0,0:0:0:0:
256,192,131466,1,8,0:0:0:0:
256,192,131690,1,0,0:0:0:0:
256,192,131913,1,0,0:0:0:0:
256,192,132025,1,8,0:0:0:0:
256,192,132361,1,0,0:0:0:0:
256,192,132585,1,8,0:0:0:0:
256,192,132809,1,8,0:0:0:0:
256,192,132921,1,8,0:0:0:0:
256,192,133033,1,8,0:0:0:0:
256,192,133481,1,8,0:0:0:0:
256,192,133593,1,8,0:0:0:0:
256,192,133704,1,0,0:0:0:0:
256,192,133928,1,8,0:0:0:0:
256,192,134152,1,8,0:0:0:0:
256,192,134376,1,0,0:0:0:0:
256,192,134600,1,8,0:0:0:0:
256,192,134824,1,4,0:0:0:0:
256,192,135272,1,0,0:0:0:0:
256,192,135495,1,0,0:0:0:0:
256,192,135607,1,0,0:0:0:0:
256,192,135719,1,8,0:0:0:0:
256,192,135943,1,8,0:0:0:0:
256,192,136167,1,0,0:0:0:0:
256,192,136391,1,8,0:0:0:0:
256,192,136615,1,0,0:0:0:0:
256,192,137063,1,0,0:0:0:0:
256,192,137287,1,8,0:0:0:0:
256,192,137398,1,0,0:0:0:0:
256,192,137510,1,0,0:0:0:0:
256,192,137734,1,8,0:0:0:0:
256,192,137958,1,8,0:0:0:0:
256,192,138182,1,8,0:0:0:0:
256,192,138406,1,4,0:0:0:0:
256,192,138854,1,12,0:0:0:0:
256,192,139301,1,12,0:0:0:0:
256,192,139749,1,4,0:0:0:0:
256,192,140197,1,12,0:0:0:0:
256,192,140533,1,12,0:0:0:0:
256,192,140869,1,4,0:0:0:0:
256,192,141316,1,0,0:0:0:0:
256,192,141540,1,8,0:0:0:0:
256,192,141652,1,8,0:0:0:0:
256,192,141764,1,0,0:0:0:0:
256,192,141988,1,12,0:0:0:0:
256,192,142212,1,0,0:0:0:0:
256,192,142436,1,8,0:0:0:0:
256,192,142660,1,0,0:0:0:0:
256,192,142772,1,8,0:0:0:0:
256,192,143107,1,8,0:0:0:0:
256,192,143331,1,8,0:0:0:0:
256,192,143555,1,0,0:0:0:0:
256,192,143667,1,0,0:0:0:0:
256,192,143779,1,0,0:0:0:0:
256,192,144115,1,8,0:0:0:0:
256,192,144451,1,8,0:0:0:0:
256,192,144898,1,8,0:0:0:0:
256,192,145122,1,0,0:0:0:0:
256,192,145234,1,0,0:0:0:0:
256,192,145346,1,8,0:0:0:0:
256,192,145570,1,8,0:0:0:0:
256,192,145794,1,0,0:0:0:0:
256,192,146018,1,8,0:0:0:0:
256,192,146242,1,0,0:0:0:0:
256,192,146354,1,8,0:0:0:0:
256,192,146690,1,8,0:0:0:0:
256,192,146913,1,0,0:0:0:0:
256,192,147137,1,8,0:0:0:0:
256,192,147249,1,8,0:0:0:0:
256,192,147361,1,8,0:0:0:0:
256,192,147809,1,8,0:0:0:0:
256,192,148033,1,0,0:0:0:0:
256,192,148145,1,0,0:0:0:0:
256,192,148257,1,8,0:0:0:0:
256,192,148481,1,8,0:0:0:0:
256,192,148704,1,0,0:0:0:0:
256,192,148928,1,8,0:0:0:0:
256,192,149152,1,4,0:0:0:0:
256,192,149600,1,0,0:0:0:0:
256,192,149824,1,8,0:0:0:0:
256,192,149936,1,8,0:0:0:0:
256,192,150048,1,8,0:0:0:0:
256,192,150272,1,8,0:0:0:0:
256,192,150495,1,0,0:0:0:0:
256,192,150719,1,8,0:0:0:0:
256,192,150943,1,4,0:0:0:0:
256,192,151391,1,12,0:0:0:0:
256,192,151839,1,4,0:0:0:0:
256,192,152287,1,12,0:0:0:0:
256,192,152734,1,4,0:0:0:0:
256,192,153182,1,8,0:0:0:0:
256,192,153406,1,0,0:0:0:0:
256,192,153518,1,0,0:0:0:0:
256,192,153630,1,8,0:0:0:0:
256,192,153854,1,8,0:0:0:0:
256,192,154078,1,0,0:0:0:0:
256,192,154301,1,8,0:0:0:0:
256,192,154413,1,8,0:0:0:0:
256,192,154525,1,0,0:0:0:0:
256,192,154749,1,12,0:0:0:0:
256,192,155197,1,8,0:0:0:0:
256,192,155421,1,0,0:0:0:0:
256,192,155645,1,8,0:0:0:0:
256,192,155757,1,8,0:0:0:0:
256,192,155869,1,8,0:0:0:0:
256,192,156093,1,8,0:0:0:0:
256,192,156316,1,4,0:0:0:0:
256,192,156764,1,8,0:0:0:0:
256,192,156988,1,8,0:0:0:0:
256,192,157212,1,0,0:0:0:0:
256,192,157436,1,0,0:0:0:0:
256,192,157548,1,0,0:0:0:0:
256,192,157660,1,8,0:0:0:0:
256,192,157884,1,0,0:0:0:0:
256,192,158107,1,8,0:0:0:0:
256,192,158555,1,0,0:0:0:0:
256,192,158779,1,8,0:0:0:0:
256,192,158891,1,8,0:0:0:0:
256,192,159003,1,0,0:0:0:0:
256,192,159227,1,8,0:0:0:0:
256,192,159339,1,8,0:0:0:0:
256,192,159451,1,8,0:0:0:0:
256,192,159675,1,0,0:0:0:0:
256,192,159898,1,4,0:0:0:0:
256,192,160346,1,0,0:0:0:0:
256,192,160794,1,12,0:0:0:0:
256,192,161242,1,8,0:0:0:0:
256,192,161690,1,4,0:0:0:0:
256,192,162137,1,8,0:0:0:0:
256,192,162361,1,8,0:0:0:0:
256,192,162585,1,12,0:0:0:0:
256,192,162921,1,4,0:0:0:0:
256,192,163257,1,12,0:0:0:0:
256,192,163481,1,0,0:0:0:0:
256,192,163928,1,8,0:0:0:0:
256,192,164152,1,8,0:0:0:0:
256,192,164376,1,12,0:0:0:0:
256,192,164712,1,4,0:0:0:0:
256,192,165048,1,12,0:0:0:0:
256,192,165272,1,0,0:0:0:0:
256,192,165719,1,0,0:0:0:0:
256,192,165943,1,8,0:0:0:0:
256,192,166167,1,12,0:0:0:0:
256,192,166503,1,4,0:0:0:0:
256,192,166839,1,12,0:0:0:0:
256,192,167063,1,0,0:0:0:0:
256,192,167510,1,8,0:0:0:0:
256,192,167958,1,4,0:0:0:0:
256,192,168294,1,12,0:0:0:0:
256,192,168630,1,0,0:0:0:0:
256,192,168742,1,0,0:0:0:0:
256,192,168854,1,0,0:0:0:0:
256,192,169301,1,8,0:0:0:0:
256,192,169525,1,8,0:0:0:0:
256,192,169749,1,12,0:0:0:0:
256,192,170085,1,4,0:0:0:0:
256,192,170421,1,12,0:0:0:0:
256,192,170645,1,0,0:0:0:0:
256,192,171093,1,8,0:0:0:0:
256,192,171316,1,8,0:0:0:0:
256,192,171540,1,12,0:0:0:0:
256,192,171876,1,4,0:0:0:0:
256,192,172212,1,12,0:0:0:0:
256,192,172436,1,0,0:0:0:0:
256,192,172772,1,8,0:0:0:0:
256,192,173107,1,8,0:0:0:0:
256,192,173331,1,12,0:0:0:0:
256,192,173667,1,0,0:0:0:0:
256,192,174003,1,0,0:0:0:0:
256,192,174227,1,12,0:0:0:0:
256,192,174451,1,0,0:0:0:0:
256,192,174675,1,8,0:0:0:0:
256,192,174898,1,0,0:0:0:0:
256,192,175010,1,8,0:0:0:0:
256,192,175346,1,8,0:0:0:0:
256,192,175570,1,4,0:0:0:0:
256,192,176018,1,12,0:0:0:0:
256,192,176242,1,0,0:0:0:0:
256,192,176354,1,8,0:0:0:0:
256,192,176690,1,8,0:0:0:0:
256,192,176913,1,0,0:0:0:0:
256,192,177137,1,8,0:0:0:0:
256,192,177249,1,8,0:0:0:0:
256,192,177361,1,8,0:0:0:0:
256,192,177585,1,8,0:0:0:0:
256,192,177809,1,8,0:0:0:0:
256,192,178033,1,0,0:0:0:0:
256,192,178145,1,0,0:0:0:0:
256,192,178257,1,8,0:0:0:0:
256,192,178481,1,0,0:0:0:0:
256,192,178928,1,8,0:0:0:0:
256,192,179152,1,0,0:0:0:0:
256,192,179376,1,8,0:0:0:0:
256,192,179600,1,8,0:0:0:0:
256,192,179712,1,8,0:0:0:0:
256,192,179824,1,0,0:0:0:0:
256,192,180048,1,8,0:0:0:0:
256,192,180160,1,0,0:0:0:0:
256,192,180384,1,8,0:0:0:0:
256,192,180719,1,8,0:0:0:0:
256,192,180943,1,0,0:0:0:0:
256,192,181167,1,8,0:0:0:0:
256,192,181279,1,0,0:0:0:0:
256,192,181391,1,0,0:0:0:0:
256,192,181615,1,8,0:0:0:0:
256,192,181839,1,0,0:0:0:0:
256,192,181951,1,8,0:0:0:0:
256,192,182175,1,8,0:0:0:0:
256,192,182510,1,8,0:0:0:0:
256,192,182622,1,8,0:0:0:0:
256,192,182734,1,8,0:0:0:0:
256,192,182958,1,12,0:0:0:0:
256,192,183182,1,12,0:0:0:0:
256,192,183406,1,0,0:0:0:0:
256,192,183518,1,0,0:0:0:0:
256,192,183630,1,8,0:0:0:0:
256,192,183854,1,0,0:0:0:0:
256,192,184078,1,8,0:0:0:0:
256,192,184190,1,8,0:0:0:0:
256,192,184413,1,8,0:0:0:0:
256,192,184749,1,8,0:0:0:0:
256,192,184861,1,8,0:0:0:0:
256,192,184973,1,0,0:0:0:0:
256,192,185197,1,8,0:0:0:0:
256,192,185421,1,0,0:0:0:0:
256,192,185533,1,8,0:0:0:0:
256,192,185757,1,8,0:0:0:0:
256,192,186093,1,12,0:0:0:0:
256,192,186540,1,0,0:0:0:0:
256,192,186652,1,0,0:0:0:0:
256,192,186764,1,8,0:0:0:0:
256,192,186988,1,0,0:0:0:0:
256,192,187212,1,8,0:0:0:0:
256,192,187324,1,0,0:0:0:0:
256,192,187548,1,8,0:0:0:0:
256,192,187884,1,8,0:0:0:0:
256,192,188107,1,0,0:0:0:0:
256,192,188331,1,8,0:0:0:0:
256,192,188443,1,8,0:0:0:0:
256,192,188555,1,8,0:0:0:0:
256,192,188779,1,4,0:0:0:0:
256,192,189003,1,0,0:0:0:0:
256,192,189115,1,8,0:0:0:0:
256,192,189339,1,0,0:0:0:0:
256,192,189675,1,0,0:0:0:0:
256,192,189787,1,0,0:0:0:0:
256,192,189898,1,0,0:0:0:0:
256,192,190122,1,8,0:0:0:0:
256,192,190346,1,4,0:0:0:0:
256,192,191018,1,8,0:0:0:0:
256,192,191242,1,0,0:0:0:0:
256,192,191466,1,8,0:0:0:0:
256,192,191578,1,0,0:0:0:0:
256,192,191913,1,8,0:0:0:0:
256,192,192137,1,0,0:0:0:0:
256,192,192809,1,8,0:0:0:0:
256,192,193033,1,0,0:0:0:0:
256,192,193257,1,8,0:0:0:0:
256,192,193369,1,0,0:0:0:0:
256,192,193704,1,8,0:0:0:0:
256,192,193928,1,0,0:0:0:0:
256,192,194600,1,8,0:0:0:0:
256,192,194824,1,0,0:0:0:0:
256,192,195048,1,8,0:0:0:0:
256,192,195160,1,0,0:0:0:0:
256,192,195495,1,0,0:0:0:0:
256,192,195719,1,8,0:0:0:0:
256,192,196167,1,0,0:0:0:0:
256,192,196503,1,8,0:0:0:0:
256,192,196839,1,8,0:0:0:0:
256,192,196951,1,8,0:0:0:0:
256,192,197063,1,0,0:0:0:0:
256,192,197287,1,8,0:0:0:0:
256,192,197510,1,4,0:0:0:0:
256,192,198182,1,8,0:0:0:0:
256,192,198406,1,0,0:0:0:0:
256,192,198630,1,8,0:0:0:0:
256,192,198742,1,0,0:0:0:0:
256,192,199078,1,0,0:0:0:0:
256,192,199301,1,8,0:0:0:0:
256,192,199973,1,0,0:0:0:0:
256,192,200197,1,8,0:0:0:0:
256,192,200421,1,8,0:0:0:0:
256,192,200533,1,0,0:0:0:0:
256,192,200869,1,8,0:0:0:0:
256,192,201093,1,4,0:0:0:0:
256,192,201540,1,8,0:0:0:0:
256,192,201988,1,4,0:0:0:0:
256,192,202212,1,8,0:0:0:0:
256,192,202324,1,0,0:0:0:0:
256,192,202548,1,0,0:0:0:0:
256,192,202660,1,8,0:0:0:0:
256,192,202884,1,4,0:0:0:0:
256,192,203331,1,0,0:0:0:0:
256,192,203779,1,12,0:0:0:0:
256,192,204003,1,0,0:0:0:0:
256,192,204115,1,8,0:0:0:0:
256,192,204339,1,8,0:0:0:0:
256,192,204451,1,0,0:0:0:0:
256,192,204675,1,12,0:0:0:0:
256,192,205122,1,4,0:0:0:0:
256,192,205570,1,12,0:0:0:0:
256,192,205794,1,0,0:0:0:0:
256,192,206018,1,8,0:0:0:0:
256,192,206130,1,8,0:0:0:0:
256,192,206242,1,8,0:0:0:0:
256,192,206466,1,4,0:0:0:0:
256,192,206801,1,12,0:0:0:0:
256,192,207137,1,4,0:0:0:0:
256,192,207361,1,12,0:0:0:0:
256,192,207585,1,0,0:0:0:0:
256,192,207809,1,8,0:0:0:0:
256,192,208033,1,8,0:0:0:0:
256,192,208257,1,4,0:0:0:0:
256,192,210048,1,8,0:0:0:0:
256,192,210943,1,8,0:0:0:0:
256,192,211391,1,8,0:0:0:0:
256,192,211839,1,4,0:0:0:0:
256,192,213630,1,12,0:0:0:0:
256,192,214525,1,0,0:0:0:0:
256,192,214973,1,8,0:0:0:0:
256,192,215421,1,4,0:0:0:0:
256,192,215869,1,0,0:0:0:0:
256,192,216093,1,8,0:0:0:0:
256,192,216316,1,8,0:0:0:0:
256,192,216764,1,0,0:0:0:0:
256,192,217212,1,8,0:0:0:0:
256,192,217660,1,0,0:0:0:0:
256,192,217884,1,8,0:0:0:0:
256,192,218107,1,8,0:0:0:0:
256,192,218555,1,8,0:0:0:0:
256,192,218779,1,0,0:0:0:0:
256,192,219003,1,4,0:0:0:0:
256,192,219451,1,12,0:0:0:0:
256,192,219898,1,12,0:0:0:0:
256,192,220346,1,4,0:0:0:0:
256,192,220794,1,12,0:0:0:0:
256,192,221130,1,12,0:0:0:0:
256,192,221466,1,4,0:0:0:0:
256,192,221913,1,8,0:0:0:0:
256,192,222137,1,8,0:0:0:0:
256,192,222361,1,0,0:0:0:0:
256,192,222473,1,0,0:0:0:0:
256,192,222585,1,0,0:0:0:0:
256,192,223033,1,12,0:0:0:0:
256,192,223369,1,8,0:0:0:0:
256,192,223704,1,0,0:0:0:0:
256,192,223928,1,8,0:0:0:0:
256,192,224376,1,4,0:0:0:0:
256,192,224712,1,12,0:0:0:0:
256,192,225048,1,12,0:0:0:0:
256,192,225495,1,0,0:0:0:0:
256,192,225719,1,8,0:0:0:0:
256,192,225943,1,8,0:0:0:0:
256,192,226055,1,8,0:0:0:0:
256,192,226167,1,8,0:0:0:0:
256,192,226391,1,0,0:0:0:0:
256,192,226615,1,8,0:0:0:0:
256,192,226839,1,0,0:0:0:0:
256,192,226951,1,8,0:0:0:0:
256,192,227287,1,8,0:0:0:0:
256,192,227398,1,8,0:0:0:0:
256,192,227510,1,0,0:0:0:0:
256,192,227734,1,8,0:0:0:0:
256,192,227958,1,8,0:0:0:0:
256,192,228182,1,0,0:0:0:0:
256,192,228294,1,0,0:0:0:0:
256,192,228406,1,8,0:0:0:0:
256,192,228630,1,0,0:0:0:0:
256,192,228854,1,8,0:0:0:0:
256,192,229078,1,8,0:0:0:0:
256,192,229190,1,8,0:0:0:0:
256,192,229301,1,0,0:0:0:0:
256,192,229525,1,8,0:0:0:0:
256,192,229749,1,4,0:0:0:0:
256,192,230197,1,0,0:0:0:0:
256,192,230421,1,8,0:0:0:0:
256,192,230533,1,8,0:0:0:0:
256,192,230645,1,8,0:0:0:0:
256,192,230869,1,8,0:0:0:0:
256,192,231093,1,0,0:0:0:0:
256,192,231316,1,8,0:0:0:0:
256,192,231540,1,4,0:0:0:0:
256,192,231988,1,12,0:0:0:0:
256,192,232436,1,4,0:0:0:0:
256,192,232884,1,12,0:0:0:0:
256,192,233331,1,4,0:0:0:0:
256,192,233779,1,8,0:0:0:0:
256,192,234003,1,0,0:0:0:0:
256,192,234115,1,0,0:0:0:0:
256,192,234227,1,8,0:0:0:0:
256,192,234451,1,8,0:0:0:0:
256,192,234675,1,0,0:0:0:0:
256,192,234898,1,8,0:0:0:0:
256,192,235010,1,8,0:0:0:0:
256,192,235122,1,0,0:0:0:0:
256,192,235346,1,12,0:0:0:0:
256,192,235794,1,8,0:0:0:0:
256,192,236018,1,0,0:0:0:0:
256,192,236130,1,0,0:0:0:0:
256,192,236242,1,0,0:0:0:0:
256,192,236466,1,8,0:0:0:0:
256,192,236690,1,8,0:0:0:0:
256,192,236913,1,4,0:0:0:0:
256,192,237361,1,8,0:0:0:0:
256,192,237585,1,8,0:0:0:0:
256,192,237809,1,0,0:0:0:0:
256,192,238033,1,0,0:0:0:0:
256,192,238145,1,0,0:0:0:0:
256,192,238257,1,8,0:0:0:0:
256,192,238481,1,0,0:0:0:0:
256,192,238704,1,8,0:0:0:0:
256,192,239152,1,0,0:0:0:0:
256,192,239376,1,8,0:0:0:0:
256,192,239488,1,8,0:0:0:0:
256,192,239600,1,0,0:0:0:0:
256,192,239824,1,8,0:0:0:0:
256,192,239936,1,8,0:0:0:0:
256,192,240048,1,8,0:0:0:0:
256,192,240272,1,0,0:0:0:0:
256,192,240495,1,4,0:0:0:0:
256,192,240943,1,0,0:0:0:0:
256,192,241167,1,0,0:0:0:0:
256,192,241391,1,12,0:0:0:0:
256,192,241839,1,8,0:0:0:0:
256,192,242063,1,8,0:0:0:0:
256,192,242287,1,4,0:0:0:0:
256,192,242734,1,0,0:0:0:0:
256,192,242958,1,8,0:0:0:0:
256,192,243070,1,8,0:0:0:0:
256,192,243182,1,0,0:0:0:0:
256,192,243406,1,8,0:0:0:0:
256,192,243630,1,0,0:0:0:0:
256,192,243742,1,0,0:0:0:0:
256,192,243854,1,8,0:0:0:0:
256,192,244078,1,4,0:0:0:0:
256,192,244525,1,0,0:0:0:0:
256,192,244973,1,8,0:0:0:0:
256,192,245197,1,8,0:0:0:0:
256,192,245421,1,0,0:0:0:0:
256,192,245533,1,0,0:0:0:0:
256,192,245645,1,0,0:0:0:0:
256,192,245869,1,12,0:0:0:0:
256,192,246316,1,0,0:0:0:0:
256,192,246764,1,0,0:0:0:0:
256,192,246988,1,8,0:0:0:0:
256,192,247212,1,8,0:0:0:0:
256,192,247436,1,0,0:0:0:0:
256,192,247660,1,4,0:0:0:0:
256,192,248107,1,0,0:0:0:0:
256,192,248555,1,12,0:0:0:0:
256,192,249003,1,8,0:0:0:0:
256,192,249451,1,4,0:0:0:0:
256,192,249898,1,8,0:0:0:0:
256,192,250122,1,8,0:0:0:0:
256,192,250234,1,8,0:0:0:0:
256,192,250346,1,8,0:0:0:0:
256,192,250682,1,0,0:0:0:0:
256,192,250794,1,8,0:0:0:0:
256,192,251018,1,0,0:0:0:0:
256,192,251242,1,12,0:0:0:0:
256,192,251578,1,4,0:0:0:0:
256,192,251913,1,4,0:0:0:0:
256,192,252137,1,12,0:0:0:0:
256,192,252585,1,12,0:0:0:0:
256,192,253033,1,4,0:0:0:0:
256,192,253257,1,8,0:0:0:0:
256,192,253481,1,0,0:0:0:0:
256,192,253816,1,8,0:0:0:0:
256,192,254152,1,8,0:0:0:0:
256,192,254376,1,0,0:0:0:0:
256,192,254600,1,8,0:0:0:0:
256,192,254712,1,8,0:0:0:0:
256,192,254824,1,8,0:0:0:0:
256,192,255048,1,8,0:0:0:0:
256,192,255272,1,0,0:0:0:0:
256,192,255607,1,8,0:0:0:0:
256,192,255943,1,8,0:0:0:0:
256,192,256167,1,0,0:0:0:0:
256,192,256279,1,0,0:0:0:0:
256,192,256391,1,8,0:0:0:0:
256,192,256615,1,0,0:0:0:0:
256,192,256839,1,8,0:0:0:0:
256,192,257063,1,0,0:0:0:0:
256,192,257398,1,8,0:0:0:0:
256,192,257734,1,8,0:0:0:0:
256,192,257958,1,0,0:0:0:0:
256,192,258182,1,8,0:0:0:0:
256,192,258294,1,8,0:0:0:0:
256,192,258406,1,8,0:0:0:0:
256,192,258630,1,8,0:0:0:0:
256,192,258854,1,0,0:0:0:0:
256,192,259190,1,8,0:0:0:0:
256,192,259525,1,12,0:0:0:0:
256,192,259749,1,12,0:0:0:0:
256,192,259973,1,12,0:0:0:0:
256,192,260197,1,4,0:0:0:0:
256,192,260645,1,0,0:0:0:0:
256,192,260757,1,0,0:0:0:0:
256,192,260981,1,8,0:0:0:0:
256,192,261316,1,8,0:0:0:0:
256,192,261540,1,0,0:0:0:0:
256,192,261764,1,8,0:0:0:0:
256,192,261876,1,8,0:0:0:0:
256,192,261988,1,8,0:0:0:0:
256,192,262212,1,8,0:0:0:0:
256,192,262436,1,0,0:0:0:0:
256,192,262772,1,8,0:0:0:0:
256,192,263107,1,8,0:0:0:0:
256,192,263331,1,0,0:0:0:0:
256,192,263443,1,0,0:0:0:0:
256,192,263555,1,8,0:0:0:0:
256,192,263779,1,0,0:0:0:0:
256,192,264003,1,8,0:0:0:0:
256,192,264227,1,0,0:0:0:0:
256,192,264339,1,0,0:0:0:0:
256,192,264563,1,8,0:0:0:0:
256,192,264898,1,8,0:0:0:0:
256,192,265122,1,0,0:0:0:0:
256,192,265346,1,8,0:0:0:0:
256,192,265458,1,8,0:0:0:0:
256,192,265570,1,8,0:0:0:0:
256,192,265794,1,8,0:0:0:0:
256,192,266018,1,0,0:0:0:0:
256,192,266354,1,8,0:0:0:0:
256,192,266690,1,0,0:0:0:0:
256,192,266913,1,8,0:0:0:0:
256,192,267025,1,8,0:0:0:0:
256,192,267137,1,0,0:0:0:0:
256,192,267361,1,12,0:0:0:0:
256,192,267809,1,8,0:0:0:0:
256,192,268145,1,8,0:0:0:0:
256,192,268369,1,0,0:0:0:0:
256,192,268481,1,0,0:0:0:0:
256,192,268704,1,12,0:0:0:0:
