osu file format v14

[General]
AudioFilename: audio.mp3
AudioLeadIn: 0
PreviewTime: 48092
Countdown: 0
SampleSet: Soft
StackLeniency: 0.3
Mode: 0
LetterboxInBreaks: 0
WidescreenStoryboard: 0

[Editor]
Bookmarks: 7682,16637,30965,38129,41712,42175,45294,48876,63204,77532,86488,95443,102831,109771,116935,120518,124100,127682,142010,156338,161712,168876,176040,190368,208279,215443,219025,223055,224398,224734,225070,226189,236935,244100,247682,253055,260219,262234,267383,268726
DistanceSpacing: 1.7
BeatDivisor: 4
GridSize: 32
TimelineZoom: 1.9

[Metadata]
Title:adrenaline!!!
TitleUnicode:adrenaline!!!
Artist:TrySail
ArtistUnicode:TrySail
Creator:Mir
Version:Rush
Source:エロマンガ先生
Tags:Eromanga Sensei ED Ending Akitoshi Corinn -Mo- sdafsf
BeatmapID:1430503
BeatmapSetID:676340

[Difficulty]
HPDrainRate:5
CircleSize:4
OverallDifficulty:8.5
ApproachRate:9.2
SliderMultiplier:2.7
SliderTickRate:1

[Events]
//Background and Video events
0,0,"trash.jpg",0,0
//Break Periods
2,86704,92314
//Storyboard Layer 0 (Background)
//Storyboard Layer 1 (Fail)
//Storyboard Layer 2 (Pass)
//Storyboard Layer 3 (Foreground)
//Storyboard Sound Samples

[TimingPoints]
534,447.761194029851,4,2,1,40,1,0
4116,-100,4,2,1,20,0,0
4563,-100,4,2,1,40,0,0
5011,-100,4,2,1,60,0,0
5459,-100,4,2,1,80,0,0
5907,-50,4,2,1,80,0,0
6242,-100,4,2,1,80,0,0
6578,-50,4,2,1,80,0,0
6802,-100,4,2,1,80,0,0
7250,-50,4,2,1,80,0,0
7922,-66.6666666666667,4,2,1,80,0,0
14862,-133.333333333333,4,2,1,80,0,0
16653,-83.3333333333333,4,2,1,80,0,0
22922,-66.6666666666667,4,2,1,80,0,0
23369,-58.8235294117647,4,2,1,80,0,0
24041,-50,4,2,1,80,0,0
24265,-83.3333333333333,4,2,1,80,0,0
26728,-71.4285714285714,4,2,1,80,0,0
26951,-62.5,4,2,1,80,0,0
27175,-55.5555555555556,4,2,1,80,0,0
27399,-83.3333333333333,4,2,1,80,0,0
29414,-66.6666666666667,4,2,1,80,0,0
30981,-83.3333333333333,4,2,1,80,0,0
38145,-133.333333333333,4,2,1,80,0,0
40832,-83.3333333333333,4,2,1,80,0,0
41728,-100,4,2,1,80,0,0
45310,-100,4,2,1,40,0,0
46205,-100,4,2,1,60,0,0
46653,-100,4,2,1,80,0,0
47101,-50,4,2,1,80,0,1
47436,-100,4,2,1,80,0,1
47772,-50,4,2,1,80,0,1
47996,-50,4,2,1,80,0,0
48892,-66.6666666666667,4,2,1,80,0,1
56504,-50,4,2,1,80,0,1
56728,-66.6666666666667,4,2,1,80,0,1
58295,-50,4,2,1,80,0,1
58519,-66.6666666666667,4,2,1,80,0,1
62772,-133.333333333333,4,2,1,80,0,1
63220,-66.6666666666667,4,2,1,80,0,1
63444,-50,4,2,1,80,0,1
63668,-66.6666666666667,4,2,1,80,0,1
70832,-50,4,2,1,80,0,1
71056,-66.6666666666667,4,2,1,80,0,1
72623,-76.9230769230769,4,2,1,80,0,1
73071,-90.9090909090909,4,2,1,80,0,1
73519,-111.111111111111,4,2,1,80,0,1
73966,-66.6666666666667,4,2,1,80,0,1
75757,-133.333333333333,4,2,1,80,0,1
75981,-66.6666666666667,4,2,1,80,0,1
77325,-133.333333333333,4,2,1,80,0,1
77548,-133.333333333333,4,2,1,80,0,0
80235,-76.9230769230769,4,2,1,80,0,0
81131,-133.333333333333,4,2,1,80,0,0
82922,-100,4,2,1,80,0,0
84713,-50,4,2,1,80,0,1
85048,-100,4,2,1,80,0,1
85384,-50,4,2,1,80,0,1
85608,-66.6666666666667,4,2,1,80,0,1
86056,-50,4,2,1,80,0,0
93444,-66.6666666666667,4,2,1,80,0,0
93668,-100,4,2,1,80,0,0
101728,-83.3333333333333,4,2,1,80,0,0
102175,-100,4,2,0,80,0,0
102623,-100,4,2,1,80,0,0
102847,-50,4,2,1,80,0,0
103071,-83.3333333333333,4,2,1,80,0,0
116951,-133.333333333333,4,2,1,80,0,0
119638,-83.3333333333333,4,2,1,80,0,0
120534,-100,4,2,1,80,0,0
124116,-100,4,2,0,80,0,0
125459,-100,4,2,1,80,0,0
125907,-50,4,2,1,80,0,1
126242,-100,4,2,1,80,0,1
126578,-50,4,2,1,80,0,1
126802,-50,4,2,1,80,0,0
127474,-133.333333333333,4,2,1,80,0,0
127698,-66.6666666666667,4,2,1,80,0,1
135310,-50,4,2,1,80,0,1
135534,-66.6666666666667,4,2,1,80,0,1
137101,-50,4,2,1,80,0,1
137325,-66.6666666666667,4,2,1,80,0,1
142250,-50,4,2,1,80,0,1
142474,-66.6666666666667,4,2,1,80,0,1
149638,-50,4,2,1,80,0,1
149862,-66.6666666666667,4,2,1,80,0,1
151429,-76.9230769230769,4,2,1,80,0,1
151877,-90.9090909090909,4,2,1,80,0,1
152325,-111.111111111111,4,2,1,80,0,1
152772,-66.6666666666667,4,2,1,80,0,1
154563,-133.333333333333,4,2,1,80,0,1
154787,-66.6666666666667,4,2,1,80,0,1
156354,-133.333333333333,4,2,1,80,0,0
159041,-76.9230769230769,4,2,1,80,0,0
159936,-133.333333333333,4,2,1,80,0,0
161168,-133.333333333333,4,2,0,80,0,0
161728,-100,4,2,1,80,0,0
162623,-50,4,2,1,80,0,1
163519,-100,4,2,1,80,0,0
164414,-50,4,2,1,80,0,1
165310,-100,4,2,1,80,0,0
166205,-50,4,2,1,80,0,1
167101,-100,4,2,1,80,0,0
168332,-66.6666666666667,4,2,1,80,0,0
168892,-100,4,2,1,80,0,0
169787,-50,4,2,1,80,0,1
170683,-100,4,2,1,80,0,0
171578,-50,4,2,1,80,0,1
172474,-100,4,2,1,80,0,0
173369,-50,4,2,1,80,0,1
173705,-100,4,2,1,80,0,0
173929,-100,4,2,0,80,0,0
174265,-66.6666666666667,4,2,1,80,0,0
175048,-133.333333333333,4,2,1,80,0,0
175608,-66.6666666666667,4,2,1,80,0,0
175832,-133.333333333333,4,2,1,80,0,0
176056,-76.9230769230769,4,2,1,80,0,1
182548,-66.6666666666667,4,2,1,80,0,1
183220,-76.9230769230769,4,2,1,80,0,1
186131,-50,4,2,1,80,0,1
186354,-76.9230769230769,4,2,1,80,0,1
190384,-100,4,2,1,80,0,0
206504,-66.6666666666667,4,2,1,80,0,0
206839,-100,4,2,1,80,0,0
207175,-66.6666666666667,4,2,1,80,0,0
207399,-33.3333333333333,4,2,1,80,0,0
207623,-50,4,2,1,80,0,0
208071,-76.9230769230769,4,2,1,80,0,0
208295,-200,4,2,1,80,0,0
219041,-133.333333333333,4,2,1,80,0,0
220832,-83.3333333333333,4,2,1,80,0,0
223071,-50,4,2,1,80,0,1
223407,-133.333333333333,4,2,1,80,0,0
224414,-50,4,2,1,80,0,1
225086,-133.333333333333,4,2,1,80,0,1
225422,-66.6666666666667,4,2,1,80,0,0
226205,-66.6666666666667,4,2,1,80,0,1
230235,-50,4,2,1,80,0,1
230683,-66.6666666666667,4,2,1,80,0,1
232026,-76.9230769230769,4,2,1,80,0,1
232474,-90.9090909090909,4,2,1,80,0,1
232922,-111.111111111111,4,2,1,80,0,1
233369,-66.6666666666667,4,2,1,80,0,1
236951,-111.111111111111,4,2,1,80,0,0
239414,-76.9230769230769,4,2,1,80,0,0
240533,-111.111111111111,4,2,1,80,0,0
244116,-76.9230769230769,4,2,1,80,0,0
247698,-133.333333333333,4,2,1,80,0,0
250384,-100,4,2,1,80,0,0
251280,-50,4,2,1,80,0,0
251616,-100,4,2,1,80,0,0
251951,-50,4,2,1,80,0,0
252175,-66.6666666666667,4,2,1,80,0,0
252623,-50,4,2,1,80,0,0
253071,-66.6666666666667,4,2,1,80,0,0
259563,-50,4,2,1,80,0,0
260235,-58.8235294117647,4,2,1,80,0,0
263593,-50,4,2,1,80,0,0
263817,-58.8235294117647,4,2,1,80,0,0
267399,-100,4,2,1,80,0,0
268742,-200,4,2,1,80,0,0
269414,-200,4,2,1,5,0,0

[Colours]
Combo1 : 188,242,254
Combo2 : 255,196,225
Combo3 : 187,253,210
Combo4 : 250,192,173

[HitObjects]
215,158,198,5,0,3:2:0:0:
107,260,310,2,0,L|103:155,1,67.5,8|0,0:2|0:2,0:0:0:0:
112,42,534,5,4,3:2:0:0:
188,67,757,1,0,0:2:0:0:
241,74,981,1,0,0:2:0:0:
268,73,1205,1,0,0:2:0:0:
268,73,1429,5,0,0:2:0:0:
241,74,1653,1,0,0:2:0:0:
188,67,1877,1,0,0:2:0:0:
112,42,2101,1,0,3:2:0:0:
269,308,2325,5,4,3:2:0:0:
239,262,2548,1,0,0:2:0:0:
239,180,2772,1,0,0:2:0:0:
319,92,2996,1,0,0:2:0:0:
319,92,3220,5,0,0:2:0:0:
239,180,3444,1,0,0:2:0:0:
269,308,3668,1,0,0:2:0:0:
429,340,3892,1,0,3:2:0:0:
421,114,4116,5,12,3:2:0:0:
418,147,4228,1,8,0:2:0:0:
415,180,4339,2,0,L|411:259,1,67.5,8|8,0:2|0:2,0:0:0:0:
284,315,4563,5,8,0:2:0:0:
250,318,4675,1,8,0:2:0:0:
216,311,4787,1,8,0:2:0:0:
190,288,4899,1,8,0:2:0:0:
211,202,5011,5,8,0:2:0:0:
264,123,5123,1,8,0:2:0:0:
201,46,5235,1,8,0:2:0:0:
113,88,5347,1,8,0:2:0:0:
124,185,5459,5,8,0:2:0:0:
184,127,5571,1,8,0:2:0:0:
113,88,5683,1,8,0:2:0:0:
50,149,5795,1,8,0:2:0:0:
107,289,5907,6,0,B|179:295|179:295|208:263|208:263|321:270|321:270|252:293,1,270,12|0,3:2|0:2,0:0:0:0:
359,192,6242,6,0,P|398:241|376:354,1,135,12|0,3:2|0:2,0:0:0:0:
282,284,6578,6,0,B|277:233|277:233|258:212|258:212|257:122,1,135,12|0,3:2|0:2,0:0:0:0:
312,83,6802,6,0,P|248:141|181:41,1,202.5,12|0,3:2|0:2,0:0:0:0:
189,8,7250,6,0,P|239:157|302:14,1,405,12|0,0:2|0:2,0:0:0:0:
243,72,7698,6,0,B|263:137|263:137|242:252,1,135,4|0,3:2|0:2,0:0:0:0:
144,296,7922,2,0,L|290:298,1,101.250003862381,8|0,0:2|0:2,0:0:0:0:
481,280,8145,1,0,3:2:0:0:
481,280,8257,2,0,L|379:278,1,101.250003862381,0|8,3:2|0:2,0:0:0:0:
252,202,8481,6,0,B|146:203,2,101.250003862381,0|0|0,0:2|3:2|0:2,0:0:0:0:
348,144,8817,2,0,B|364:95|364:95|340:22,1,101.250003862381,8|0,0:2|0:2,0:0:0:0:
193,25,9041,2,0,B|177:72|177:72|193:121,1,101.250003862381,0|0,3:2|3:2,0:0:0:0:
251,298,9265,2,0,B|267:249|267:249|252:202,1,101.250003862381,8|0,0:2|0:2,0:0:0:0:
49,207,9489,6,0,L|184:203,1,101.250003862381,0|0,3:2|0:2,0:0:0:0:
352,296,9713,2,0,L|250:298,1,101.250003862381,8|0,0:2|0:2,0:0:0:0:
54,303,9936,1,0,3:2:0:0:
54,303,10048,2,0,P|39:258|57:192,1,101.250003862381,0|8,3:2|0:2,0:0:0:0:
251,201,10272,6,0,L|149:203,2,101.250003862381,0|0|0,0:2|3:2|0:2,0:0:0:0:
352,296,10608,2,0,L|453:293,1,101.250003862381,8|0,0:2|0:2,0:0:0:0:
280,382,10832,2,0,L|178:384,1,101.250003862381,0|0,3:2|3:2,0:0:0:0:
149,203,11056,2,0,P|161:247|124:327,1,101.250003862381,8|0,0:2|0:2,0:0:0:0:
73,365,11280,5,0,3:2:0:0:
93,104,11504,2,0,B|141:119|141:119|228:86,1,101.250003862381,8|0,0:2|0:2,0:0:0:0:
325,102,11728,1,0,3:2:0:0:
325,102,11839,2,0,L|321:0,1,101.250003862381,0|8,3:2|0:2,0:0:0:0:
329,197,12063,6,0,L|332:298,2,101.250003862381,0|0|0,0:2|3:2|0:2,0:0:0:0:
393,365,12399,2,0,P|354:384|282:374,1,101.250003862381,8|0,0:2|0:2,0:0:0:0:
145,298,12623,2,0,P|194:293|240:313,1,101.250003862381,0|0,3:2|3:2,0:0:0:0:
62,352,12847,2,0,L|59:251,1,101.250003862381,8|0,0:2|0:2,0:0:0:0:
79,124,13071,6,0,P|131:134|188:118,1,101.250003862381,0|0,3:2|0:2,0:0:0:0:
337,40,13295,2,0,P|287:29|238:39,1,101.250003862381,8|0,0:2|0:2,0:0:0:0:
385,213,13519,1,0,3:2:0:0:
385,213,13631,2,0,L|487:216,1,101.250003862381,0|8,3:2|0:0,0:0:0:0:
308,167,13854,6,0,P|295:221|334:285,1,101.250003862381,0|0,0:2|3:2,0:0:0:0:
361,343,14078,1,8,0:0:0:0:
269,344,14190,2,0,L|167:346,1,101.250003862381,0|8,0:2|0:2,0:0:0:0:
82,308,14414,1,8,0:2:0:0:
82,227,14526,1,8,0:2:0:0:
160,202,14638,1,8,0:2:0:0:
207,268,14750,1,8,0:2:0:0:
82,227,14862,6,0,B|61:177|61:177|77:91,1,101.250003862381,4|2,3:2|0:2,0:0:0:0:
175,0,15310,2,0,L|171:101,1,101.250003862381,2|2,0:2|0:2,0:0:0:0:
251,158,15645,2,0,B|295:177|295:177|383:158,1,101.250003862381,2|2,0:2|0:2,0:0:0:0:
432,125,15981,1,0,3:2:0:0:
450,107,16093,1,0,3:2:0:0:
468,89,16205,1,8,0:2:0:0:
448,215,16429,5,2,0:2:0:0:
454,239,16541,1,2,0:2:0:0:
436,324,16653,6,0,L|326:322,1,80.9999975280763,4|0,3:2|0:2,0:0:0:0:
286,159,16877,2,0,P|302:200|275:284,1,80.9999975280763,8|0,0:2|0:2,0:0:0:0:
186,329,17101,2,0,P|185:288|200:251,1,80.9999975280763,0|0,3:2|3:2,0:0:0:0:
286,159,17325,1,8,0:2:0:0:
257,130,17436,6,0,B|186:110|177:167|83:137,1,161.999995056153,0|0,0:2|0:2,0:0:0:0:
3,160,17772,2,0,P|4:120|24:85,1,80.9999975280763,8|0,0:2|0:2,0:0:0:0:
64,228,17996,2,0,P|83:263|84:303,1,80.9999975280763,0|0,3:2|3:2,0:0:0:0:
14,383,18220,2,0,L|161:385,1,80.9999975280763,8|0,0:2|0:2,0:0:0:0:
333,363,18444,6,0,B|346:323|346:323|323:245,1,80.9999975280763,0|0,3:2|0:2,0:0:0:0:
257,130,18668,2,0,B|245:167|245:167|258:207,1,80.9999975280763,8|0,0:2|0:2,0:0:0:0:
407,212,18892,2,0,L|509:213,1,80.9999975280763,0|0,3:2|3:2,0:0:0:0:
290,106,19116,1,8,0:2:0:0:
257,130,19228,6,0,P|142:143|86:94,1,161.999995056153,0|0,0:2|0:2,0:0:0:0:
6,88,19563,2,0,P|24:119|24:167,1,80.9999975280763,8|0,0:2|0:2,0:0:0:0:
125,278,19787,2,0,L|262:276,1,80.9999975280763,0|0,3:2|3:2,0:0:0:0:
347,215,20011,2,0,L|266:213,1,80.9999975280763,8|0,0:2|0:2,0:0:0:0:
98,360,20235,5,0,3:2:0:0:
433,257,20459,2,0,P|438:244|422:154,1,80.9999975280763,8|0,0:2|0:2,0:0:0:0:
355,40,20683,2,0,L|356:161,1,80.9999975280763,0|0,3:2|3:2,0:0:0:0:
355,317,20907,1,8,0:2:0:0:
330,349,21019,6,0,P|223:352|171:308,1,161.999995056153,0|0,0:2|0:0,0:0:0:0:
232,231,21354,2,0,B|248:192|248:192|241:153,1,80.9999975280763,8|0,0:2|0:2,0:0:0:0:
140,37,21578,2,0,B|133:75|133:75|149:114,1,80.9999975280763,0|0,3:2|3:2,0:0:0:0:
322,146,21802,2,0,L|242:153,1,80.9999975280763,8|0,0:2|0:2,0:0:0:0:
30,157,22026,6,0,L|46:354,1,161.999995056153,0|8,3:2|0:2,0:0:0:0:
195,337,22362,1,0,0:2:0:0:
226,311,22474,6,0,P|260:301|345:325,1,80.9999975280763,2|0,3:2|3:2,0:0:0:0:
512,373,22698,2,0,P|478:383|393:359,1,80.9999975280763,8|0,0:2|0:2,0:0:0:0:
226,311,22922,6,0,P|260:301|345:325,1,101.250003862381,2|0,3:2|0:2,0:0:0:0:
512,373,23146,2,0,P|478:383|393:359,1,101.250003862381,8|0,0:0|0:0,0:0:0:0:
226,311,23369,6,0,P|260:301|345:325,1,114.750002188683,2|0,3:2|3:2,0:0:0:0:
512,373,23593,2,0,P|478:383|393:359,1,114.750002188683,8|0,0:2|0:2,0:0:0:0:
246,129,23817,5,0,3:2:0:0:
235,163,24041,6,0,B|181:158|181:158|173:166|173:166|65:157,1,135,12|0,0:2|0:2,0:0:0:0:
93,4,24265,6,0,P|122:128|115:140,1,80.9999975280763,0|0,3:2|3:2,0:0:0:0:
61,299,24489,1,8,0:2:0:0:
84,332,24601,6,0,P|162:353|231:299,1,161.999995056153,0|0,0:2|0:2,0:0:0:0:
320,279,24936,2,0,L|308:392,1,80.9999975280763,8|0,0:2|0:2,0:0:0:0:
254,209,25160,2,0,L|245:128,1,80.9999975280763,0|0,3:2|3:2,0:0:0:0:
365,25,25384,2,0,L|356:105,1,80.9999975280763,8|0,0:2|0:2,0:0:0:0:
174,62,25608,6,0,P|214:38|303:65,1,80.9999975280763,0|0,3:2|0:2,0:0:0:0:
422,169,25832,2,0,P|388:191|349:196,1,80.9999975280763,8|0,0:2|0:2,0:0:0:0:
149,155,26056,2,0,L|140:235,1,80.9999975280763,0|0,3:2|3:2,0:0:0:0:
20,359,26280,1,8,0:2:0:0:
44,327,26392,6,0,P|133:312|213:378,1,161.999995056153,0|0,0:2|0:2,0:0:0:0:
322,362,26728,6,0,B|339:317|339:317|334:221,1,94.4999971160889,8|0,0:2|0:0,0:0:0:0:
249,245,26951,6,0,B|224:196|224:196|237:104,1,108,0|0,3:2|3:2,0:0:0:0:
333,145,27175,6,0,B|359:92|359:92|345:4,1,121.499996292114,8|0,0:2|0:2,0:0:0:0:
83,139,27399,6,0,P|215:155|259:114,1,161.999995056153,4|8,3:2|0:2,0:0:0:0:
46,57,27735,2,0,P|-2:180|47:230,1,161.999995056153,0|0,0:2|3:2,0:0:0:0:
78,240,28071,2,0,L|74:337,1,80.9999975280763,8|0,0:2|0:2,0:0:0:0:
308,261,28295,6,0,B|267:252|267:252|190:273,1,80.9999975280763,4|0,3:2|0:2,0:0:0:0:
279,352,28519,2,0,B|316:362|316:362|357:353,1,80.9999975280763,8|0,0:2|0:2,0:0:0:0:
323,143,28742,1,0,3:2:0:0:
302,180,28854,2,0,L|310:290,1,80.9999975280763,0|8,3:2|0:2,0:0:0:0:
403,91,29078,6,0,B|373:65|373:65|293:52,2,80.9999975280763,0|0|0,0:2|3:2|0:2,0:0:0:0:
95,75,29414,2,0,P|146:61|223:98,1,101.250003862381,12|0,0:2|0:2,0:0:0:0:
154,253,29638,1,8,0:2:0:0:
76,304,29750,2,0,P|59:250|85:191,1,101.250003862381,0|0,3:2|0:2,0:0:0:0:
350,248,29974,6,0,B|275:240|275:240|240:261|240:261|154:253,2,202.500007724762,8|8|8,3:2|0:2|0:2,0:0:0:0:
392,40,30534,1,8,0:2:0:0:
314,65,30645,1,8,0:2:0:0:
314,146,30757,1,8,0:2:0:0:
392,171,30869,1,8,0:2:0:0:
439,105,30981,6,0,B|488:91|488:91|466:269,1,161.999995056153,4|10,3:3|0:3,0:0:0:0:
449,346,31317,1,0,0:2:0:0:
413,326,31429,2,0,B|373:322|373:322|321:335,1,80.9999975280763,2|0,3:3|3:2,0:0:0:0:
186,276,31653,2,0,B|226:280|226:280|265:270,1,80.9999975280763,10|0,0:3|0:2,0:0:0:0:
123,343,31877,6,0,P|100:256|176:189,1,161.999995056153,2|10,3:3|0:3,0:0:0:0:
204,138,32213,1,0,0:2:0:0:
230,106,32325,2,0,P|241:66|218:15,1,80.9999975280763,2|0,3:3|3:2,0:0:0:0:
81,26,32548,2,0,P|69:64|80:102,1,80.9999975280763,10|0,0:3|0:2,0:0:0:0:
276,179,32772,6,0,P|364:187|452:122,1,161.999995056153,2|10,3:3|0:3,0:0:0:0:
477,255,33108,1,0,0:2:0:0:
442,276,33220,2,0,L|441:381,1,80.9999975280763,2|0,3:3|3:2,0:0:0:0:
346,376,33444,2,0,L|345:295,1,80.9999975280763,10|0,0:3|0:2,0:0:0:0:
244,107,33668,6,0,P|272:200|254:232,1,80.9999975280763,2|0,3:3|0:2,0:0:0:0:
193,182,33892,2,0,P|147:267|111:277,1,80.9999975280763,10|0,0:3|0:2,0:0:0:0:
31,170,34116,2,0,P|3:263|21:295,1,80.9999975280763,2|0,3:3|3:2,0:0:0:0:
82,245,34340,2,0,P|127:330|163:340,1,80.9999975280763,10|0,0:3|0:0,0:0:0:0:
253,291,34563,6,0,P|156:280|97:343,1,161.999995056153,2|10,3:3|0:3,0:0:0:0:
283,373,34899,1,0,0:2:0:0:
320,357,35011,2,0,B|364:358|364:358|425:358,1,80.9999975280763,2|0,3:3|3:2,0:0:0:0:
494,273,35235,2,0,L|413:272,1,80.9999975280763,10|0,0:3|0:2,0:0:0:0:
342,65,35459,6,0,P|342:200|295:219,1,161.999995056153,2|10,3:3|0:3,0:0:0:0:
165,157,35795,1,0,0:2:0:0:
199,135,35907,2,0,L|321:134,1,80.9999975280763,2|0,3:3|3:2,0:0:0:0:
142,50,36131,2,0,L|61:50,1,80.9999975280763,10|0,0:3|0:0,0:0:0:0:
160,295,36354,6,0,P|197:209|147:146,1,161.999995056153,2|10,3:3|0:3,0:0:0:0:
0,202,36690,1,0,0:2:0:0:
26,232,36802,2,0,P|62:237|118:221,1,80.9999975280763,2|0,3:3|3:2,0:0:0:0:
239,290,37026,2,0,P|198:285|159:294,1,80.9999975280763,10|0,0:3|0:2,0:0:0:0:
205,375,37250,5,0,3:2:0:0:
334,285,37362,2,0,P|327:245|302:215,2,80.9999975280763,8|0|0,0:2|3:2|3:2,0:0:0:0:
220,200,37698,2,0,L|229:104,1,80.9999975280763,8|0,0:2|0:2,0:0:0:0:
428,37,37922,1,0,0:2:0:0:
415,114,38034,1,8,0:2:0:0:
349,65,38145,6,0,L|288:65,1,50.6250019311906,4|0,3:2|0:2,0:0:0:0:
335,53,38369,2,0,L|274:53,1,50.6250019311906,0|0,3:2|3:2,0:0:0:0:
173,49,38593,2,0,B|121:42|121:42|52:68,1,101.250003862381,8|2,0:2|0:3,0:0:0:0:
120,140,38929,1,0,0:2:0:0:
155,212,39041,6,0,L|216:212,1,50.6250019311906,2|0,3:3|0:2,0:0:0:0:
169,200,39265,2,0,L|230:200,1,50.6250019311906,2|0,3:3|3:2,0:0:0:0:
291,145,39489,2,0,B|311:198|311:198|282:286,1,101.250003862381,8|2,0:2|0:3,0:0:0:0:
232,293,39825,1,0,0:2:0:0:
153,320,39936,6,0,L|92:320,1,50.6250019311906,2|0,3:3|0:2,0:0:0:0:
139,308,40160,2,0,L|78:308,1,50.6250019311906,2|0,3:3|3:2,0:0:0:0:
24,141,40384,2,0,B|57:186|57:186|45:258,1,101.250003862381,8|8,0:2|0:2,0:0:0:0:
2,301,40720,1,8,0:2:0:0:
139,308,40832,6,0,B|332:313,1,161.999995056153,4|0,3:2|3:2,0:0:0:0:
381,379,41168,2,0,P|402:303|341:221,1,161.999995056153,12|0,0:2|3:2,0:0:0:0:
332,76,41504,2,0,P|318:118|342:176,1,80.9999975280763,12|0,0:2|0:2,0:0:0:0:
137,222,41728,6,0,L|293:227,1,135,8|0,0:2|0:0,0:0:0:0:
208,0,42175,2,0,L|217:176,1,135,8|0,0:2|0:2,0:0:0:0:
401,119,42623,2,0,L|392:295,1,135,8|0,0:2|3:2,0:0:0:0:
308,368,43071,1,8,0:2:0:0:
483,228,43295,1,0,3:2:0:0:
209,315,43519,6,0,B|31:324,1,135,8|0,0:2|3:2,0:0:0:0:
178,226,43966,1,8,0:2:0:0:
167,45,44190,1,0,0:2:0:0:
112,153,44414,2,0,P|241:170|274:142,1,135,8|0,0:2|3:2,0:0:0:0:
285,79,44750,1,0,0:2:0:0:
303,107,44862,2,0,L|459:106,1,135,8|0,0:2|3:2,0:0:0:0:
67,315,45310,5,12,0:2:0:0:
67,315,45534,5,8,0:2:0:0:
86,308,45645,1,8,0:2:0:0:
107,306,45757,1,8,0:2:0:0:
128,309,45869,1,8,0:2:0:0:
151,319,45981,1,8,0:2:0:0:
173,335,46093,1,8,0:2:0:0:
200,338,46205,5,8,0:2:0:0:
273,347,46317,1,8,0:2:0:0:
343,322,46429,1,8,0:2:0:0:
377,256,46541,1,8,0:2:0:0:
362,183,46653,5,8,0:2:0:0:
268,200,46765,1,8,0:2:0:0:
178,170,46877,1,8,0:2:0:0:
128,89,46989,1,8,0:2:0:0:
180,21,47101,6,0,B|375:23|375:23|311:62,1,270,12|0,0:2|0:2,0:0:0:0:
103,108,47436,6,0,P|72:171|106:250,1,135,12|0,0:2|0:2,0:0:0:0:
196,205,47772,6,0,P|163:170|179:206,1,135,12|0,0:2|0:2,0:0:0:0:
219,339,47996,6,0,P|288:357|407:330,1,135,12|0,0:2|0:2,0:0:0:0:
512,218,48220,1,8,0:2:0:0:
460,147,48332,1,8,0:2:0:0:
378,174,48444,1,8,0:2:0:0:
378,261,48556,1,8,0:2:0:0:
460,289,48668,1,8,0:2:0:0:
136,46,48892,6,0,L|139:200,1,101.250003862381,4|0,3:2|0:2,0:0:0:0:
286,206,49116,2,0,L|287:104,1,101.250003862381,10|0,0:2|0:2,0:0:0:0:
71,213,49339,2,0,P|124:241|199:211,1,101.250003862381,0|0,3:2|3:2,0:0:0:0:
286,104,49563,1,10,0:2:0:0:
459,223,49675,6,0,B|462:362|462:362|419:292,1,202.500007724762,0|0,0:2|0:2,0:0:0:0:
256,352,50011,2,0,B|306:366|306:366|371:355,1,101.250003862381,10|0,0:2|0:2,0:0:0:0:
500,149,50235,2,0,B|451:140|451:140|401:154,1,101.250003862381,0|0,3:2|3:2,0:0:0:0:
163,236,50459,2,0,L|161:134,1,101.250003862381,10|0,0:2|0:2,0:0:0:0:
408,25,50683,6,0,B|336:25|336:25|304:46|304:46|156:39,1,202.500007724762,0|10,3:2|0:2,0:0:0:0:
59,97,51019,2,0,B|57:166|57:166|43:193|43:193|55:221|55:221|56:309,1,202.500007724762,0|0,0:2|3:2,0:0:0:0:
163,236,51354,2,0,L|161:134,1,101.250003862381,10|0,0:2|0:2,0:0:0:0:
151,355,51578,1,0,3:2:0:0:
245,350,51690,1,0,0:2:0:0:
339,349,51802,6,0,P|351:303|296:212,1,101.250003862381,10|0,0:2|0:2,0:0:0:0:
299,58,52026,2,0,P|285:106|297:155,1,101.250003862381,0|0,3:2|3:2,0:0:0:0:
483,101,52250,2,0,L|361:108,1,101.250003862381,10|0,0:2|0:2,0:0:0:0:
61,241,52474,6,0,L|162:235,1,101.250003862381,0|0,3:2|0:2,0:0:0:0:
297,155,52698,2,0,L|195:149,1,101.250003862381,10|0,0:2|0:2,0:0:0:0:
73,38,52922,2,0,P|100:84|79:166,1,101.250003862381,0|0,3:2|3:2,0:0:0:0:
61,241,53145,1,10,0:2:0:0:
234,310,53257,6,0,B|340:272|344:361|451:309,1,202.500007724762,0|0,0:2|0:2,0:0:0:0:
406,145,53593,2,0,P|386:192|403:262,1,101.250003862381,10|0,0:2|0:2,0:0:0:0:
512,361,53817,2,0,P|517:311|497:265,1,101.250003862381,0|0,3:2|3:2,0:0:0:0:
354,62,54041,2,0,L|216:65,1,101.250003862381,10|0,0:2|0:2,0:0:0:0:
28,204,54265,6,0,B|76:220|76:220|166:207,1,101.250003862381,0|0,3:2|0:2,0:0:0:0:
252,64,54489,2,0,B|201:56|201:56|153:72,1,101.250003862381,10|0,0:2|0:2,0:0:0:0:
126,212,54713,1,0,3:2:0:0:
144,307,54825,1,0,3:2:0:0:
220,367,54936,2,0,P|239:322|222:255,1,101.250003862381,10|0,0:2|0:2,0:0:0:0:
76,32,55160,6,0,P|68:81|87:127,1,101.250003862381,0|0,3:2|0:2,0:0:0:0:
352,51,55384,2,0,L|252:64,1,101.250003862381,10|0,0:2|0:2,0:0:0:0:
322,307,55608,2,0,L|423:320,1,101.250003862381,0|0,3:2|3:2,0:0:0:0:
479,161,55832,2,0,L|378:148,1,101.250003862381,10|0,0:2|0:2,0:0:0:0:
51,102,56056,6,0,B|29:175|29:175|72:319,1,202.500007724762,4|10,3:2|0:2,0:0:0:0:
322,307,56392,1,0,0:2:0:0:
139,242,56504,6,0,B|239:251|239:251|303:221|303:221|402:231,1,270,0|10,3:2|0:2,0:0:0:0:
247,152,56839,1,0,0:2:0:0:
322,307,56951,6,0,L|458:323,1,101.250003862381,0|0,3:2|0:2,0:0:0:0:
502,220,57175,2,0,L|401:231,1,101.250003862381,10|0,0:2|0:2,0:0:0:0:
326,122,57399,2,0,L|426:133,1,101.250003862381,0|0,3:2|3:2,0:0:0:0:
511,28,57623,2,0,L|410:39,1,101.250003862381,10|0,0:2|0:2,0:0:0:0:
184,203,57847,6,0,B|323:200|323:200|223:235,1,202.500007724762,0|10,3:2|0:2,0:0:0:0:
100,269,58183,1,0,0:2:0:0:
212,65,58295,6,0,B|128:-17|11:41|11:41|91:88,1,270,0|10,3:2|0:2,0:0:0:0:
121,142,58631,1,0,0:2:0:0:
184,203,58742,6,0,P|202:249|197:299,1,101.250003862381,0|0,3:2|0:2,0:0:0:0:
88,364,58966,2,0,P|81:315|100:269,1,101.250003862381,10|0,0:2|0:2,0:0:0:0:
298,298,59190,2,0,L|197:299,1,101.250003862381,0|0,3:2|3:2,0:0:0:0:
0,270,59414,2,0,L|101:269,1,101.250003862381,10|0,0:2|0:2,0:0:0:0:
373,357,59638,6,0,P|381:248|288:208,1,202.500007724762,4|10,3:2|0:2,0:0:0:0:
196,299,59974,1,0,0:2:0:0:
137,177,60086,2,0,B|116:135|116:135|134:43,1,101.250003862381,4|0,3:2|3:2,0:0:0:0:
313,118,60310,2,0,L|149:121,1,101.250003862381,10|0,0:2|0:2,0:0:0:0:
389,8,60534,6,0,P|469:106|430:191,1,202.500007724762,4|10,3:2|0:0,0:0:0:0:
372,335,60869,1,0,0:2:0:0:
296,269,60981,2,0,P|332:244|442:263,1,101.250003862381,4|0,3:2|3:2,0:0:0:0:
288,372,61205,2,0,L|165:366,1,101.250003862381,10|0,0:2|0:2,0:0:0:0:
16,134,61429,6,0,B|97:125|97:125|136:141|136:141|272:130,1,202.500007724762,4|10,3:2|0:2,0:0:0:0:
289,63,61765,2,0,B|214:134|214:134|277:257,1,202.500007724762,0|0,0:2|3:2,0:0:0:0:
414,149,62101,2,0,B|361:137|361:137|263:173,1,101.250003862381,10|0,0:2|0:2,0:0:0:0:
148,212,62325,5,0,3:2:0:0:
204,289,62436,2,0,P|256:309|323:274,2,101.250003862381,8|0|8,0:2|0:2|0:2,0:0:0:0:
41,76,62772,1,8,0:2:0:0:
132,27,62884,1,8,0:2:0:0:
238,69,62996,2,0,L|320:69,1,50.6250019311906,0|0,3:2|0:2,0:0:0:0:
458,56,63220,2,0,L|435:216,1,101.250003862381,0|0,3:2|0:2,0:0:0:0:
492,374,63444,6,0,B|483:325|483:325|491:301|491:301|471:223,1,135,14|0,0:2|0:2,0:0:0:0:
284,258,63668,2,0,P|402:275|439:254,1,101.250003862381,0|0,3:2|3:2,0:0:0:0:
355,181,63892,1,10,0:2:0:0:
206,320,64004,6,0,B|-13:316,1,202.500007724762,0|0,0:2|0:2,0:0:0:0:
145,220,64339,2,0,B|162:171|162:171|140:88,1,101.250003862381,10|0,0:2|0:2,0:0:0:0:
50,5,64563,2,0,B|37:52|37:52|54:101,1,101.250003862381,0|0,3:2|3:2,0:0:0:0:
251,124,64787,2,0,L|89:124,1,101.250003862381,10|0,0:2|0:2,0:0:0:0:
347,73,65011,6,0,B|428:46|428:46|405:168,1,202.500007724762,0|10,3:2|0:2,0:0:0:0:
293,214,65347,2,0,B|391:202|391:202|482:283,1,202.500007724762,0|0,0:2|3:2,0:0:0:0:
279,339,65683,2,0,B|305:299|305:299|387:290,1,101.250003862381,10|0,0:2|0:2,0:0:0:0:
460,369,65907,1,0,3:2:0:0:
365,380,66019,1,0,0:2:0:0:
279,339,66131,6,0,L|130:339,1,101.250003862381,10|0,0:2|0:0,0:0:0:0:
36,257,66354,2,0,L|137:257,1,101.250003862381,0|0,3:2|3:2,0:0:0:0:
264,173,66578,2,0,L|162:173,1,101.250003862381,10|0,0:2|0:2,0:0:0:0:
435,11,66802,6,0,B|439:62|439:62|419:107,1,101.250003862381,0|0,3:2|0:2,0:0:0:0:
264,173,67026,2,0,B|260:122|260:122|280:77,1,101.250003862381,10|0,0:2|0:2,0:0:0:0:
483,174,67250,2,0,P|436:196|352:178,1,101.250003862381,0|0,3:2|3:2,0:0:0:0:
264,173,67474,1,10,0:2:0:0:
400,377,67586,6,0,B|437:286|437:286|378:177,1,202.500007724762,0|0,0:2|0:2,0:0:0:0:
235,292,67922,2,0,B|286:305|286:305|355:280,1,101.250003862381,10|0,0:2|0:2,0:0:0:0:
264,173,68145,2,0,B|218:156|218:156|167:169,1,101.250003862381,0|0,3:2|3:2,0:0:0:0:
97,379,68369,2,0,L|109:260,1,101.250003862381,10|0,0:2|0:2,0:0:0:0:
56,53,68593,6,0,P|106:36|203:99,1,101.250003862381,0|0,3:2|0:2,0:0:0:0:
360,181,68817,2,0,P|310:189|263:172,1,101.250003862381,10|0,0:2|0:2,0:0:0:0:
403,22,69041,1,0,3:2:0:0:
459,115,69153,1,0,3:2:0:0:
439,228,69265,2,0,L|451:342,1,101.250003862381,10|0,0:2|0:2,0:0:0:0:
263,172,69489,6,0,L|251:286,1,101.250003862381,0|0,3:2|0:2,0:0:0:0:
298,352,69713,2,0,P|250:364|201:353,1,101.250003862381,10|0,0:2|0:2,0:0:0:0:
64,205,69936,2,0,P|113:194|161:208,1,101.250003862381,0|0,3:2|3:2,0:0:0:0:
98,384,70160,2,0,L|108:283,1,101.250003862381,10|0,0:2|0:2,0:0:0:0:
102,66,70384,6,0,B|179:58|179:58|230:79|230:79|373:67,1,202.500007724762,4|10,3:2|0:2,0:0:0:0:
433,38,70720,1,0,0:2:0:0:
393,298,70832,6,0,B|381:109|381:109|428:250,1,270,0|10,3:2|0:2,0:0:0:0:
464,354,71168,1,0,0:2:0:0:
307,321,71280,6,0,L|198:327,1,101.250003862381,0|0,3:2|0:2,0:0:0:0:
70,244,71504,2,0,L|179:250,1,101.250003862381,10|0,0:2|0:2,0:0:0:0:
323,171,71728,2,0,L|214:177,1,101.250003862381,0|0,3:2|0:0,0:0:0:0:
79,94,71952,2,0,L|188:100,1,101.250003862381,10|0,0:0|0:0,0:0:0:0:
7,339,72175,6,0,B|-23:244|-23:244|28:135,1,202.500007724762,4|10,3:2|0:2,0:0:0:0:
79,94,72511,1,0,0:2:0:0:
219,329,72623,6,0,B|263:257|263:257|207:148,1,175.499991966248,4|10,3:2|0:2,0:0:0:0:
180,99,72959,1,0,0:2:0:0:
321,185,73071,6,0,B|339:210|339:210|493:207,1,148.50000453186,4|10,3:2|0:2,0:0:0:0:
486,130,73407,1,0,0:2:0:0:
503,330,73519,6,0,B|425:330|425:330|395:307|395:307|328:310,1,182.249994438172,4|0,3:2|0:0,0:0:0:0:
256,361,73966,6,0,P|241:312|259:242,1,101.250003862381,4|0,3:2|0:2,0:0:0:0:
328,86,74190,2,0,P|335:135|320:183,1,101.250003862381,10|0,0:2|0:2,0:0:0:0:
157,264,74414,1,0,3:2:0:0:
77,200,74526,1,0,3:2:0:0:
102,101,74638,2,0,L|219:113,1,101.250003862381,10|0,0:2|0:2,0:0:0:0:
52,292,74862,6,0,P|51:242|76:199,1,101.250003862381,0|0,3:2|0:2,0:0:0:0:
179,18,75086,2,0,P|204:61|202:111,1,101.250003862381,10|0,0:2|0:2,0:0:0:0:
248,263,75310,2,0,L|348:252,1,101.250003862381,0|0,3:2|3:2,0:0:0:0:
424,156,75534,2,0,L|323:145,1,101.250003862381,10|0,0:2|0:2,0:0:0:0:
51,101,75757,2,0,L|126:101,1,50.6250019311906,4|0,3:2|0:2,0:0:0:0:
157,183,75981,6,0,B|167:231|167:231|149:321,1,101.250003862381,10|0,0:2|0:2,0:0:0:0:
0,384,76205,2,0,B|-10:332|-10:332|0:284,1,101.250003862381,0|0,3:2|3:2,0:0:0:0:
140,375,76429,1,10,0:2:0:0:
231,368,76541,1,0,0:2:0:0:
281,291,76653,1,0,3:2:0:0:
370,308,76765,6,0,B|517:304|517:304|400:343,1,202.500007724762,8|8,0:2|0:2,0:0:0:0:
281,291,77101,1,8,0:2:0:0:
259,203,77213,1,8,0:2:0:0:
300,127,77325,2,0,L|380:129,1,50.6250019311906,0|0,3:2|0:0,0:0:0:0:
451,29,77548,6,0,L|437:103,1,50.6250019311906,4|0,3:2|0:2,0:0:0:0:
464,44,77772,2,0,L|450:118,1,50.6250019311906,0|0,3:2|3:2,0:0:0:0:
309,35,77996,2,0,B|258:38|258:38|218:67,1,101.250003862381,12|0,0:2|0:2,0:0:0:0:
300,127,78332,1,0,0:2:0:0:
347,205,78444,6,0,L|333:279,1,50.6250019311906,0|0,3:2|0:2,0:0:0:0:
360,220,78668,2,0,L|346:294,1,50.6250019311906,0|0,3:2|3:2,0:0:0:0:
235,330,78892,2,0,B|187:346|187:346|96:315,1,101.250003862381,12|0,0:2|0:2,0:0:0:0:
56,283,79228,1,0,0:2:0:0:
135,221,79339,6,0,L|149:147,1,50.6250019311906,0|0,3:2|0:2,0:0:0:0:
122,206,79563,2,0,L|136:132,1,50.6250019311906,0|0,3:2|3:2,0:0:0:0:
36,43,79787,2,0,B|82:63|82:63|163:52,1,101.250003862381,12|0,0:2|0:2,0:0:0:0:
212,32,80123,1,0,0:2:0:0:
290,86,80235,6,0,L|271:222,1,87.749995983124,0|0,3:2|0:2,0:0:0:0:
348,349,80459,2,0,L|335:262,1,87.749995983124,0|0,3:2|3:2,0:0:0:0:
154,262,80683,2,0,P|194:276|289:227,1,87.749995983124,12|0,0:2|0:2,0:0:0:0:
470,148,80907,1,8,0:2:0:0:
374,172,81019,1,8,0:2:0:0:
431,251,81131,6,0,B|436:195|436:195|419:170|419:170|421:66,1,151.875005793572,6|0,3:2|0:0,0:0:0:0:
345,66,81578,2,0,P|424:70|421:11,1,151.875005793572,2|0,0:2|0:2,0:0:0:0:
275,115,82026,6,0,B|216:122|216:122|188:108|188:108|80:116,1,151.875005793572,6|0,3:2|0:2,0:0:0:0:
69,50,82474,2,0,P|94:115|41:214,1,151.875005793572,2|0,0:2|0:2,0:0:0:0:
0,279,82922,6,0,B|53:275|53:275|76:282|76:282|135:276,1,135,6|0,3:2|0:0,0:0:0:0:
222,337,83257,1,0,0:2:0:0:
252,322,83369,2,0,L|254:222,1,67.5,10|2,0:2|0:2,0:0:0:0:
180,121,83593,2,0,L|181:188,1,67.5,2|2,0:2|0:2,0:0:0:0:
331,206,83817,6,0,P|414:200|485:113,1,135,10|0,0:2|0:2,0:0:0:0:
367,110,84153,1,0,3:2:0:0:
395,300,84265,2,0,P|439:289|480:260,1,67.5,10|2,0:2|0:2,0:0:0:0:
349,18,84489,1,2,3:2:0:0:
257,63,84601,1,0,3:2:0:0:
203,143,84713,6,0,B|-13:142|-13:142|148:94,1,270,12|0,3:2|0:0,0:0:0:0:
70,36,85048,6,0,P|119:75|120:158,1,135,12|0,3:2|0:2,0:0:0:0:
76,228,85384,6,0,B|143:225|143:225|146:232|146:232|271:227,1,135,12|0,3:2|0:2,0:0:0:0:
345,163,85608,6,0,P|459:152|354:222,1,303.750011587143,12|0,3:2|0:2,0:0:0:0:
366,266,86056,6,0,P|487:161|328:142,1,405,8|0,0:2|0:2,0:0:0:0:
405,184,86504,5,4,3:2:0:0:
254,372,92884,6,0,B|274:308|274:308|262:214,1,135,8|0,0:2|0:2,0:0:0:0:
121,150,93108,1,8,0:2:0:0:
31,179,93220,1,8,0:2:0:0:
31,273,93332,1,8,0:2:0:0:
121,302,93444,2,0,P|160:269|177:171,1,101.250003862381,8|8,0:2|0:2,0:0:0:0:
121,150,93668,6,0,B|234:113|213:215|361:137,1,202.5,4|0,3:2|0:2,0:0:0:0:
401,122,94116,2,0,P|361:187|405:255,1,135,2|0,0:2|0:2,0:0:0:0:
418,315,94451,2,0,L|240:311,1,135,2|2,0:2|0:2,0:0:0:0:
181,351,94787,1,0,0:2:0:0:
161,323,94899,1,0,3:2:0:0:
143,293,95011,6,0,P|129:250|266:171,1,202.5,8|2,0:2|0:2,0:0:0:0:
219,245,95459,5,4,3:2:0:0:
170,84,95683,1,0,0:2:0:0:
341,251,95907,1,0,0:2:0:0:
56,246,96131,1,0,0:2:0:0:
76,219,96242,6,0,L|73:61,1,135,0|0,0:2|0:2,0:0:0:0:
51,58,96578,1,0,0:2:0:0:
128,281,96802,1,0,0:2:0:0:
357,98,97026,1,0,3:2:0:0:
270,368,97250,6,0,L|258:198,1,135,0|0,3:2|0:2,0:0:0:0:
248,88,97698,1,0,0:2:0:0:
403,195,97922,1,0,0:2:0:0:
386,224,98034,6,0,P|283:244|229:204,1,135,0|0,0:2|0:2,0:0:0:0:
245,202,98369,1,0,0:2:0:0:
65,194,98593,1,0,0:2:0:0:
334,167,98817,1,0,3:2:0:0:
150,349,99041,1,0,3:2:0:0:
140,90,99265,5,0,0:2:0:0:
65,194,99489,1,0,0:2:0:0:
152,0,99713,1,0,0:2:0:0:
181,15,99825,6,0,L|343:14,1,135,0|0,0:2|0:2,0:0:0:0:
347,1,100160,1,0,0:2:0:0:
247,139,100384,1,0,0:2:0:0:
77,47,100608,1,0,3:2:0:0:
315,193,100832,6,0,P|216:191|174:247,1,135,0|0,3:2|0:2,0:0:0:0:
164,302,101168,1,0,0:2:0:0:
181,331,101280,6,0,L|341:333,1,135,2|0,0:2|0:2,0:0:0:0:
455,337,101616,1,0,0:2:0:0:
431,303,101728,6,0,P|422:197|485:148,1,161.999995056153,2|0,0:2|0:2,0:0:0:0:
311,194,102063,1,0,0:2:0:0:
270,116,102175,5,8,0:3:0:0:
320,45,102287,1,4,0:3:0:0:
361,121,102399,1,4,0:3:0:0:
53,98,102623,1,0,3:2:0:0:
56,129,102847,6,0,B|116:125|116:125|127:132|127:132|219:128,1,135,12|0,0:2|0:2,0:0:0:0:
311,194,103071,6,0,P|321:226|313:295,1,80.9999975280763,0|0,3:2|3:2,0:0:0:0:
129,301,103295,1,8,0:2:0:0:
157,272,103407,6,0,L|342:273,1,161.999995056153,0|0,0:2|0:2,0:0:0:0:
436,357,103742,2,0,L|355:356,1,80.9999975280763,8|0,0:2|0:2,0:0:0:0:
318,272,103966,6,0,L|398:272,1,80.9999975280763,0|0,3:2|3:2,0:0:0:0:
479,272,104190,2,0,L|398:271,1,80.9999975280763,8|0,0:2|0:2,0:0:0:0:
445,106,104414,6,0,P|458:138|445:212,1,80.9999975280763,0|0,3:2|0:2,0:0:0:0:
276,181,104638,2,0,P|274:140|288:103,1,80.9999975280763,8|0,0:2|0:2,0:0:0:0:
416,16,104862,2,0,L|300:26,1,80.9999975280763,0|0,3:2|3:2,0:0:0:0:
96,44,105086,1,8,0:2:0:0:
125,16,105198,6,0,P|188:81|166:167,1,161.999995056153,0|0,0:2|0:2,0:0:0:0:
110,191,105534,2,0,L|114:306,1,80.9999975280763,8|0,0:2|0:0,0:0:0:0:
299,251,105757,2,0,B|258:241|258:241|186:260,1,80.9999975280763,0|0,3:2|3:2,0:0:0:0:
74,350,105981,2,0,B|111:359|111:359|152:349,1,80.9999975280763,8|0,0:2|0:2,0:0:0:0:
392,188,106205,6,0,L|380:384,1,161.999995056153,4|8,3:2|0:2,0:0:0:0:
487,173,106541,2,0,P|435:105|344:102,1,161.999995056153,0|0,0:2|3:2,0:0:0:0:
214,162,106877,2,0,P|254:170|332:137,1,80.9999975280763,8|0,0:2|0:2,0:0:0:0:
206,64,107101,6,0,P|166:56|126:64,1,80.9999975280763,4|0,3:2|0:2,0:0:0:0:
113,245,107325,2,0,L|118:131,1,80.9999975280763,8|0,0:2|0:2,0:0:0:0:
39,314,107548,1,0,3:2:0:0:
64,345,107660,2,0,L|191:338,1,80.9999975280763,0|8,3:2|0:2,0:0:0:0:
214,162,107884,2,0,L|210:242,1,80.9999975280763,0|0,0:2|3:2,0:0:0:0:
505,159,108220,5,12,0:2:0:0:
490,196,108332,1,0,0:2:0:0:
444,277,108444,1,8,0:2:0:0:
414,249,108556,2,0,P|397:208|407:134,1,80.9999975280763,0|0,3:2|0:2,0:0:0:0:
459,92,108780,6,0,P|370:140|251:89,1,161.999995056153,8|8,3:2|0:2,0:0:0:0:
256,60,109116,2,0,L|154:65,1,80.9999975280763,0|8,0:2|0:2,0:0:0:0:
84,143,109339,1,8,0:2:0:0:
14,165,109451,1,8,0:2:0:0:
14,238,109563,1,8,0:2:0:0:
84,260,109675,1,8,0:2:0:0:
126,201,109787,6,0,B|202:182|202:182|309:205,1,161.999995056153,4|10,3:3|0:3,0:0:0:0:
371,273,110123,1,0,0:2:0:0:
404,249,110235,2,0,P|444:186|425:116,1,80.9999975280763,2|0,3:3|3:2,0:0:0:0:
381,40,110459,2,0,P|393:78|421:107,1,80.9999975280763,10|0,0:3|0:2,0:0:0:0:
273,105,110683,6,0,P|420:109|446:80,1,161.999995056153,2|10,3:3|0:3,0:0:0:0:
251,11,111019,1,0,0:2:0:0:
218,35,111131,2,0,L|81:32,1,80.9999975280763,2|0,3:3|3:2,0:0:0:0:
0,100,111354,2,0,L|80:101,1,80.9999975280763,10|0,0:3|0:2,0:0:0:0:
105,324,111578,6,0,P|140:247|82:156,1,161.999995056153,2|10,3:3|0:3,0:0:0:0:
213,311,111914,1,0,0:2:0:0:
242,338,112026,2,0,L|340:335,1,80.9999975280763,2|0,3:3|3:2,0:0:0:0:
437,252,112250,2,0,L|356:249,1,80.9999975280763,10|0,0:3|0:2,0:0:0:0:
311,13,112474,6,0,P|324:56|300:117,1,80.9999975280763,2|0,3:3|0:2,0:0:0:0:
400,107,112698,2,0,P|378:146|318:172,1,80.9999975280763,10|0,0:3|0:2,0:0:0:0:
220,311,112922,2,0,P|187:287|169:251,1,80.9999975280763,2|0,3:3|3:2,0:0:0:0:
258,235,113146,2,0,P|251:195|264:157,1,80.9999975280763,10|0,0:3|0:0,0:0:0:0:
511,172,113369,6,0,L|309:165,1,161.999995056153,2|10,3:3|0:3,0:0:0:0:
78,209,113705,1,0,0:2:0:0:
97,173,113817,2,0,B|132:159|132:159|227:167,1,80.9999975280763,2|0,3:3|3:2,0:0:0:0:
123,279,114041,2,0,B|88:293|88:293|44:289,1,80.9999975280763,10|0,0:3|0:2,0:0:0:0:
133,71,114265,6,0,L|294:76,1,161.999995056153,2|10,3:3|0:3,0:0:0:0:
404,0,114601,1,0,0:2:0:0:
428,33,114713,2,0,P|432:77|405:131,1,80.9999975280763,2|0,3:3|3:2,0:0:0:0:
328,253,114936,2,0,P|315:214|320:174,1,80.9999975280763,10|0,0:3|0:2,0:0:0:0:
389,335,115160,6,0,P|268:333|232:262,1,161.999995056153,2|10,3:3|0:3,0:0:0:0:
181,203,115496,1,0,0:2:0:0:
146,224,115608,2,0,L|48:221,1,80.9999975280763,2|0,3:3|3:2,0:0:0:0:
0,316,115832,2,0,L|80:313,1,80.9999975280763,10|0,0:3|0:2,0:0:0:0:
214,68,116056,5,0,3:2:0:0:
147,12,116168,2,0,P|128:50|143:116,1,80.9999975280763,8|0,0:2|3:2,0:0:0:0:
146,224,116392,1,0,3:2:0:0:
186,294,116504,1,8,0:2:0:0:
267,294,116616,1,8,0:2:0:0:
308,223,116728,1,0,0:2:0:0:
267,153,116839,1,8,0:2:0:0:
186,153,116951,6,0,L|177:247,1,50.6250019311906,4|0,3:2|0:2,0:0:0:0:
169,164,117175,2,0,L|160:258,1,50.6250019311906,0|0,3:2|3:2,0:0:0:0:
308,223,117399,2,0,B|360:218|360:218|416:172,1,101.250003862381,8|2,0:2|0:3,0:0:0:0:
434,93,117735,1,0,0:2:0:0:
346,20,117847,6,0,L|337:114,1,50.6250019311906,2|0,3:3|0:2,0:0:0:0:
329,31,118071,2,0,L|320:125,1,50.6250019311906,2|0,3:3|3:2,0:0:0:0:
186,153,118295,2,0,B|134:148|134:148|78:102,1,101.250003862381,8|2,0:2|0:3,0:0:0:0:
31,62,118631,1,0,0:2:0:0:
11,161,118742,6,0,L|20:255,1,50.6250019311906,2|0,3:3|0:2,0:0:0:0:
28,172,118966,2,0,L|37:266,1,50.6250019311906,2|0,3:3|3:2,0:0:0:0:
60,306,119190,2,0,B|111:312|111:312|201:291,1,101.250003862381,8|8,0:2|0:2,0:0:0:0:
322,311,119526,1,8,0:2:0:0:
248,262,119638,6,0,P|248:183|327:127,1,161.999995056153,4|0,3:2|3:2,0:0:0:0:
462,123,119974,2,0,B|392:91|398:163|291:126,1,161.999995056153,12|0,0:2|3:2,0:0:0:0:
194,45,120310,2,0,P|238:42|285:59,1,80.9999975280763,12|0,0:2|0:2,0:0:0:0:
167,328,120534,6,0,L|150:106,1,202.5,8|0,0:2|0:0,0:0:0:0:
24,136,120981,2,0,P|98:149|158:119,1,135,8|0,0:2|0:2,0:0:0:0:
258,37,121429,2,0,B|96:37,1,135,8|0,0:2|3:2,0:0:0:0:
191,233,121877,1,8,0:2:0:0:
371,20,122101,1,0,3:2:0:0:
435,174,122325,6,0,P|338:183|278:151,1,135,8|0,0:2|3:2,0:0:0:0:
459,76,122772,1,8,0:2:0:0:
426,288,122996,1,0,0:2:0:0:
86,221,123220,2,0,P|181:209|236:261,1,135,8|0,0:2|3:2,0:0:0:0:
275,272,123556,1,0,0:2:0:0:
301,294,123669,2,0,P|364:312|425:287,1,135,8|0,0:2|3:2,0:0:0:0:
434,97,124116,5,4,0:2:0:0:
434,97,124339,2,0,L|442:174,1,67.5,8|0,0:3|0:2,0:0:0:0:
228,107,124563,1,0,0:0:0:0:
243,77,124675,2,0,L|361:77,1,67.5,8|0,0:3|0:2,0:0:0:0:
248,187,124899,6,0,P|205:188|161:162,1,67.5,4|0,0:3|0:2,0:0:0:0:
62,119,125123,2,0,P|93:108|127:111,2,67.5,4|0|0,0:3|0:2|0:2,0:0:0:0:
12,265,125459,1,8,0:2:0:0:
40,363,125571,1,8,0:2:0:0:
142,366,125683,1,8,0:2:0:0:
177,269,125795,1,8,0:2:0:0:
96,200,125907,6,0,B|96:23|96:23|127:111,1,270,12|0,3:2|0:2,0:0:0:0:
202,183,126242,6,0,P|269:195|353:150,1,135,12|0,3:2|0:2,0:0:0:0:
271,56,126578,6,0,P|236:94|287:75,1,135,12|0,3:2|0:2,0:0:0:0:
403,95,126802,6,0,P|435:165|387:266,1,135,12|0,3:2|0:2,0:0:0:0:
316,318,127026,2,0,B|260:297|254:348|163:313,1,135,8|8,0:2|0:2,0:0:0:0:
68,37,127250,1,8,0:2:0:0:
133,128,127362,1,8,0:2:0:0:
67,216,127474,2,0,L|67:306,1,50.6250019311906,8|0,0:2|0:2,0:0:0:0:
324,223,127698,6,0,L|492:217,1,101.250003862381,4|0,3:2|0:2,0:0:0:0:
251,156,127922,2,0,L|149:159,1,101.250003862381,10|0,0:2|0:2,0:0:0:0:
318,29,128145,2,0,P|342:76|330:151,1,101.250003862381,0|0,3:2|3:2,0:0:0:0:
324,223,128369,1,10,0:2:0:0:
464,307,128481,6,0,L|456:87,1,202.500007724762,0|0,0:2|0:2,0:0:0:0:
318,29,128817,2,0,L|217:35,1,101.250003862381,10|0,0:2|0:2,0:0:0:0:
27,76,129041,2,0,L|128:81,1,101.250003862381,0|0,3:2|3:2,0:0:0:0:
212,233,129265,2,0,P|227:186|202:107,1,101.250003862381,10|0,0:2|0:2,0:0:0:0:
196,334,129489,6,0,B|276:332|276:332|312:354|312:354|458:349,1,202.500007724762,0|10,3:2|0:2,0:0:0:0:
486,276,129825,2,0,B|489:126|489:126|443:199,1,202.500007724762,0|0,0:2|3:2,0:0:0:0:
396,275,130160,2,0,B|338:277|338:277|290:240,1,101.250003862381,10|0,0:2|0:2,0:0:0:0:
213,46,130384,1,0,3:2:0:0:
304,19,130496,1,0,0:2:0:0:
366,94,130608,6,0,L|368:216,1,101.250003862381,10|0,0:2|0:2,0:0:0:0:
217,236,130832,2,0,L|218:134,1,101.250003862381,0|0,3:2|3:2,0:0:0:0:
461,170,131056,2,0,P|418:195|367:196,1,101.250003862381,10|0,0:2|0:2,0:0:0:0:
118,136,131280,6,0,B|168:128|168:128|279:142,1,101.250003862381,0|0,3:2|0:2,0:0:0:0:
265,321,131504,2,0,B|214:327|214:327|164:319,1,101.250003862381,10|0,0:2|0:2,0:0:0:0:
49,251,131728,2,0,L|40:383,1,101.250003862381,0|0,3:2|3:2,0:0:0:0:
164,319,131951,1,10,0:2:0:0:
118,136,132063,6,0,B|134:69|71:1|71:1|65:142,1,202.500007724762,0|0,0:2|0:2,0:0:0:0:
142,224,132399,2,0,L|243:217,1,101.250003862381,10|0,0:2|0:2,0:0:0:0:
461,170,132623,2,0,L|359:163,1,101.250003862381,0|0,3:2|3:2,0:0:0:0:
269,0,132847,2,0,P|296:45|284:123,1,101.250003862381,10|0,0:2|0:2,0:0:0:0:
315,344,133071,6,0,P|316:293|342:251,1,101.250003862381,0|0,3:2|0:2,0:0:0:0:
512,328,133295,2,0,L|410:321,1,101.250003862381,10|0,0:2|0:2,0:0:0:0:
209,326,133519,1,0,3:2:0:0:
117,298,133631,1,0,3:2:0:0:
92,202,133742,2,0,L|100:64,1,101.250003862381,10|0,0:2|0:2,0:0:0:0:
183,38,133966,6,0,P|208:92|166:172,1,101.250003862381,0|0,3:2|0:2,0:0:0:0:
0,130,134190,2,0,P|-5:80|18:36,1,101.250003862381,10|0,0:2|0:2,0:0:0:0:
302,137,134414,2,0,L|200:131,1,101.250003862381,0|0,3:2|3:2,0:0:0:0:
341,37,134638,2,0,L|442:42,1,101.250003862381,10|0,0:2|0:2,0:0:0:0:
428,346,134862,6,0,B|454:223|454:223|401:130,1,202.500007724762,4|10,3:2|0:2,0:0:0:0:
332,298,135198,1,0,0:2:0:0:
170,232,135310,6,0,B|129:177|140:92|185:58|185:58|219:91|198:134,1,270,0|10,3:2|0:2,0:0:0:0:
67,170,135645,1,0,0:2:0:0:
128,316,135757,6,0,P|170:325|237:299,1,101.250003862381,0|0,3:2|0:2,0:0:0:0:
364,215,135981,2,0,P|316:198|267:207,1,101.250003862381,10|0,0:2|0:2,0:0:0:0:
452,342,136205,2,0,L|473:204,1,101.250003862381,0|0,3:2|3:2,0:0:0:0:
417,53,136429,2,0,L|432:153,1,101.250003862381,10|0,0:2|0:2,0:0:0:0:
175,194,136653,6,0,B|173:121|173:121|199:83|199:83|197:-5,1,202.500007724762,0|10,3:2|0:2,0:0:0:0:
264,152,136989,1,0,0:2:0:0:
196,297,137101,6,0,B|97:322|107:228|13:272|13:272|36:319|114:286,1,270,0|10,3:2|0:2,0:0:0:0:
194,384,137436,1,0,0:2:0:0:
278,243,137548,6,0,P|293:297|281:349,1,101.250003862381,0|0,3:2|0:2,0:0:0:0:
175,194,137772,2,0,P|167:144|181:96,1,101.250003862381,10|0,0:2|0:2,0:0:0:0:
365,149,137996,2,0,L|232:152,1,101.250003862381,0|0,3:2|3:2,0:0:0:0:
80,94,138220,2,0,L|213:97,1,101.250003862381,10|0,0:2|0:2,0:0:0:0:
433,68,138444,6,0,P|469:171|400:257,1,202.500007724762,4|10,3:2|0:2,0:0:0:0:
320,292,138780,1,0,0:2:0:0:
423,243,138892,2,0,L|423:345,1,101.250003862381,4|0,3:2|3:2,0:0:0:0:
219,342,139116,2,0,L|218:240,1,101.250003862381,10|0,0:2|0:2,0:0:0:0:
102,27,139339,6,0,P|47:152|92:224,1,202.500007724762,4|10,3:2|0:2,0:0:0:0:
126,286,139675,1,0,0:2:0:0:
250,123,139787,2,0,L|129:125,1,101.250003862381,4|0,3:2|3:2,0:0:0:0:
25,289,140011,2,0,L|126:287,1,101.250003862381,10|0,0:2|0:2,0:0:0:0:
363,107,140235,6,0,B|413:195|413:195|360:311,1,202.500007724762,4|10,3:2|0:2,0:0:0:0:
293,41,140571,2,0,B|241:4|241:4|404:20,1,202.500007724762,0|0,0:2|3:2,0:0:0:0:
478,16,140907,2,0,B|477:134,1,101.250003862381,10|0,0:2|0:2,0:0:0:0:
370,287,141131,5,0,3:2:0:0:
308,197,141242,2,0,P|256:187|190:205,1,101.250003862381,8|0,0:2|0:2,0:0:0:0:
74,274,141466,1,8,0:2:0:0:
120,353,141578,1,8,0:2:0:0:
210,353,141690,1,8,0:2:0:0:
255,275,141802,1,0,3:2:0:0:
209,195,141914,1,0,0:2:0:0:
119,196,142026,2,0,B|104:147|104:147|130:37,1,101.250003862381,0|0,3:2|0:2,0:0:0:0:
393,164,142250,6,0,B|401:213|401:213|390:242|390:242|401:294,1,135,14|0,0:2|0:2,0:0:0:0:
465,93,142474,2,0,P|427:71|315:97,1,101.250003862381,0|0,3:2|3:2,0:0:0:0:
209,195,142698,1,10,0:2:0:0:
40,42,142810,6,0,P|151:17|208:109,1,202.500007724762,0|0,0:2|0:2,0:0:0:0:
119,196,143145,2,0,B|104:147|104:147|130:37,1,101.250003862381,10|0,0:2|0:2,0:0:0:0:
292,155,143369,2,0,B|303:203|303:203|288:252,1,101.250003862381,0|0,3:2|3:2,0:0:0:0:
92,298,143593,2,0,L|233:287,1,101.250003862381,10|0,0:2|0:2,0:0:0:0:
376,281,143817,6,0,B|519:269|519:269|408:296,1,202.500007724762,0|10,3:2|0:2,0:0:0:0:
288,252,144153,2,0,B|259:206|259:206|267:115|267:115|338:57,1,202.500007724762,0|0,0:2|3:2,0:0:0:0:
462,170,144489,2,0,B|419:173|419:173|401:166|401:166|362:171,1,101.250003862381,10|0,0:2|0:2,0:0:0:0:
117,5,144713,1,0,3:2:0:0:
197,62,144825,1,0,0:2:0:0:
125,134,144936,6,0,P|117:199|151:260,1,101.250003862381,10|0,0:2|0:2,0:0:0:0:
284,349,145160,2,0,P|297:301|288:252,1,101.250003862381,0|0,3:2|3:2,0:0:0:0:
83,340,145384,2,0,L|232:328,1,101.250003862381,10|0,0:2|0:2,0:0:0:0:
388,260,145608,6,0,L|239:248,1,101.250003862381,0|0,3:2|0:2,0:0:0:0:
471,314,145832,2,0,P|484:265|474:216,1,101.250003862381,10|0,0:2|0:2,0:0:0:0:
355,67,146056,2,0,L|363:167,1,101.250003862381,0|0,3:2|3:2,0:0:0:0:
493,17,146280,1,10,0:2:0:0:
250,30,146392,6,0,B|159:-1|149:88|22:38,1,202.500007724762,0|0,0:2|0:2,0:0:0:0:
43,144,146728,2,0,L|51:244,1,101.250003862381,10|0,0:2|0:2,0:0:0:0:
145,351,146951,2,0,L|153:250,1,101.250003862381,0|0,3:2|3:2,0:0:0:0:
245,131,147175,2,0,L|253:231,1,101.250003862381,10|0,0:2|0:2,0:0:0:0:
512,256,147399,6,0,P|404:221|323:294,1,202.500007724762,0|10,3:2|0:2,0:0:0:0:
243,345,147735,1,0,0:2:0:0:
153,250,147847,2,0,P|143:197|161:149,1,101.250003862381,0|0,3:2|3:2,0:0:0:0:
328,37,148071,2,0,P|343:84|333:133,1,101.250003862381,10|0,0:2|0:2,0:0:0:0:
52,65,148295,6,0,B|100:53|100:53|207:67,1,101.250003862381,0|0,3:2|0:2,0:0:0:0:
153,250,148519,2,0,B|101:256|101:256|53:244,1,101.250003862381,10|0,0:2|0:2,0:0:0:0:
246,204,148742,2,0,P|257:255|223:331,1,101.250003862381,0|0,3:2|3:2,0:0:0:0:
54,342,148966,2,0,P|41:293|52:244,1,101.250003862381,10|0,0:2|0:2,0:0:0:0:
246,204,149190,6,0,B|348:180|348:260|469:205,1,202.500007724762,4|10,3:2|0:2,0:0:0:0:
479,131,149526,1,0,0:2:0:0:
228,109,149638,6,0,B|148:38|32:101|32:101|85:125,1,270,0|10,3:2|0:2,0:0:0:0:
246,204,149974,1,0,0:2:0:0:
382,135,150086,6,0,P|397:89|379:18,1,101.250003862381,0|0,3:2|0:2,0:0:0:0:
246,204,150310,2,0,P|238:253|253:301,1,101.250003862381,10|0,0:2|0:2,0:0:0:0:
406,378,150534,2,0,L|305:376,1,101.250003862381,0|0,3:2|0:0,0:0:0:0:
47,309,150757,2,0,L|148:307,1,101.250003862381,10|0,0:2|0:2,0:0:0:0:
305,81,150981,6,0,B|150:90|150:90|198:110,1,202.500007724762,4|10,3:2|0:2,0:0:0:0:
343,213,151317,1,0,0:2:0:0:
476,154,151429,6,0,B|503:241|503:241|466:344,1,175.499991966248,4|10,3:2|0:2,0:0:0:0:
304,375,151765,1,0,0:2:0:0:
270,239,151877,6,0,B|327:236|327:236|360:246|360:246|446:239,1,148.50000453186,4|10,3:2|0:2,0:0:0:0:
304,375,152213,1,0,0:2:0:0:
184,260,152325,6,0,L|191:187,1,60.7499981460572,12|8,0:0|0:0,0:0:0:0:
270,239,152548,2,0,L|264:299,1,60.7499981460572,8|8,0:0|0:0,0:0:0:0:
353,113,152772,6,0,P|303:135|227:114,1,101.250003862381,4|0,3:2|0:2,0:0:0:0:
136,19,152996,2,0,P|185:15|231:36,1,101.250003862381,10|0,0:2|0:2,0:0:0:0:
30,286,153220,1,0,3:2:0:0:
0,200,153332,1,0,3:2:0:0:
53,124,153444,2,0,L|46:-2,1,101.250003862381,10|0,0:2|0:2,0:0:0:0:
179,283,153668,6,0,L|173:384,1,101.250003862381,0|0,3:2|0:2,0:0:0:0:
378,218,153892,2,0,P|320:215|268:243,1,101.250003862381,10|0,0:2|0:2,0:0:0:0:
298,368,154116,2,0,P|347:372|394:354,1,101.250003862381,0|0,3:2|3:2,0:0:0:0:
287,130,154339,2,0,L|281:231,1,101.250003862381,10|0,0:2|0:2,0:0:0:0:
334,53,154563,2,0,P|307:44|252:54,1,50.6250019311906,4|0,3:2|0:2,0:0:0:0:
21,120,154787,5,10,0:2:0:0:
80,194,154899,2,0,B|130:208|130:208|216:184,1,101.250003862381,0|0,0:2|3:2,0:0:0:0:
287,130,155123,1,0,3:2:0:0:
346,212,155235,1,10,0:2:0:0:
442,181,155347,2,0,P|465:276|412:343,1,101.250003862381,0|0,0:2|3:2,0:0:0:0:
234,337,155571,6,0,P|233:286|257:242,1,101.250003862381,8|0,0:2|0:2,0:0:0:0:
346,49,155795,1,8,0:2:0:0:
442,80,155907,1,8,0:2:0:0:
442,181,156019,1,8,0:2:0:0:
346,212,156131,1,0,3:2:0:0:
286,130,156242,1,0,3:2:0:0:
231,54,156354,6,0,L|164:58,1,50.6250019311906,4|0,3:2|0:2,0:0:0:0:
219,68,156578,2,0,L|152:72,1,50.6250019311906,0|0,3:2|3:2,0:0:0:0:
80,34,156802,2,0,B|67:88|67:88|91:164,1,101.250003862381,12|0,0:2|0:2,0:0:0:0:
122,202,157138,1,0,0:2:0:0:
165,282,157250,6,0,L|215:278,1,50.6250019311906,0|0,3:2|0:2,0:0:0:0:
177,268,157474,2,0,L|227:264,1,50.6250019311906,0|0,3:2|3:2,0:0:0:0:
321,259,157698,2,0,B|373:272|373:272|429:248,1,101.250003862381,12|0,0:2|0:2,0:0:0:0:
444,174,158034,1,0,0:2:0:0:
383,111,158145,6,0,L|332:114,1,50.6250019311906,0|0,3:2|0:2,0:0:0:0:
371,125,158369,2,0,L|320:128,1,50.6250019311906,0|0,3:2|3:2,0:0:0:0:
233,77,158593,2,0,B|195:42|195:42|106:41,1,101.250003862381,12|0,0:2|0:2,0:0:0:0:
58,43,158929,1,0,0:2:0:0:
119,122,159041,6,0,L|114:248,1,87.749995983124,0|0,3:2|0:2,0:0:0:0:
196,365,159265,2,0,L|199:277,1,87.749995983124,0|0,3:2|3:2,0:0:0:0:
36,182,159489,2,0,P|141:199|154:189,1,87.749995983124,12|0,0:2|0:2,0:0:0:0:
394,225,159713,1,8,0:2:0:0:
300,232,159825,1,8,0:2:0:0:
356,310,159936,6,0,B|360:263|360:263|339:231|339:231|348:166,1,151.875005793572,4|0,3:2|0:2,0:0:0:0:
412,88,160384,2,0,P|366:129|241:100,1,151.875005793572,0|0,0:2|0:2,0:0:0:0:
151,68,160832,6,0,B|186:38|186:38|167:152,1,151.875005793572,4|8,3:2|0:3,0:0:0:0:
92,168,161280,2,0,P|161:174|204:264,1,151.875005793572,0|0,0:2|0:2,0:0:0:0:
118,259,161728,5,4,3:2:0:0:
414,21,161951,1,2,0:2:0:0:
414,21,162063,1,0,0:2:0:0:
414,21,162175,2,0,L|423:108,1,67.5,10|0,0:2|3:2,0:0:0:0:
502,83,162399,2,0,L|509:150,1,67.5,2|0,3:2|3:2,0:0:0:0:
60,156,162623,6,0,B|128:111|212:123|255:166|255:166|197:189,1,270,12|0,0:2|3:2,0:0:0:0:
267,267,162959,2,0,P|350:173|282:69,1,270,12|0,0:2|3:2,0:0:0:0:
54,254,163295,2,0,P|131:254|199:337,1,135,12|0,0:2|0:2,0:0:0:0:
238,364,163519,5,4,3:2:0:0:
289,76,163742,1,2,0:2:0:0:
289,76,163854,1,0,0:2:0:0:
289,76,163966,2,0,L|209:71,1,67.5,10|0,0:2|3:2,0:0:0:0:
139,61,164190,2,0,L|71:56,1,67.5,2|0,3:2|3:2,0:0:0:0:
359,13,164414,6,0,B|392:192|392:192|358:308,1,270,12|0,0:2|3:2,0:0:0:0:
179,192,164750,2,0,P|344:199|344:333,1,270,12|0,0:2|3:2,0:0:0:0:
237,276,165086,2,0,P|281:257|247:287,1,135,12|0,0:2|0:2,0:0:0:0:
183,340,165310,5,4,3:2:0:0:
464,65,165534,1,2,0:2:0:0:
464,65,165645,1,0,0:2:0:0:
464,65,165757,2,0,L|373:63,1,67.5,10|0,0:2|3:2,0:0:0:0:
327,15,165981,2,0,L|236:13,1,67.5,2|0,3:2|3:2,0:0:0:0:
41,183,166205,6,0,P|132:200|42:152,1,270,12|0,0:2|3:2,0:0:0:0:
210,308,166541,2,0,P|310:307|223:259,1,270,12|0,0:2|3:2,0:0:0:0:
426,359,166877,2,0,P|435:302|397:196,1,135,12|0,0:2|0:2,0:0:0:0:
230,107,167101,6,0,P|316:142|381:104,1,135,4|0,3:2|0:2,0:0:0:0:
422,74,167436,1,0,3:2:0:0:
254,17,167548,2,0,B|86:24,1,135,12|0,0:2|0:2,0:0:0:0:
34,53,167884,1,0,3:2:0:0:
84,230,167996,6,0,B|120:172|120:172|97:79,1,135,12|0,0:2|0:2,0:0:0:0:
0,323,168332,2,0,B|64:315|64:315|116:327|116:327|214:305,1,202.500007724762,4|0,3:2|3:2,0:0:0:0:
292,222,168668,1,8,0:2:0:0:
323,298,168780,1,0,3:2:0:0:
286,373,168892,5,4,3:2:0:0:
439,37,169116,1,2,0:2:0:0:
439,37,169228,1,0,0:2:0:0:
439,37,169339,2,0,L|358:41,1,67.5,10|0,0:2|3:2,0:0:0:0:
284,21,169563,2,0,L|203:25,1,67.5,2|0,3:2|3:2,0:0:0:0:
128,206,169787,6,0,B|111:16|111:16|77:169,1,270,12|0,0:2|3:2,0:0:0:0:
39,258,170123,2,0,P|199:269|203:149,1,270,12|0,0:2|3:2,0:0:0:0:
21,33,170459,2,0,B|6:99|6:99|34:189,1,135,12|0,0:2|0:2,0:0:0:0:
39,258,170683,5,4,3:2:0:0:
306,27,170907,1,2,0:2:0:0:
306,27,171019,1,0,0:2:0:0:
306,27,171131,2,0,L|312:109,1,67.5,10|0,0:2|3:2,0:0:0:0:
400,58,171354,2,0,L|406:140,1,67.5,2|0,3:2|3:2,0:0:0:0:
387,382,171578,6,0,B|325:266|451:234|404:124,1,270,12|0,0:2|3:2,0:0:0:0:
277,237,171914,2,0,P|151:229|129:106,1,270,12|0,0:2|3:2,0:0:0:0:
206,132,172250,2,0,P|241:169|199:153,1,135,12|0,0:2|0:2,0:0:0:0:
128,106,172474,5,4,3:2:0:0:
92,339,172698,1,2,0:2:0:0:
92,339,172810,1,0,3:2:0:0:
92,339,172922,2,0,L|192:339,1,67.5,10|0,0:2|0:2,0:0:0:0:
234,364,173145,2,0,L|334:364,1,67.5,2|0,3:2|0:2,0:0:0:0:
458,170,173369,6,0,B|391:136|389:201|276:155,1,135,12|0,0:2|3:2,0:0:0:0:
109,124,173593,1,0,3:2:0:0:
158,44,173705,2,0,B|201:31|201:31|321:47,1,135,12|8,0:2|3:3,0:0:0:0:
341,104,174041,2,0,L|323:179,1,67.5,4|0,0:3|0:2,0:0:0:0:
129,350,174265,6,0,B|121:299|121:299|148:225,1,101.250003862381,6|0,0:2|0:2,0:0:0:0:
325,169,174489,2,0,B|342:215|342:215|334:266,1,101.250003862381,2|0,3:2|3:2,0:0:0:0:
61,185,174713,1,14,0:2:0:0:
156,156,174825,1,10,0:2:0:0:
226,225,174936,1,8,0:2:0:0:
281,339,175048,6,0,P|326:358|404:322,1,101.250003862381,6|0,3:2|0:2,0:0:0:0:
441,215,175384,2,0,L|432:300,1,50.6250019311906,0|0,0:2|0:2,0:0:0:0:
459,33,175608,2,0,B|453:71|453:71|457:93|457:93|451:154,1,101.250003862381,8|0,0:2|0:2,0:0:0:0:
359,48,175832,2,0,L|368:133,1,50.6250019311906,0|0,0:2|0:2,0:0:0:0:
247,180,176056,5,6,3:2:0:0:
158,170,176168,1,2,0:2:0:0:
113,92,176280,1,10,0:2:0:0:
158,170,176392,2,0,P|175:263|94:330,1,175.499991966248,2|0,0:2|3:2,0:0:0:0:
0,231,176728,2,0,L|114:234,1,87.749995983124,8|0,0:2|0:0,0:0:0:0:
260,333,176951,6,0,P|364:318|381:303,1,87.749995983124,0|2,3:2|0:2,0:0:0:0:
486,174,177175,1,10,0:2:0:0:
456,93,177287,1,0,0:2:0:0:
370,76,177399,1,2,3:2:0:0:
314,143,177511,1,0,3:2:0:0:
344,225,177623,1,10,0:2:0:0:
430,241,177735,1,0,0:2:0:0:
486,174,177847,6,0,P|480:134|455:92,2,87.749995983124,2|2|10,3:2|0:2|0:2,0:0:0:0:
430,241,178183,1,2,0:2:0:0:
314,143,178295,2,0,L|226:139,1,87.749995983124,2|0,3:2|3:2,0:0:0:0:
40,97,178519,2,0,L|131:93,1,87.749995983124,10|0,0:2|0:2,0:0:0:0:
86,363,178742,6,0,B|85:298|85:298|101:261|101:261|99:142,2,175.499991966248,0|8|0,3:2|0:2|3:2,0:0:0:0:
178,343,179302,2,0,L|306:343,2,87.749995983124,2|10|2,3:2|0:2|0:2,0:0:0:0:
99,190,179638,5,2,3:2:0:0:
178,212,179749,1,0,0:2:0:0:
258,193,179861,1,10,0:2:0:0:
334,159,179973,1,0,0:2:0:0:
417,149,180085,1,2,3:2:0:0:
485,200,180198,2,0,B|497:242|497:242|484:284,1,87.749995983124,2|8,3:2|0:2,0:0:0:0:
334,159,180422,6,0,B|339:30|339:30|358:89,1,175.499991966248,2|0,0:2|0:0,0:0:0:0:
399,235,180757,2,0,P|367:253|294:248,1,87.749995983124,10|0,0:2|0:2,0:0:0:0:
169,91,180981,2,0,P|212:91|251:111,1,87.749995983124,2|0,3:2|3:2,0:0:0:0:
193,266,181205,2,0,L|192:155,1,87.749995983124,10|0,0:2|0:2,0:0:0:0:
96,327,181429,6,0,P|54:337|12:327,1,87.749995983124,2|0,3:2|0:2,0:0:0:0:
13,198,181653,2,0,P|55:188|98:198,1,87.749995983124,10|0,0:2|0:2,0:0:0:0:
193,266,181877,1,2,3:2:0:0:
283,327,181989,2,0,P|325:337|367:327,1,87.749995983124,2|8,3:2|0:2,0:0:0:0:
346,181,182213,6,0,P|292:203|361:201,1,175.499991966248,2|0,0:2|0:2,0:0:0:0:
449,64,182548,2,0,L|342:61,1,101.250003862381,12|0,0:2|0:2,0:0:0:0:
91,64,182772,2,0,L|198:61,1,101.250003862381,4|0,3:2|3:2,0:0:0:0:
447,183,182996,2,0,L|340:180,1,101.250003862381,12|0,0:2|0:2,0:0:0:0:
146,150,183220,6,0,P|202:234|148:312,1,175.499991966248,2|8,3:2|0:2,0:0:0:0:
113,232,183556,1,0,0:2:0:0:
237,350,183668,2,0,P|281:357|347:332,1,87.749995983124,2|0,3:2|3:2,0:0:0:0:
476,285,183892,2,0,P|433:275|390:282,1,87.749995983124,8|0,0:2|0:2,0:0:0:0:
237,350,184116,5,2,3:2:0:0:
93,314,184228,2,0,P|93:270|113:232,1,87.749995983124,2|0,0:2|0:0,0:0:0:0:
289,26,184451,2,0,B|336:113|260:115|292:195,1,175.499991966248,2|0,0:2|3:2,0:0:0:0:
459,155,184787,2,0,L|333:157,1,87.749995983124,10|0,0:2|0:2,0:0:0:0:
126,79,185011,6,0,L|213:77,1,87.749995983124,2|0,3:2|0:2,0:0:0:0:
474,55,185235,2,0,L|386:56,1,87.749995983124,10|0,0:2|0:2,0:0:0:0:
213,76,185459,1,2,3:2:0:0:
204,196,185571,2,0,L|291:194,1,87.749995983124,2|8,3:2|0:2,0:0:0:0:
459,155,185795,2,0,B|485:233|485:233|440:338,1,175.499991966248,2|0,0:2|0:2,0:0:0:0:
310,332,186131,6,0,B|248:302|247:368|162:334,1,135,14|0,0:2|0:0,0:0:0:0:
102,277,186354,2,0,P|80:319|96:392,1,87.749995983124,0|2,3:2|3:2,0:0:0:0:
200,246,186578,1,10,0:2:0:0:
204,163,186690,1,2,0:2:0:0:
94,61,186802,5,2,3:2:0:0:
121,142,186914,1,2,0:2:0:0:
204,163,187026,1,10,0:2:0:0:
268,96,187138,1,2,0:2:0:0:
237,15,187250,1,2,3:2:0:0:
155,0,187362,2,0,B|118:23|118:23|90:66,1,87.749995983124,2|8,3:2|0:2,0:0:0:0:
204,163,187586,6,0,P|300:177|361:81,1,175.499991966248,2|0,0:2|0:2,0:0:0:0:
462,0,187922,2,0,P|430:34|441:122,1,87.749995983124,10|0,0:2|0:2,0:0:0:0:
476,239,188145,2,0,P|466:196|435:165,1,87.749995983124,2|0,3:2|3:2,0:0:0:0:
334,325,188369,2,0,L|451:317,1,87.749995983124,10|0,0:2|0:2,0:0:0:0:
242,290,188593,6,0,B|227:336|227:336|241:398,1,87.749995983124,2|0,3:2|0:2,0:0:0:0:
330,143,188817,2,0,B|345:189|345:189|337:228,1,87.749995983124,14|0,0:2|0:2,0:0:0:0:
180,182,189041,1,2,3:2:0:0:
269,73,189153,2,0,P|309:54|369:61,1,87.749995983124,2|8,3:2|0:2,0:0:0:0:
180,182,189377,6,0,L|77:183,1,87.749995983124,2|0,3:2|0:2,0:0:0:0:
26,338,189601,2,0,P|104:362|176:294,1,175.499991966248,8|0,0:2|3:2,0:0:0:0:
91,12,189936,1,0,3:2:0:0:
91,97,190048,1,0,3:2:0:0:
92,182,190160,2,0,L|91:279,1,87.749995983124,8|0,0:2|0:2,0:0:0:0:
264,268,190384,6,0,L|424:262,1,135,4|10,3:3|0:3,0:0:0:0:
460,177,190720,1,0,0:2:0:0:
435,153,190832,2,0,L|431:68,1,67.5,2|0,3:3|3:2,0:0:0:0:
336,23,191056,2,0,L|339:90,1,67.5,10|0,0:3|0:2,0:0:0:0:
264,268,191280,6,0,L|424:262,1,135,2|10,3:3|0:3,0:0:0:0:
460,177,191616,1,0,0:2:0:0:
435,153,191728,2,0,L|431:68,1,67.5,2|0,3:3|3:2,0:0:0:0:
398,262,191952,2,0,L|401:329,1,67.5,10|0,0:3|0:0,0:0:0:0:
198,325,192175,6,0,P|184:235|245:185,1,135,2|10,3:3|0:3,0:0:0:0:
292,136,192511,1,0,0:2:0:0:
280,104,192623,2,0,P|248:89|185:95,1,67.5,2|0,3:3|3:2,0:0:0:0:
72,161,192847,2,0,P|105:158|135:143,1,67.5,10|0,0:3|0:2,0:0:0:0:
198,325,193071,6,0,P|184:235|245:185,1,135,2|10,3:3|0:3,0:0:0:0:
292,136,193407,1,0,0:2:0:0:
280,104,193519,2,0,P|248:89|185:95,1,67.5,2|0,3:3|3:2,0:0:0:0:
267,270,193742,2,0,P|300:267|330:252,1,67.5,10|0,0:3|0:2,0:0:0:0:
459,218,193966,6,0,L|457:407,1,135,2|10,3:3|0:3,0:0:0:0:
402,125,194302,1,0,0:2:0:0:
378,101,194414,2,0,B|373:66|373:66|392:17,1,67.5,2|0,3:3|3:2,0:0:0:0:
505,67,194638,2,0,B|516:97|516:97|511:132,1,67.5,10|0,0:3|0:2,0:0:0:0:
459,218,194862,6,0,L|457:407,1,135,2|10,3:3|0:3,0:0:0:0:
402,125,195198,1,0,0:2:0:0:
378,101,195310,2,0,B|373:66|373:66|392:17,1,67.5,2|0,3:3|3:2,0:0:0:0:
459,218,195533,2,0,L|349:216,1,67.5,10|0,0:3|0:2,0:0:0:0:
204,213,195757,6,0,P|194:180|201:138,1,67.5,2|0,3:3|0:2,0:0:0:0:
273,23,195981,2,0,P|277:56|267:88,1,67.5,10|0,0:3|0:2,0:0:0:0:
89,83,196205,1,2,3:3:0:0:
110,56,196317,2,0,L|210:56,1,67.5,0|10,3:2|0:3,0:0:0:0:
273,270,196541,6,0,P|168:300|123:258,1,135,0|2,0:2|0:3,0:0:0:0:
56,206,196877,1,10,0:3:0:0:
23,276,196989,1,2,3:3:0:0:
43,352,197101,2,0,P|68:363|125:355,1,67.5,2|0,3:3|0:2,0:0:0:0:
198,147,197325,2,0,P|193:180|203:212,1,67.5,10|0,0:3|3:2,0:0:0:0:
398,254,197548,6,0,P|305:249|240:318,1,135,6|10,3:3|0:3,0:0:0:0:
457,331,197884,1,0,0:2:0:0:
489,321,197996,2,0,L|501:225,1,67.5,2|0,3:3|3:2,0:0:0:0:
432,92,198220,2,0,L|440:158,1,67.5,10|0,0:3|0:2,0:0:0:0:
398,254,198444,6,0,P|305:249|240:318,1,135,2|10,3:3|0:3,0:0:0:0:
457,331,198780,1,0,0:2:0:0:
489,321,198892,2,0,L|501:225,1,67.5,2|0,3:3|3:2,0:0:0:0:
272,269,199116,2,0,L|280:335,1,67.5,10|0,0:3|0:2,0:0:0:0:
311,100,199339,6,0,B|251:74|251:74|160:86,1,135,2|10,3:3|0:3,0:0:0:0:
66,117,199675,1,0,0:2:0:0:
87,142,199787,2,0,L|101:232,1,67.5,2|0,3:3|3:2,0:0:0:0:
181,83,200011,2,0,L|170:16,1,67.5,10|0,0:3|0:2,0:0:0:0:
311,100,200235,6,0,B|251:74|251:74|160:86,1,135,2|10,3:3|0:3,0:0:0:0:
66,117,200571,1,0,0:2:0:0:
87,142,200683,2,0,L|101:232,1,67.5,2|0,3:3|3:2,0:0:0:0:
30,339,200907,2,0,L|19:272,1,67.5,10|0,0:3|0:2,0:0:0:0:
182,242,201131,6,0,P|262:241|326:297,1,135,6|10,3:3|0:3,0:0:0:0:
393,358,201466,1,0,0:2:0:0:
423,344,201578,2,0,P|440:306|430:255,1,67.5,2|0,3:3|3:2,0:0:0:0:
352,144,201802,2,0,P|353:177|368:207,1,67.5,10|0,0:3|0:2,0:0:0:0:
451,38,202026,6,0,L|266:38,1,135,6|10,3:3|0:3,0:0:0:0:
129,176,202362,2,0,P|107:84|115:63,1,67.5,0|2,0:2|3:3,0:0:0:0:
295,116,202586,1,0,3:0:0:0:
263,117,202698,2,0,L|161:117,1,67.5,10|0,0:3|0:2,0:0:0:0:
65,326,202922,5,6,3:3:0:0:
279,207,203145,2,0,L|177:207,1,67.5,10|0,0:3|0:2,0:0:0:0:
61,176,203369,2,0,L|128:176,1,67.5,2|0,3:3|3:2,0:0:0:0:
263,117,203593,2,0,L|195:117,1,67.5,10|0,0:3|0:2,0:0:0:0:
439,366,203817,6,0,P|469:290|440:227,1,135,6|10,3:3|0:3,0:0:0:0:
314,296,204153,2,0,P|396:290|416:273,1,67.5,0|2,0:2|3:3,0:0:0:0:
469,155,204377,1,0,3:2:0:0:
446,129,204489,2,0,P|412:123|380:130,1,67.5,10|0,0:3|0:2,0:0:0:0:
314,296,204713,5,6,3:3:0:0:
104,72,204936,2,0,L|226:64,1,67.5,10|0,0:3|0:2,0:0:0:0:
343,52,205160,2,0,P|313:67|312:149,1,67.5,6|0,3:3|3:2,0:0:0:0:
107,166,205384,2,0,L|174:161,1,67.5,10|0,0:3|0:2,0:0:0:0:
426,174,205608,2,0,P|409:145|379:130,1,67.5,6|8,3:3|0:2,0:0:0:0:
112,259,205832,2,0,L|234:251,1,67.5,2|8,0:3|0:2,0:0:0:0:
426,306,206056,5,10,0:3:0:0:
503,280,206168,1,0,3:2:0:0:
503,199,206280,1,2,3:3:0:0:
424,174,206392,1,0,3:2:0:0:
378,240,206504,6,0,B|306:237|306:237|262:257|262:257|149:254,1,202.500007724762,12|0,3:2|0:2,0:0:0:0:
229,42,206839,6,0,P|240:132|189:173,1,135,12|0,3:2|0:2,0:0:0:0:
62,98,207175,6,0,B|110:83|110:83|179:99,1,101.250003862381,12|0,3:2|0:2,0:0:0:0:
423,69,207399,6,0,B|316:90|344:2|202:49,1,202.5,12|0,3:2|0:2,0:0:0:0:
115,169,207623,1,8,0:2:0:0:
137,273,207735,1,8,0:2:0:0:
244,311,207847,5,8,0:2:0:0:
319,273,207958,1,8,0:2:0:0:
395,221,208071,6,0,P|361:194|304:190,1,87.749995983124,0|0,3:2|3:2,0:0:0:0:
370,343,208295,6,0,B|312:329|261:357|261:357|217:332|217:332|176:363|86:351,1,270,6|2,3:2|0:2,0:0:0:0:
26,336,209414,2,0,L|18:293,2,33.75,2|2|2,0:2|0:2|0:2,0:0:0:0:
80,250,209862,1,2,0:2:0:0:
30,69,210086,6,0,P|3:135|83:45,1,472.5,6|2,3:2|0:2,0:0:0:0:
90,132,211877,6,0,B|197:92|183:193|343:130|343:130|293:140|251:123,1,337.5,6|2,3:2|0:2,0:0:0:0:
233,53,213220,2,0,L|232:10,2,33.75,2|2|2,0:2|0:2|0:2,0:0:0:0:
299,232,213668,6,0,B|368:227|406:199|437:151|437:151|411:201|413:239,1,236.25,6|0,3:2|0:2,0:0:0:0:
471,290,214563,6,0,L|477:337,1,33.75,2|0,0:2|0:2,0:0:0:0:
394,324,214787,2,0,L|400:371,1,33.75,2|0,0:2|0:2,0:0:0:0:
312,308,215011,2,0,L|318:355,1,33.75,2|0,0:2|0:2,0:0:0:0:
233,330,215235,2,0,L|239:377,1,33.75,2|0,0:2|0:2,0:0:0:0:
123,301,215459,5,6,3:2:0:0:
121,281,215683,1,2,0:2:0:0:
120,260,215907,1,2,0:2:0:0:
119,239,216131,1,2,0:2:0:0:
145,219,216354,5,10,0:2:0:0:
147,193,216578,1,10,0:2:0:0:
148,165,216802,1,10,3:2:0:0:
150,138,217026,1,10,3:2:0:0:
81,73,217250,5,14,3:2:0:0:
150,138,217474,1,10,3:2:0:0:
244,139,217698,1,10,3:2:0:0:
308,70,217922,1,10,3:2:0:0:
81,73,218145,5,10,3:2:0:0:
196,257,218369,1,10,3:2:0:0:
308,70,218593,1,10,3:2:0:0:
196,343,218817,1,10,3:2:0:0:
308,70,219041,6,0,P|386:73|435:167,1,151.875005793572,12|0,3:2|0:2,0:0:0:0:
370,253,219489,2,0,B|339:272|339:272|343:138,1,151.875005793572,12|0,3:2|0:2,0:0:0:0:
454,213,219936,2,0,P|458:287|407:340,1,151.875005793572,12|0,3:2|0:2,0:0:0:0:
218,256,220384,2,0,L|379:252,1,151.875005793572,12|0,3:2|0:2,0:0:0:0:
154,79,220832,6,0,P|148:146|184:91,1,161.999995056153,12|0,3:2|0:2,0:0:0:0:
73,207,221168,2,0,P|35:137|51:59,1,161.999995056153,12|0,3:2|0:2,0:0:0:0:
270,170,221504,2,0,P|281:133|264:66,1,80.9999975280763,12|0,3:2|0:2,0:0:0:0:
276,91,221839,1,8,0:2:0:0:
270,170,221951,5,0,3:2:0:0:
183,193,222063,1,0,3:2:0:0:
160,279,222175,1,8,0:2:0:0:
223,343,222287,1,8,0:2:0:0:
310,319,222399,1,8,0:2:0:0:
333,233,222511,1,8,0:2:0:0:
269,171,222623,5,2,0:2:0:0:
269,171,222847,5,2,0:2:0:0:
7,147,223071,6,0,B|158:107|112:229|318:155,1,270,4|0,3:2|0:2,0:0:0:0:
293,41,223407,6,0,P|229:66|207:128,1,101.250003862381,8|0,0:2|0:2,0:0:0:0:
346,207,223742,2,0,P|342:126|337:118,1,50.6250019311906,0|0,3:2|0:2,0:0:0:0:
278,254,223966,1,8,0:2:0:0:
356,292,224078,1,8,0:2:0:0:
425,236,224190,1,0,3:2:0:0:
346,207,224302,1,0,3:2:0:0:
281,338,224414,6,0,B|190:359|190:359|-30:332,1,270,12|0,3:2|3:2,0:0:0:0:
139,39,224750,6,0,P|196:205|107:266,1,270,12|0,3:2|3:2,0:0:0:0:
92,125,225086,6,0,P|117:156|77:153,1,101.250003862381,12|0,3:2|0:2,0:0:0:0:
40,44,225422,6,0,P|87:29|137:37,2,101.250003862381,8|0|0,0:2|0:2|3:2,0:0:0:0:
24,249,225757,5,8,0:2:0:0:
144,254,225869,1,8,0:2:0:0:
259,259,225981,1,8,0:2:0:0:
377,263,226093,1,8,0:2:0:0:
499,267,226205,6,0,L|505:369,1,101.250003862381,4|0,3:2|0:2,0:0:0:0:
383,365,226429,2,0,L|377:263,1,101.250003862381,10|0,0:2|0:2,0:0:0:0:
422,100,226653,2,0,P|372:107|334:140,1,101.250003862381,0|0,3:2|3:2,0:0:0:0:
289,351,226877,1,10,0:2:0:0:
243,183,226989,6,0,B|146:148|152:224|19:187,1,202.500007724762,0|0,0:2|0:2,0:0:0:0:
82,11,227325,2,0,L|91:119,1,101.250003862381,10|0,0:2|0:2,0:0:0:0:
234,283,227548,2,0,L|242:182,1,101.250003862381,0|0,3:2|3:2,0:0:0:0:
414,0,227772,2,0,L|422:100,1,101.250003862381,10|0,0:2|0:2,0:0:0:0:
139,311,227996,6,0,P|247:285|297:310,1,101.250003862381,0|0,3:2|0:2,0:0:0:0:
425,331,228220,2,0,P|380:355|330:359,1,101.250003862381,10|0,0:2|0:2,0:0:0:0:
297,82,228444,1,0,3:2:0:0:
354,167,228556,1,0,3:2:0:0:
327,258,228668,2,0,L|331:373,1,101.250003862381,10|0,0:2|0:2,0:0:0:0:
132,162,228892,6,0,B|181:149|181:149|231:156,1,101.250003862381,0|0,3:2|0:2,0:0:0:0:
426,263,229116,2,0,B|376:270|376:270|326:257,1,101.250003862381,10|0,0:2|0:2,0:0:0:0:
132,162,229339,2,0,L|128:60,1,101.250003862381,0|0,3:2|3:2,0:0:0:0:
19,265,229563,2,0,L|22:366,1,101.250003862381,10|0,0:2|0:2,0:0:0:0:
279,350,229787,6,0,P|376:345|425:262,1,202.500007724762,4|10,3:2|0:2,0:0:0:0:
417,172,230123,1,0,0:2:0:0:
210,278,230235,6,0,B|193:214|226:176|226:176|212:126|212:126|251:73|213:0,1,270,0|10,3:2|0:2,0:0:0:0:
128,60,230571,1,0,0:2:0:0:
329,47,230683,6,0,L|470:49,1,101.250003862381,0|0,3:2|0:2,0:0:0:0:
322,153,230907,2,0,L|181:155,1,101.250003862381,10|0,0:2|0:2,0:0:0:0:
324,260,231131,2,0,L|465:262,1,101.250003862381,0|0,3:2|0:0,0:0:0:0:
303,358,231354,2,0,L|201:356,1,101.250003862381,10|0,0:2|0:2,0:0:0:0:
77,292,231578,6,0,P|139:220|99:134,1,202.500007724762,4|10,3:2|0:2,0:0:0:0:
50,207,231914,1,0,0:2:0:0:
153,66,232026,6,0,B|271:62|271:62|345:97,1,175.499991966248,4|10,3:2|0:2,0:0:0:0:
407,137,232362,1,0,0:2:0:0:
490,36,232474,6,0,P|412:88|432:183,1,148.50000453186,4|10,3:2|0:2,0:0:0:0:
430,223,232810,1,0,0:2:0:0:
264,180,232922,6,0,P|330:224|301:339,1,182.249994438172,4|0,3:2|0:0,0:0:0:0:
149,277,233369,6,0,L|278:267,1,101.250003862381,4|0,3:2|0:2,0:0:0:0:
424,310,233593,2,0,L|323:317,1,101.250003862381,10|0,0:2|0:2,0:0:0:0:
71,343,233817,1,0,3:2:0:0:
46,248,233929,1,0,3:2:0:0:
123,177,234041,2,0,P|142:129|126:57,1,101.250003862381,10|0,0:2|0:2,0:0:0:0:
0,2,234265,6,0,L|133:2,1,101.250003862381,0|0,3:2|0:2,0:0:0:0:
238,80,234489,2,0,L|136:80,1,101.250003862381,10|0,0:2|0:2,0:0:0:0:
402,0,234713,2,0,P|406:49|387:96,1,101.250003862381,0|0,3:2|3:2,0:0:0:0:
321,241,234936,2,0,P|302:194|306:144,1,101.250003862381,10|0,0:2|0:2,0:0:0:0:
441,336,235160,6,0,L|281:329,1,101.250003862381,4|0,3:2|0:2,0:0:0:0:
92,323,235384,1,10,0:2:0:0:
150,250,235496,1,0,0:2:0:0:
238,274,235608,2,0,P|255:314|242:378,1,101.250003862381,0|0,3:2|3:2,0:0:0:0:
92,323,235832,1,10,0:2:0:0:
50,241,235944,1,0,0:2:0:0:
5,164,236056,5,0,3:2:0:0:
68,98,236168,2,0,L|186:109,2,101.250003862381,8|0|8,0:2|0:2|0:2,0:0:0:0:
269,27,236504,1,8,0:2:0:0:
267,116,236616,1,8,0:2:0:0:
265,208,236728,2,0,B|264:253|264:253|304:321,1,101.250003862381,0|0,3:2|0:0,0:0:0:0:
493,280,236951,5,4,3:2:0:0:
493,280,237063,1,0,0:2:0:0:
493,280,237175,2,0,P|508:228|492:188,1,60.7499981460572,0|0,3:2|3:2,0:0:0:0:
414,227,237399,6,0,L|334:229,1,60.7499981460572,12|0,0:2|0:2,0:0:0:0:
508,223,237623,2,0,P|490:171|454:148,1,60.7499981460572,0|0,0:2|0:2,0:0:0:0:
125,262,237847,5,0,3:2:0:0:
125,262,237959,1,0,0:2:0:0:
125,262,238071,2,0,P|110:210|126:170,1,60.7499981460572,0|0,3:2|3:2,0:0:0:0:
204,209,238295,6,0,L|264:207,1,60.7499981460572,12|0,0:2|0:2,0:0:0:0:
110,204,238519,2,0,P|127:152|163:129,1,60.7499981460572,0|0,0:2|0:2,0:0:0:0:
243,355,238742,5,0,3:2:0:0:
243,355,238854,1,0,0:2:0:0:
243,355,238966,2,0,L|134:350,1,60.7499981460572,0|0,3:2|3:2,0:0:0:0:
319,284,239190,6,0,P|339:306|347:339,1,60.7499981460572,12|0,0:2|0:2,0:0:0:0:
182,352,239414,2,0,L|36:346,1,87.749995983124,0|0,0:2|0:2,0:0:0:0:
13,250,239638,6,0,B|56:262|56:262|100:253,1,87.749995983124,0|0,3:2|0:2,0:0:0:0:
260,188,239862,2,0,B|217:176|217:176|172:184,1,87.749995983124,0|0,3:2|3:2,0:0:0:0:
17,104,240086,2,0,B|60:116|60:116|104:107,1,87.749995983124,12|0,0:2|0:2,0:0:0:0:
264,42,240310,2,0,B|221:30|221:30|176:38,1,87.749995983124,0|0,0:2|0:2,0:0:0:0:
339,123,240533,5,0,3:2:0:0:
339,123,240645,1,0,0:2:0:0:
339,123,240757,2,0,L|430:125,1,60.7499981460572,0|0,3:2|3:2,0:0:0:0:
502,36,240981,2,0,L|441:34,1,60.7499981460572,12|0,0:2|0:2,0:0:0:0:
399,124,241205,2,0,L|490:126,1,60.7499981460572,0|0,0:2|0:2,0:0:0:0:
369,219,241429,6,0,L|368:304,1,60.7499981460572,0|0,3:2|0:2,0:0:0:0:
444,358,241653,2,0,L|444:297,1,60.7499981460572,0|0,3:2|3:2,0:0:0:0:
191,305,241877,2,0,P|285:339|332:304,1,121.499996292114,12|0,0:2|0:2,0:0:0:0:
189,201,242213,1,0,0:2:0:0:
160,211,242325,6,0,L|93:209,1,60.7499981460572,0|0,3:2|0:2,0:0:0:0:
0,136,242548,2,0,L|67:134,1,60.7499981460572,0|0,3:2|3:2,0:0:0:0:
258,144,242772,2,0,P|278:226|270:251,1,60.7499981460572,12|0,0:2|0:2,0:0:0:0:
60,134,242996,2,0,L|127:132,1,60.7499981460572,0|8,0:2|0:2,0:0:0:0:
327,93,243220,5,0,3:2:0:0:
323,62,243332,1,8,0:2:0:0:
317,32,243444,2,0,L|234:32,1,60.7499981460572,0|0,3:2|3:2,0:0:0:0:
454,44,243668,5,8,0:2:0:0:
453,118,243780,1,8,0:2:0:0:
451,192,243892,1,8,0:2:0:0:
449,266,244004,1,8,0:2:0:0:
446,344,244116,6,0,L|256:350,1,175.499991966248,4|8,3:2|0:2,0:0:0:0:
180,349,244451,1,0,0:2:0:0:
241,186,244563,2,0,B|246:230|246:230|228:292,1,87.749995983124,0|0,3:2|3:2,0:0:0:0:
147,156,244787,2,0,B|134:114|134:114|139:70,1,87.749995983124,8|0,0:2|0:2,0:0:0:0:
394,190,245011,6,0,P|273:213|233:174,1,175.499991966248,0|8,3:2|0:2,0:0:0:0:
320,134,245347,1,0,0:2:0:0:
463,126,245459,2,0,P|482:163|477:231,1,87.749995983124,0|0,3:2|3:2,0:0:0:0:
320,134,245683,2,0,P|321:90|340:51,1,87.749995983124,8|0,0:2|0:2,0:0:0:0:
467,324,245907,6,0,L|283:320,1,175.499991966248,4|0,3:2|3:2,0:0:0:0:
269,331,246354,1,0,3:2:0:0:
251,342,246578,1,0,3:2:0:0:
158,213,246802,5,8,3:2:0:0:
115,327,247026,1,8,3:2:0:0:
273,216,247250,1,8,3:2:0:0:
95,121,247474,1,8,3:2:0:0:
428,128,247698,6,0,P|432:48|353:143,1,303.750011587143,4|0,3:2|0:2,0:0:0:0:
512,248,248593,2,0,B|382:170|339:331|205:235,1,303.750011587143,4|0,3:2|0:2,0:0:0:0:
160,126,249489,6,0,L|167:197,1,50.6250019311906,4|0,3:2|0:2,0:0:0:0:
110,253,249713,1,0,0:2:0:0:
92,243,249825,1,0,0:2:0:0:
74,233,249936,5,10,0:2:0:0:
29,165,250048,1,2,0:2:0:0:
80,89,250160,1,2,3:2:0:0:
30,16,250272,1,2,3:2:0:0:
80,89,250384,6,0,P|166:107|230:83,1,135,10|0,3:2|0:2,0:0:0:0:
261,32,250720,1,0,3:2:0:0:
296,113,250832,2,0,L|283:194,1,67.5,10|2,0:2|3:2,0:0:0:0:
262,302,251056,1,0,3:2:0:0:
257,332,251168,1,0,3:2:0:0:
401,311,251280,6,0,P|393:203|357:272,1,270,12|0,3:2|0:2,0:0:0:0:
254,363,251616,6,0,P|161:357|124:304,1,135,12|0,3:2|0:2,0:0:0:0:
62,270,251951,6,0,P|140:284|218:237,1,135,12|0,3:2|0:2,0:0:0:0:
177,106,252175,6,0,P|67:78|147:159,1,303.750011587143,12|0,3:2|0:2,0:0:0:0:
124,196,252623,6,0,P|40:55|204:72,1,405,12|0,0:2|0:2,0:0:0:0:
276,213,253071,6,0,L|387:209,1,101.250003862381,4|0,3:2|0:2,0:0:0:0:
512,305,253295,2,0,L|401:301,1,101.250003862381,8|0,0:2|0:2,0:0:0:0:
196,362,253519,1,0,3:2:0:0:
196,362,253631,2,0,P|246:365|293:348,1,101.250003862381,0|8,3:2|0:2,0:0:0:0:
131,293,253854,6,0,P|104:335|106:384,2,101.250003862381,0|0|0,0:2|3:2|0:2,0:0:0:0:
192,215,254190,2,0,B|202:166|202:166|181:84,1,101.250003862381,8|0,0:2|0:2,0:0:0:0:
44,17,254414,2,0,B|31:66|31:66|41:115,1,101.250003862381,0|0,3:2|3:2,0:0:0:0:
288,114,254638,2,0,B|238:126|238:126|189:116,1,101.250003862381,8|0,0:2|0:2,0:0:0:0:
395,68,254862,6,0,L|379:191,1,101.250003862381,0|0,3:2|0:2,0:0:0:0:
456,339,255086,2,0,L|442:238,1,101.250003862381,8|0,0:2|0:2,0:0:0:0:
232,326,255310,1,0,3:2:0:0:
232,326,255422,2,0,P|275:339|361:306,1,101.250003862381,0|8,3:2|0:2,0:0:0:0:
178,245,255645,6,0,P|140:284|131:355,2,101.250003862381,0|0|0,0:2|3:2|0:2,0:0:0:0:
329,328,255981,2,0,P|280:339|232:326,1,101.250003862381,8|0,0:2|0:2,0:0:0:0:
127,166,256205,2,0,P|175:152|224:163,1,101.250003862381,0|0,3:2|3:2,0:0:0:0:
343,228,256429,2,0,L|326:352,1,101.250003862381,8|0,0:2|0:2,0:0:0:0:
178,245,256653,5,0,3:2:0:0:
375,37,256877,2,0,B|422:61|422:61|446:103,1,101.250003862381,8|0,0:2|0:2,0:0:0:0:
447,294,257101,1,0,3:2:0:0:
447,294,257213,2,0,L|464:170,1,101.250003862381,0|8,3:2|0:2,0:0:0:0:
271,180,257436,6,0,B|307:147|307:147|359:139,2,101.250003862381,0|0|0,0:2|3:2|0:2,0:0:0:0:
191,143,257772,2,0,L|72:141,1,101.250003862381,8|0,0:2|0:2,0:0:0:0:
0,34,257996,2,0,L|101:35,1,101.250003862381,0|0,3:2|3:2,0:0:0:0:
89,239,258220,2,0,P|76:190|89:142,1,101.250003862381,8|0,0:2|0:2,0:0:0:0:
270,179,258444,6,0,P|284:234|269:282,1,101.250003862381,0|0,3:2|0:2,0:0:0:0:
89,239,258668,2,0,L|190:237,1,101.250003862381,8|0,0:2|0:2,0:0:0:0:
436,348,258892,1,0,3:2:0:0:
436,348,259004,2,0,L|334:349,1,101.250003862381,0|8,3:2|0:2,0:0:0:0:
457,171,259228,6,0,B|482:219|482:219|476:299,2,101.250003862381,0|0|0,0:2|3:2|0:2,0:0:0:0:
190,103,259563,6,0,B|257:123|257:123|318:100,1,135,12|0,0:2|0:2,0:0:0:0:
433,14,259787,2,0,B|372:-8|372:-8|297:14,1,135,4|0,3:2|3:2,0:0:0:0:
187,117,260011,2,0,B|254:137|254:137|315:114,1,135,12|0,0:2|0:2,0:0:0:0:
97,34,260235,6,0,P|77:89|105:169,1,114.750002188683,0|0,3:2|0:2,0:0:0:0:
196,225,260459,2,0,P|206:169|186:116,1,114.750002188683,8|0,0:2|0:2,0:0:0:0:
90,370,260683,1,0,3:2:0:0:
90,370,260795,2,0,L|85:245,1,114.750002188683,0|8,3:2|0:2,0:0:0:0:
307,318,261019,6,0,B|248:330|248:330|152:305,2,114.750002188683,0|0|0,0:2|3:2|0:0,0:0:0:0:
512,278,261354,2,0,L|333:265,1,114.750002188683,8|0,0:2|0:2,0:0:0:0:
196,225,261578,2,0,L|374:212,1,114.750002188683,0|0,3:2|3:2,0:0:0:0:
512,159,261802,2,0,L|333:146,1,114.750002188683,8|0,0:2|0:2,0:0:0:0:
267,16,262026,6,0,P|303:59|305:115,1,114.750002188683,0|0,3:2|0:2,0:0:0:0:
98,248,262250,2,0,P|100:191|136:148,1,114.750002188683,8|0,0:2|0:2,0:0:0:0:
310,216,262474,1,0,3:2:0:0:
310,216,262586,2,0,L|196:225,1,114.750002188683,0|8,3:2|0:2,0:0:0:0:
171,329,262810,6,0,L|56:336,2,114.750002188683,0|0|0,0:2|3:2|0:2,0:0:0:0:
391,356,263145,2,0,B|410:305|410:305|395:223,1,114.750002188683,8|0,0:2|0:2,0:0:0:0:
302,106,263369,2,0,B|291:165|291:165|310:216,1,114.750002188683,0|0,3:2|3:2,0:0:0:0:
379,36,263593,2,0,P|319:6|253:15,1,135,8|0,0:2|0:2,0:0:0:0:
80,87,263817,5,0,3:2:0:0:
56,335,264041,2,0,L|70:199,1,114.750002188683,8|0,0:2|0:2,0:0:0:0:
310,216,264265,1,0,3:2:0:0:
310,216,264377,2,0,P|270:226|172:199,1,114.750002188683,0|8,3:2|0:2,0:0:0:0:
374,143,264601,6,0,P|405:189|398:245,2,114.750002188683,0|0|0,0:2|3:2|0:2,0:0:0:0:
310,216,264936,2,0,P|270:226|172:199,1,114.750002188683,8|0,0:2|0:2,0:0:0:0:
14,130,265160,2,0,P|54:140|152:113,1,114.750002188683,0|0,3:2|3:2,0:0:0:0:
246,24,265384,2,0,P|206:34|108:7,1,114.750002188683,8|0,0:2|0:2,0:0:0:0:
67,221,265608,6,0,L|56:336,1,114.750002188683,0|0,3:2|0:2,0:0:0:0:
210,328,265832,2,0,L|198:213,1,114.750002188683,8|0,0:2|0:2,0:0:0:0:
421,219,266056,1,0,3:2:0:0:
421,219,266168,2,0,B|365:234|365:234|287:209,1,114.750002188683,0|8,3:2|0:2,0:0:0:0:
334,42,266392,6,0,B|367:90|367:90|368:161,1,114.750002188683,0|0,0:2|3:2,0:0:0:0:
410,333,266616,2,0,L|421:218,1,114.750002188683,8|0,0:2|0:2,0:0:0:0:
334,42,266839,1,8,0:2:0:0:
226,114,266951,1,8,0:2:0:0:
117,52,267063,1,8,0:2:0:0:
222,0,267175,1,8,0:2:0:0:
226,114,267287,5,8,0:2:0:0:
126,168,267399,2,0,P|104:262|130:307,1,135,2|2,3:2|0:2,0:0:0:0:
291,306,267735,1,2,0:2:0:0:
316,296,267847,2,0,L|456:297,1,135,2|2,0:2|0:2,0:0:0:0:
418,155,268183,2,0,P|404:184|406:242,1,67.5,2|0,0:2|0:2,0:0:0:0:
508,154,268407,2,0,P|505:120|490:90,1,67.5,2|0,0:2|3:2,0:0:0:0:
399,70,268631,1,0,3:2:0:0:
272,179,268742,6,0,B|236:158|208:182|208:182|170:215|94:124|225:103|196:167,1,202.5,12|0,0:2|0:0,0:0:0:0:
