osu file format v14

[General]
AudioFilename: audio.mp3
AudioLeadIn: 0
PreviewTime: 48092
Countdown: 0
SampleSet: Soft
StackLeniency: 0.3
Mode: 0
LetterboxInBreaks: 0
WidescreenStoryboard: 1

[Editor]
Bookmarks: 7682,16637,30965,38129,41712,45294,48876,63204,77532,86488,95443,102831,109771,116935,120518,124100,127682,142010,156338,161712,168876,176040,190368,208279,215443,219025,223055,224398,224734,225070,226189,236935,244100,247682,253055,260219,262234,267383,268726
DistanceSpacing: 1
BeatDivisor: 4
GridSize: 32
TimelineZoom: 1.9

[Metadata]
Title:adrenaline!!!
TitleUnicode:adrenaline!!!
Artist:TrySail
ArtistUnicode:TrySail
Creator:Mir
Version:Easy
Source:エロマンガ先生
Tags:Eromanga Sensei ED Ending Akitoshi Corinn -Mo- sdafsf
BeatmapID:1444029
BeatmapSetID:676340

[Difficulty]
HPDrainRate:2
CircleSize:2
OverallDifficulty:2
ApproachRate:3
SliderMultiplier:1
SliderTickRate:1

[Events]
//Background and Video events
0,0,"trash.jpg",0,0
//Break Periods
2,86704,92228
2,208495,214019
//Storyboard Layer 0 (Background)
//Storyboard Layer 1 (Fail)
//Storyboard Layer 2 (Pass)
//Storyboard Layer 3 (Foreground)
//Storyboard Sound Samples

[TimingPoints]
534,447.761194029851,4,2,1,40,1,0
534,-100,4,2,1,40,0,0
4116,-100,4,2,1,20,0,0
4563,-100,4,2,1,40,0,0
5011,-100,4,2,1,60,0,0
5459,-100,4,2,1,80,0,0
5907,-100,4,2,1,80,0,0
16653,-100,4,2,1,80,0,0
45310,-100,4,2,1,40,0,0
45757,-100,4,2,1,40,0,0
46205,-100,4,2,1,60,0,0
46653,-100,4,2,1,80,0,0
47101,-100,4,2,1,80,0,0
47996,-100,4,2,1,80,0,0
48892,-100,4,2,1,80,0,1
77548,-100,4,2,1,80,0,0
84713,-100,4,2,1,80,0,0
86056,-100,4,2,1,80,0,0
102175,-100,4,2,0,80,0,0
102623,-100,4,2,1,80,0,0
124116,-100,4,2,0,80,0,0
125459,-100,4,2,1,80,0,0
125907,-100,4,2,1,80,0,0
126802,-100,4,2,1,80,0,0
127698,-100,4,2,1,80,0,1
156354,-100,4,2,1,80,0,0
161168,-100,4,2,0,80,0,0
161728,-100,4,2,1,80,0,0
162623,-100,4,2,1,80,0,1
163519,-100,4,2,1,80,0,0
164414,-100,4,2,1,80,0,1
165310,-100,4,2,1,80,0,0
166205,-100,4,2,1,80,0,1
167101,-100,4,2,1,80,0,0
169787,-100,4,2,1,80,0,1
170683,-100,4,2,1,80,0,0
171578,-100,4,2,1,80,0,1
172474,-100,4,2,1,80,0,0
173369,-100,4,2,1,80,0,1
173705,-100,4,2,1,80,0,0
173929,-100,4,2,0,80,0,0
174265,-100,4,2,1,80,0,0
176056,-100,4,2,1,80,0,1
190384,-100,4,2,1,80,0,0
223071,-100,4,2,1,80,0,1
223407,-100,4,2,1,80,0,0
224414,-100,4,2,1,80,0,1
225422,-100,4,2,1,80,0,0
226205,-100,4,2,1,80,0,1
236951,-100,4,2,1,80,0,0
269414,-100,4,2,1,5,0,0

[Colours]
Combo1 : 188,242,254
Combo2 : 255,196,225
Combo3 : 187,253,210
Combo4 : 250,192,173

[HitObjects]
80,74,534,6,0,L|195:69,2,100,4|0|0,3:2|0:2|0:2,0:0:0:0:
13,148,1877,1,0,0:2:0:0:
58,236,2325,6,0,B|66:281|66:281|50:345,2,100,4|0|0,3:2|0:2|0:2,0:0:0:0:
13,148,3668,1,0,0:2:0:0:
80,74,4116,6,0,L|195:69,1,100,12|8,3:2|0:2,0:0:0:0:
267,118,5011,2,0,L|366:122,1,100,8|8,0:2|0:2,0:0:0:0:
427,41,5907,6,0,B|369:128|461:142|410:235,1,200,12|12,3:2|3:2,0:0:0:0:
340,301,7250,1,12,0:2:0:0:
246,319,7698,6,0,B|186:311|150:346|150:346|126:310|70:296,1,200,4|0,3:2|3:2,0:0:0:0:
36,201,9041,1,0,3:2:0:0:
137,182,9489,2,0,L|251:180,1,100,0|0,3:2|3:2,0:0:0:0:
300,102,10384,2,0,L|399:103,2,100,0|0|0,3:2|3:2|3:2,0:0:0:0:
236,180,11728,5,0,3:2:0:0:
196,88,12175,2,0,P|124:67|78:78,1,100,0|0,3:2|3:2,0:0:0:0:
133,164,13071,2,0,L|140:275,2,100,0|0|0,3:2|3:2|3:2,0:0:0:0:
100,70,14414,1,8,0:2:0:0:
35,146,14862,5,4,3:2:0:0:
312,258,16205,1,8,0:2:0:0:
399,219,16653,6,0,L|391:11,1,200,4|0,3:2|0:0,0:0:0:0:
302,65,17996,1,0,3:2:0:0:
209,102,18444,2,0,P|157:104|106:74,1,100,0|0,3:2|3:2,0:0:0:0:
22,44,19339,2,0,L|26:152,1,100,0|0,0:0|3:2,0:0:0:0:
18,243,20235,6,0,B|105:216|129:284|223:241,1,200,0|0,3:2|0:0,0:0:0:0:
294,185,21578,1,0,3:2:0:0:
377,239,22026,1,0,3:2:0:0:
454,175,22474,2,0,B|474:128|474:128|465:56,2,100,2|2|2,3:2|3:2|3:2,0:0:0:0:
481,271,23817,1,0,3:2:0:0:
481,271,24041,6,0,P|434:281|335:248,1,150,12|0,0:2|0:0,0:0:0:0:
251,201,25160,1,0,3:2:0:0:
163,249,25608,2,0,P|153:200|173:140,2,100,0|0|0,3:2|3:2|0:0,0:0:0:0:
251,201,26951,1,0,3:2:0:0:
283,106,27399,6,0,L|496:109,2,200,4|4|0,3:2|3:2|3:2,0:0:0:0:
189,141,29638,2,0,P|179:102|190:57,2,75,8|8|0,0:2|3:2|0:0,0:0:0:0:
205,188,30534,1,8,0:2:0:0:
122,243,30981,6,0,L|129:352,1,100,4|2,3:3|3:3,0:0:0:0:
228,340,31877,2,0,P|284:334|349:343,1,100,2|2,3:3|3:3,0:0:0:0:
424,362,32772,2,0,L|434:152,1,200,2|2,3:3|3:3,0:0:0:0:
359,94,34116,1,2,3:3:0:0:
255,111,34563,6,0,P|196:119|146:111,1,100,2|2,3:3|3:3,0:0:0:0:
100,30,35459,2,0,P|50:22|1:27,1,100,2|2,3:3|3:3,0:0:0:0:
7,127,36354,2,0,P|15:187|-8:339,1,200,2|0,3:3|3:2,0:0:0:0:
84,373,37698,1,8,0:2:0:0:
158,306,38145,5,4,3:2:0:0:
240,249,38593,2,0,P|317:245|349:249,1,100,8|2,0:2|3:3,0:0:0:0:
436,272,39489,2,0,L|448:157,1,100,8|2,0:2|3:3,0:0:0:0:
400,83,40384,1,8,0:2:0:0:
300,96,40832,2,0,P|302:61|316:22,2,75,4|12|12,3:2|0:2|0:2,0:0:0:0:
302,146,41728,5,8,0:2:0:0:
127,242,42623,1,8,0:2:0:0:
299,343,43519,1,8,0:2:0:0:
468,237,44414,1,8,0:2:0:0:
256,192,45310,12,12,47101,0:2:0:0:
98,63,48892,6,0,P|69:127|69:177,1,100,4|0,3:2|3:2,0:0:0:0:
138,225,49787,2,0,L|254:229,1,100,0|0,0:0|3:2,0:0:0:0:
321,173,50683,2,0,P|334:217|323:288,2,100,0|0|0,3:2|0:0|3:2,0:0:0:0:
260,93,52026,1,0,3:2:0:0:
327,18,52474,6,0,L|444:26,1,100,0|0,3:2|3:2,0:0:0:0:
482,107,53369,2,0,P|495:161|485:222,1,100,0|0,0:0|3:2,0:0:0:0:
462,301,54265,2,0,L|250:299,1,200,0|0,3:2|3:2,0:0:0:0:
179,242,55608,1,0,3:2:0:0:
96,299,56056,5,4,3:2:0:0:
16,115,56951,2,0,P|1:83|21:9,1,100,0|0,3:2|3:2,0:0:0:0:
103,61,57847,1,0,3:2:0:0:
281,150,58742,2,0,P|349:153|399:132,1,100,0|0,3:2|3:2,0:0:0:0:
465,92,59638,6,0,L|481:-13,2,100,4|4|4,3:2|3:2|3:2,0:0:0:0:
378,143,60981,1,4,3:2:0:0:
445,217,61429,2,0,B|461:243|461:243|461:295,2,75,4|0|10,3:2|0:2|0:2,0:0:0:0:
295,203,62772,1,8,0:2:0:0:
205,248,63220,6,0,P|154:249|92:223,1,100,0|0,3:2|3:2,0:0:0:0:
40,159,64116,2,0,L|24:52,1,100,0|0,0:0|3:2,0:0:0:0:
114,14,65011,2,0,L|212:0,2,100,0|0|0,3:2|0:0|3:2,0:0:0:0:
25,60,66354,1,0,3:2:0:0:
40,159,66802,6,0,P|112:181|236:149,1,200,0|0,3:2|0:0,0:0:0:0:
319,105,68145,1,0,3:2:0:0:
404,156,68593,2,0,P|412:202|388:270,1,100,0|0,3:2|3:2,0:0:0:0:
321,316,69489,1,0,3:2:0:0:
238,259,69936,1,0,3:2:0:0:
151,310,70384,5,4,3:2:0:0:
82,121,71280,2,0,P|162:100|185:103,1,100,0|0,3:2|3:2,0:0:0:0:
263,154,72175,2,0,L|376:149,2,100,4|4|4,3:2|3:2|3:2,0:0:0:0:
211,239,73519,1,4,3:2:0:0:
262,324,73966,6,0,B|161:357|156:289|66:316,1,200,4|0,3:2|3:2,0:0:0:0:
8,234,75310,1,0,3:2:0:0:
47,140,75757,2,0,P|67:75|54:34,1,100,4|0,3:2|3:2,0:0:0:0:
160,43,76653,2,0,L|271:42,1,100,0|8,3:2|0:2,0:0:0:0:
338,103,77548,6,0,L|437:103,2,100,4|12|0,3:2|0:2|3:2,0:0:0:0:
273,180,78892,1,12,0:2:0:0:
277,279,79339,2,0,P|352:328|460:312,1,200,0|0,3:2|3:2,0:0:0:0:
493,220,80683,1,12,0:2:0:0:
436,137,81131,5,6,3:2:0:0:
238,178,82026,1,6,3:2:0:0:
256,192,82922,12,6,84713,3:2:0:0:
256,192,86504,5,4,3:2:0:0:
85,83,93668,6,0,B|183:60|176:122|294:85,1,200,4|0,3:2|0:0,0:0:0:0:
381,80,95011,1,8,0:2:0:0:
336,169,95459,5,4,3:2:0:0:
40,116,96802,1,0,0:2:0:0:
109,44,97250,2,0,L|317:49,1,200,0|0,3:2|0:0,0:0:0:0:
365,131,98593,1,0,0:2:0:0:
299,206,99041,6,0,P|267:243|306:378,1,200,0|0,3:2|0:0,0:0:0:0:
402,381,100384,1,0,0:2:0:0:
462,300,100832,1,0,3:2:0:0:
293,52,102175,1,8,0:3:0:0:
193,62,102623,5,0,3:2:0:0:
193,62,102847,2,0,L|206:235,1,150,12|0,0:2|0:0,0:0:0:0:
39,325,104414,2,0,B|121:319|121:319|151:333|151:333|244:326,1,200,0|0,3:2|0:0,0:0:0:0:
335,319,105757,1,0,3:2:0:0:
422,270,106205,6,0,P|423:221|389:157,1,100,4|0,3:2|0:0,0:0:0:0:
325,111,107101,2,0,L|205:115,2,100,4|0|0,3:2|3:2|3:2,0:0:0:0:
403,46,108444,2,0,P|436:34|489:37,2,75,8|8|0,0:2|3:2|0:2,0:0:0:0:
356,28,109339,1,8,0:2:0:0:
255,29,109787,6,0,L|136:30,1,100,4|2,3:3|3:3,0:0:0:0:
73,87,110683,2,0,P|49:142|55:196,1,100,2|2,3:3|3:3,0:0:0:0:
112,259,111578,2,0,B|203:230|210:294|325:250,1,200,2|2,3:3|3:3,0:0:0:0:
393,201,112922,1,2,3:3:0:0:
467,267,113369,6,0,P|470:323|452:372,1,100,2|2,3:3|3:3,0:0:0:0:
356,366,114265,2,0,L|245:368,1,100,2|2,3:3|3:3,0:0:0:0:
156,354,115160,2,0,P|134:283|195:160,1,200,2|0,3:3|3:2,0:0:0:0:
261,111,116504,1,8,0:2:0:0:
170,69,116951,5,4,3:2:0:0:
99,140,117399,2,0,L|-8:146,1,100,8|2,0:2|3:3,0:0:0:0:
0,245,118295,2,0,P|20:313|17:360,1,100,8|2,0:2|3:3,0:0:0:0:
115,368,119190,1,8,0:2:0:0:
196,305,119638,2,0,B|235:303|235:303|279:315,2,75,4|12|12,3:2|0:2|0:2,0:0:0:0:
157,272,120534,5,8,0:2:0:0:
56,99,121429,1,8,0:2:0:0:
233,192,122325,1,8,0:2:0:0:
418,118,123220,1,8,0:2:0:0:
256,192,124116,12,4,125907,0:2:0:0:
98,321,127698,6,0,P|69:257|69:207,1,100,4|0,3:2|3:2,0:0:0:0:
165,244,128593,2,0,L|281:240,1,100,0|0,0:0|3:2,0:0:0:0:
346,182,129489,2,0,L|445:185,2,100,0|0|0,3:2|0:0|3:2,0:0:0:0:
292,97,130832,1,0,3:2:0:0:
222,24,131280,6,0,L|122:30,1,100,0|0,3:2|3:2,0:0:0:0:
53,103,132175,2,0,P|48:152|61:200,1,100,0|0,0:0|3:2,0:0:0:0:
125,277,133071,2,0,B|223:252|214:309|324:275,1,200,0|0,3:2|3:2,0:0:0:0:
396,209,134414,1,0,3:2:0:0:
376,110,134862,5,4,3:2:0:0:
195,24,135757,2,0,B|183:71|183:71|200:130,1,100,0|0,3:2|3:2,0:0:0:0:
248,206,136653,1,0,3:2:0:0:
133,369,137548,2,0,L|19:363,1,100,0|0,3:2|3:2,0:0:0:0:
23,263,138444,6,0,B|12:214|12:214|26:162,2,100,4|4|4,3:2|3:2|3:2,0:0:0:0:
33,363,139787,1,4,3:2:0:0:
113,302,140235,2,0,B|129:276|129:276|129:224,2,75,4|0|10,3:2|0:2|0:2,0:0:0:0:
252,357,141578,1,8,0:2:0:0:
302,270,142026,6,0,P|349:254|398:255,1,100,0|0,3:2|3:2,0:0:0:0:
477,317,142922,2,0,B|496:272|496:272|491:218,1,100,0|0,0:0|3:2,0:0:0:0:
457,127,143817,2,0,P|441:79|442:30,2,100,0|0|0,3:2|0:0|3:2,0:0:0:0:
492,221,145160,1,0,3:2:0:0:
392,207,145608,6,0,P|297:177|201:200,1,200,0|0,3:2|0:0,0:0:0:0:
142,281,146951,1,0,3:2:0:0:
98,190,147399,2,0,L|95:69,1,100,0|0,3:2|3:2,0:0:0:0:
177,32,148295,1,0,3:2:0:0:
251,98,148742,1,0,3:2:0:0:
338,48,149190,5,4,3:2:0:0:
430,225,150086,2,0,B|382:243|382:243|327:243,1,100,0|0,3:2|3:2,0:0:0:0:
233,277,150981,2,0,L|133:272,2,100,4|4|4,3:2|3:2|3:2,0:0:0:0:
257,179,152325,1,12,0:0:0:0:
221,85,152772,6,0,B|172:96|141:80|141:80|115:91|115:91|87:68|22:87,1,200,4|0,3:2|3:2,0:0:0:0:
12,184,154116,1,0,3:2:0:0:
43,278,154563,2,0,L|154:279,1,100,4|0,3:2|3:2,0:0:0:0:
227,225,155459,2,0,L|326:224,1,100,0|8,3:2|0:2,0:0:0:0:
375,136,156354,6,0,B|424:127|424:127|474:136,2,100,4|12|0,3:2|0:2|3:2,0:0:0:0:
306,62,157698,1,12,0:2:0:0:
209,89,158145,2,0,B|140:92|140:92|96:74|96:74|6:78,1,200,0|0,3:2|3:2,0:0:0:0:
13,177,159489,1,12,0:2:0:0:
14,277,159937,5,4,3:2:0:0:
213,273,160832,1,4,3:2:0:0:
413,269,161728,5,4,3:2:0:0:
344,196,162175,1,10,0:2:0:0:
384,104,162623,6,0,L|386:21,2,75,12|12|12,0:2|0:2|0:2,0:0:0:0:
240,146,163966,1,10,0:2:0:0:
140,142,164414,6,0,P|77:141|47:134,2,75,12|12|12,0:2|0:2|0:2,0:0:0:0:
255,237,165757,1,10,0:2:0:0:
219,330,166205,6,0,L|122:334,2,75,12|12|12,0:2|0:2|0:2,0:0:0:0:
266,347,167101,2,0,B|360:353|360:353|458:290,1,200,4|12,3:2|0:2,0:0:0:0:
386,214,168332,2,0,B|380:151|380:151|414:86,1,125,4|4,3:2|3:2,0:0:0:0:
210,65,169787,6,0,L|119:57,2,75,12|12|12,0:2|0:2|0:2,0:0:0:0:
327,158,171131,1,10,0:2:0:0:
402,223,171578,6,0,L|493:215,2,75,12|12|12,0:2|0:2|0:2,0:0:0:0:
268,291,172922,1,10,0:2:0:0:
172,262,173369,6,0,P|147:228|136:176,2,75,12|12|4,0:2|0:2|0:3,0:0:0:0:
165,311,174265,1,6,0:2:0:0:
81,366,174713,2,0,L|-10:372,1,75,14|6,0:2|3:2,0:0:0:0:
25,146,176056,6,0,B|79:132|114:142|114:142|156:174|237:150,1,200,6|0,3:2|3:2,0:0:0:0:
303,100,177399,1,2,3:2:0:0:
378,165,177847,2,0,P|427:182|488:166,2,100,2|2|0,3:2|3:2|3:2,0:0:0:0:
303,100,179190,1,0,3:2:0:0:
224,37,179638,6,0,L|106:40,1,100,2|2,3:2|3:2,0:0:0:0:
43,99,180534,2,0,P|21:152|34:207,1,100,0|2,0:0|3:2,0:0:0:0:
86,273,181429,1,2,3:2:0:0:
174,234,181877,1,2,3:2:0:0:
240,308,182325,2,0,B|290:319|290:319|351:314,1,100,0|4,0:0|3:2,0:0:0:0:
409,244,183220,6,0,P|435:146|436:129,1,100,2|2,3:2|3:2,0:0:0:0:
367,73,184116,2,0,P|364:31|378:-13,2,75,2|2|10,3:2|0:2|0:2,0:0:0:0:
335,112,185011,2,0,P|261:123|223:120,1,100,2|2,3:2|3:2,0:0:0:0:
141,87,185907,2,0,L|30:89,1,100,0|0,0:0|3:2,0:0:0:0:
10,183,186802,5,2,3:2:0:0:
69,263,187250,1,2,3:2:0:0:
164,231,187698,2,0,B|215:224|215:224|282:232,1,100,0|2,0:0|3:2,0:0:0:0:
350,279,188593,2,0,L|458:270,1,100,2|2,3:2|3:2,0:0:0:0:
494,181,189489,2,0,P|497:131|470:79,1,100,0|0,0:2|3:2,0:0:0:0:
378,67,190384,6,0,B|310:59|310:59|255:77|255:77|166:65,1,200,4|2,3:3|3:3,0:0:0:0:
92,112,191728,1,2,3:3:0:0:
21,182,192175,2,0,P|-3:275|22:391,1,200,2|2,3:3|3:3,0:0:0:0:
110,345,193519,1,2,3:3:0:0:
203,309,193966,6,0,B|271:294|271:294|418:311,1,200,2|2,3:3|3:3,0:0:0:0:
498,330,195310,1,2,3:3:0:0:
463,236,195757,2,0,P|452:169|461:132,1,100,2|2,3:3|3:3,0:0:0:0:
437,40,196653,2,0,L|317:34,1,100,0|2,0:0|3:3,0:0:0:0:
237,32,197548,6,0,B|184:69|184:69|191:212,1,200,6|2,3:3|3:3,0:0:0:0:
188,304,198892,1,2,3:3:0:0:
276,257,199339,2,0,B|353:282|406:248|406:248|432:249|482:291,1,200,2|2,3:3|3:3,0:0:0:0:
484,374,200683,1,2,3:3:0:0:
383,374,201131,6,0,L|269:371,1,100,6|2,3:3|3:3,0:0:0:0:
182,371,202026,2,0,L|68:368,1,100,6|2,3:3|3:3,0:0:0:0:
29,283,202922,2,0,P|33:205|48:177,1,100,6|2,3:3|3:3,0:0:0:0:
141,175,203817,2,0,P|137:97|122:69,1,100,6|2,3:3|3:3,0:0:0:0:
256,192,204713,12,6,206504,3:3:0:0:
256,192,208295,5,4,3:2:0:0:
275,134,215459,6,0,L|161:129,1,100,6|2,3:2|0:2,0:0:0:0:
80,161,216354,2,0,P|64:240|70:280,1,100,10|10,0:2|3:2,0:0:0:0:
141,323,217250,1,14,3:2:0:0:
241,311,217698,1,10,3:2:0:0:
334,346,218145,2,0,P|388:350|438:335,1,100,10|10,3:2|3:2,0:0:0:0:
473,246,219041,5,12,3:2:0:0:
411,166,219489,1,12,3:2:0:0:
490,105,219936,1,12,3:2:0:0:
415,38,220384,1,12,3:2:0:0:
320,70,220832,6,0,B|305:110|305:110|306:155,2,75,12|12|12,3:2|3:2|3:2,0:0:0:0:
182,9,222175,1,8,0:2:0:0:
94,188,223071,6,0,B|83:226|83:226|86:274,2,75,4|8|0,3:2|0:2|3:2,0:0:0:0:
111,140,223966,1,8,0:2:0:0:
195,194,224414,2,0,L|280:198,2,75,12|12|12,3:2|3:2|3:2,0:0:0:0:
225,340,225757,1,8,0:2:0:0:
322,361,226205,6,0,P|390:364|433:345,1,100,4|0,3:2|3:2,0:0:0:0:
460,262,227101,2,0,L|463:153,1,100,0|0,0:0|3:2,0:0:0:0:
402,82,227996,2,0,B|306:55|297:114|191:77,1,200,0|0,3:2|3:2,0:0:0:0:
109,51,229339,1,0,3:2:0:0:
45,130,229787,5,4,3:2:0:0:
119,315,230683,2,0,P|212:325|236:319,1,100,0|0,3:2|3:2,0:0:0:0:
309,286,231578,2,0,B|359:283|359:283|416:298,2,100,4|4|4,3:2|3:2|3:2,0:0:0:0:
225,236,232922,1,4,3:2:0:0:
281,153,233369,6,0,P|301:81|207:18,1,200,4|0,3:2|3:2,0:0:0:0:
116,62,234713,1,0,3:2:0:0:
21,30,235160,1,4,3:2:0:0:
42,128,235609,2,0,L|54:227,2,100,0|0|8,3:2|3:2|0:2,0:0:0:0:
116,62,236951,1,4,3:2:0:0:
193,125,237399,6,0,L|304:126,1,100,12|0,0:2|3:2,0:0:0:0:
378,73,238295,2,0,P|393:115|379:185,1,100,12|0,0:2|3:2,0:0:0:0:
303,224,239190,2,0,P|288:266|302:336,1,100,12|0,0:2|3:2,0:0:0:0:
382,367,240086,1,12,0:2:0:0:
469,318,240534,5,0,3:2:0:0:
450,219,240981,2,0,L|447:110,1,100,12|0,0:2|3:2,0:0:0:0:
379,45,241877,2,0,P|333:46|277:68,1,100,12|0,0:2|3:2,0:0:0:0:
238,154,242772,2,0,P|192:153|136:131,1,100,12|0,0:2|3:2,0:0:0:0:
58,78,243668,1,8,0:2:0:0:
9,165,244116,6,0,L|16:280,2,100,4|0|0,3:2|3:2|3:2,0:0:0:0:
58,78,245459,1,0,3:2:0:0:
121,0,245907,1,4,3:2:0:0:
312,56,246802,2,0,L|305:163,1,100,8|8,3:2|3:2,0:0:0:0:
289,254,247698,5,4,3:2:0:0:
140,118,248593,1,4,3:2:0:0:
256,192,249489,12,4,251280,3:2:0:0:
62,83,253071,6,0,L|282:81,1,200,4|0,3:2|3:2,0:0:0:0:
358,54,254414,2,0,P|390:71|429:142,1,100,0|0,3:2|3:2,0:0:0:0:
394,218,255310,1,0,3:2:0:0:
301,256,255757,2,0,P|295:315|309:374,2,100,0|0|0,3:2|3:2|3:2,0:0:0:0:
219,197,257101,5,0,3:2:0:0:
133,248,257548,2,0,L|13:245,1,100,0|0,3:2|3:2,0:0:0:0:
5,149,258444,2,0,P|8:91|34:40,2,100,0|0|0,3:2|3:2|3:2,0:0:0:0:
33,245,259787,1,4,3:2:0:0:
77,334,260235,6,0,B|172:295|163:376|289:329,1,200,0|0,3:2|3:2,0:0:0:0:
361,291,261578,1,0,3:2:0:0:
276,237,262026,2,0,P|267:188|283:122,1,100,0|0,3:2|3:2,0:0:0:0:
366,97,262922,2,0,P|374:48|366:0,2,100,0|0|0,3:2|3:2|3:2,0:0:0:0:
275,139,264265,5,0,3:2:0:0:
205,67,264713,2,0,L|95:62,1,100,0|0,3:2|3:2,0:0:0:0:
23,120,265608,2,0,P|6:69|19:13,2,100,0|0|0,3:2|3:2|3:2,0:0:0:0:
102,182,266951,1,8,0:2:0:0:
84,280,267399,5,2,3:2:0:0:
360,160,268742,6,0,P|292:180|206:148,1,150,12|0,0:2|0:0,0:0:0:0:
