osu file format v14

[General]
AudioFilename: audio.mp3
AudioLeadIn: 0
PreviewTime: 46955
Countdown: 0
SampleSet: Soft
StackLeniency: 0.2
Mode: 0
LetterboxInBreaks: 0
WidescreenStoryboard: 0

[Editor]
Bookmarks: 63186,77514,156320,190350,206470,236916
DistanceSpacing: 1
BeatDivisor: 2
GridSize: 32
TimelineZoom: 0.9999999

[Metadata]
Title:adrenaline!!!
TitleUnicode:adrenaline!!!
Artist:TrySail
ArtistUnicode:TrySail
Creator:Koalazy
Version:Koa%wer
Source:エロマンガ先生
Tags:eromanga sensei ending ed i19
BeatmapID:1355907
BeatmapSetID:639281

[Difficulty]
HPDrainRate:1
CircleSize:4
OverallDifficulty:9
ApproachRate:9.4
SliderMultiplier:2.68
SliderTickRate:1

[Events]
//Background and Video events
0,0,"47277671_p0w.jpg",0,0
//Break Periods
//Storyboard Layer 0 (Background)
//Storyboard Layer 1 (Fail)
//Storyboard Layer 2 (Pass)
//Storyboard Layer 3 (Foreground)
//Storyboard Sound Samples

[TimingPoints]
500,223.880597014925,4,2,1,50,1,0
5873,-66.6666666666667,4,2,1,50,0,0
7664,-100,4,2,1,50,0,0
11246,-66.6666666666667,4,2,1,50,0,0
11694,-100,4,2,1,50,0,0
24007,-50,4,2,1,50,0,0
24231,-100,4,2,1,50,0,0
29940,-133.333333333333,4,2,1,50,0,0
30947,-100,4,2,1,50,0,0
40798,-133.333333333333,4,2,1,50,0,0
42141,-266.666666666666,4,2,1,50,0,0
44828,-133.333333333333,4,2,1,50,0,0
45947,-66.6666666666667,4,2,1,50,0,0
48858,-66.6666666666667,4,2,1,50,0,1
56470,-33.3333333333333,4,2,1,50,0,1
56694,-66.6666666666667,4,2,1,50,0,1
58261,-33.3333333333333,4,2,1,50,0,1
58485,-66.6666666666667,4,2,1,50,0,1
62962,-66.6666666666667,4,2,1,50,0,0
63186,-66.6666666666667,4,2,1,50,0,1
70798,-33.3333333333333,4,2,1,50,0,1
71022,-66.6666666666667,4,2,1,50,0,1
77291,-100,4,2,1,50,0,0
81097,3582.08955223881,4,2,1,50,1,0
81097,-200,4,2,1,50,0,0
81992,-150,4,2,1,50,0,0
82888,-100,4,2,1,50,0,0
84679,223.880597014925,4,2,1,50,1,0
93634,-200,4,2,1,50,0,0
94529,-100,4,2,1,50,0,0
97216,-400,4,2,1,50,0,0
100798,-500,4,2,1,50,0,0
101246,-250,4,2,1,50,0,0
101693,-166.666666666667,4,2,1,50,0,0
102141,-62.5,4,2,1,50,0,0
102813,-80,4,2,1,50,0,0
103261,-100,4,2,1,50,0,0
117365,-66.6666666666667,4,2,1,50,0,0
117589,-100,4,2,1,50,0,0
118261,-66.6666666666667,4,2,1,50,0,0
118708,-100,4,2,1,50,0,0
119604,-133.333333333333,4,2,1,50,0,0
120947,-266.666666666666,4,2,1,50,0,0
124081,-133.333333333333,4,2,1,50,0,0
124529,-66.6666666666667,4,2,1,50,0,0
127664,-66.6666666666667,4,2,1,50,0,1
134828,-100,4,2,1,50,0,1
135276,-33.3333333333333,4,2,1,50,0,1
135499,-66.6666666666667,4,2,1,50,0,1
137067,-33.3333333333333,4,2,1,50,0,1
137290,-66.6666666666667,4,2,1,50,0,1
141768,-66.6666666666667,4,2,1,50,0,0
141992,-66.6666666666667,4,2,1,50,0,1
149604,-33.3333333333333,4,2,1,50,0,1
149828,-66.6666666666667,4,2,1,50,0,1
156096,-100,4,2,1,50,0,0
159902,-311.111111111111,4,2,1,50,0,0
161693,-88.8888888888889,4,2,1,50,0,0
167067,-100,4,2,1,50,0,0
167514,-111.111111111111,4,2,1,50,0,0
167962,-125,4,2,1,50,0,0
168298,-62.5,4,2,1,50,0,0
169753,-66.6666666666667,4,2,1,50,0,0
173671,-100,4,2,1,50,0,0
174007,-50,4,2,1,50,0,0
175014,-100,4,2,1,50,0,0
175350,-50,4,2,1,50,0,0
175574,-200,4,2,1,50,0,0
176022,-133.333333333333,4,2,1,50,0,0
182514,-66.6666666666667,4,2,1,50,0,0
182738,-33.3333333333333,4,2,1,50,0,0
182962,-16.6666666666667,4,2,1,50,0,0
183186,-100,4,2,1,50,0,0
186096,-50,4,2,1,50,0,0
187216,-100,4,2,1,50,0,0
187552,-66.6666666666667,4,2,1,50,0,0
187887,-100,4,2,1,50,0,0
188111,-133.333333333333,4,2,1,50,0,0
188335,-177.777777777778,4,2,1,50,0,0
188559,-100,4,2,1,50,0,0
206358,-50,4,2,1,50,0,0
208261,-266.666666666667,4,2,1,50,0,0
219007,-66.6666666666667,4,2,1,50,0,0
220798,447.761194029851,4,2,1,50,1,0
220798,-20,4,2,1,50,0,0
221693,223.880597014925,4,2,1,50,1,0
223036,-50,4,2,1,50,0,0
226170,-25,4,2,1,50,0,1
226618,-66.6666666666667,4,2,1,50,0,1
229752,-100,4,2,1,50,0,1
230200,-50,4,2,1,50,0,1
230648,-66.6666666666667,4,2,1,50,0,1
236692,-100,4,2,1,50,0,0
237364,-200,4,2,1,50,0,0
237812,-100,4,2,1,50,0,0
238260,-200,4,2,1,50,0,0
239603,-100,4,2,1,50,0,0
239827,-111.111111111111,4,2,1,50,0,0
240051,-125,4,2,1,50,0,0
240275,-142.857142857143,4,2,1,50,0,0
240946,-200,4,2,1,50,0,0
242290,-100,4,2,1,50,0,0
243185,-400,4,2,1,50,0,0
244081,-100,4,2,1,50,0,0
245872,-200,4,2,1,50,0,0
246095,-166.666666666667,4,2,1,50,0,0
246319,-142.857142857143,4,2,1,50,0,0
246543,-125,4,2,1,50,0,0
246767,-111.111111111111,4,2,1,50,0,0
246991,-100,4,2,1,50,0,0
247215,-90.9090909090909,4,2,1,50,0,0
247439,-83.3333333333333,4,2,1,50,0,0
247663,-666.666666666667,4,2,1,50,0,0
251245,-100,4,2,1,50,0,0
259528,-50,4,2,1,50,0,0
260200,-66.6666666666667,4,2,1,50,0,0
263558,-33.3333333333333,4,2,1,50,0,0
263782,-66.6666666666667,4,2,1,50,0,0
267364,-100,4,2,1,50,0,0
268707,3582.08955223881,4,2,1,50,1,0
268707,-12800,4,2,1,50,0,0

[Colours]
Combo1 : 255,128,192
Combo2 : 90,225,255

[HitObjects]
441,58,164,5,0,0:0:0:0:
227,335,276,1,0,0:0:0:0:
156,205,500,5,0,0:0:0:0:
210,141,723,1,0,0:0:0:0:
195,58,947,1,0,0:0:0:0:
120,19,1171,1,0,0:0:0:0:
43,53,1395,5,0,0:0:0:0:
22,134,1619,1,0,0:0:0:0:
72,201,1843,1,0,0:0:0:0:
156,205,2066,1,0,0:0:0:0:
210,141,2291,5,0,0:0:0:0:
195,58,2515,1,0,0:0:0:0:
120,19,2739,1,0,0:0:0:0:
43,53,2963,1,0,0:0:0:0:
22,134,3187,5,0,0:0:0:0:
72,201,3411,1,0,0:0:0:0:
156,205,3634,1,0,0:0:0:0:
210,141,3858,1,0,0:0:0:0:
195,58,4082,5,0,0:0:0:0:
120,19,4194,1,0,0:0:0:0:
43,53,4305,1,0,0:0:0:0:
22,134,4529,2,0,L|107:248,1,134
72,201,4753,2,0,L|215:208,1,134
156,205,4976,5,0,0:0:0:0:
210,141,5089,1,0,0:0:0:0:
195,58,5201,1,0,0:0:0:0:
120,19,5313,1,0,0:0:0:0:
43,53,5425,1,0,0:0:0:0:
22,134,5537,1,0,0:0:0:0:
72,201,5649,1,0,0:0:0:0:
156,205,5761,1,0,0:0:0:0:
210,141,5873,6,0,P|39:57|133:210,1,402
156,205,6208,2,0,P|113:18|54:190,1,402
72,201,6544,2,0,P|159:203|209:85,1,201.000007667542
22,134,6768,2,0,B|72:201|72:201|156:205|156:205|210:141|210:141|195:58|195:58|120:19|120:19|43:53|43:53|22:134|22:134|52:174,1,603.000023002625
30,145,7216,6,0,B|22:134|22:134|43:53|43:53|120:19|120:19|195:58|195:58|210:141|210:141|156:205|156:205|72:201|72:201|22:134,1,603.000023002625
22,134,7664,6,0,P|50:251|97:294,1,134
24,258,7888,2,0,P|107:346|169:359,1,134
487,125,8111,1,0,0:0:0:0:
487,125,8223,2,0,P|404:37|342:24,1,134
180,217,8447,6,0,P|332:211|215:125,1,268
111,99,8783,2,0,P|92:194|108:245,1,134
411,228,9007,2,0,P|420:162|401:99,1,134
204,45,9231,2,0,B|96:33|96:33|49:47,1,134
71,343,9455,6,0,B|96:351|96:351|204:339,1,134
44,135,9679,2,0,P|30:218|46:281,1,134
422,315,9902,1,0,0:0:0:0:
468,249,10014,2,0,P|482:166|466:103,1,134
119,199,10238,6,0,B|148:329|148:329|274:208,1,268
92,25,10574,2,0,P|48:69|40:162,1,134
359,274,10798,2,0,P|391:221|374:129,1,134
233,176,11022,2,0,P|216:236|256:320,1,134
444,256,11246,6,0,B|154:274|154:274|72:356,1,402.000015335084
279,374,11694,2,0,L|302:220,1,134
122,37,11917,1,0,0:0:0:0:
122,37,12029,6,0,P|105:97|326:218,1,268
383,60,12365,2,0,P|272:85|223:131,1,134
295,308,12589,2,0,P|406:283|455:237,1,134
193,126,12813,2,0,P|82:151|33:197,1,134
96,335,13037,5,0,0:0:0:0:
462,170,13261,1,0,0:0:0:0:
56,31,13485,2,0,P|42:113|67:190,1,134
462,170,13708,1,0,0:0:0:0:
462,170,13820,6,0,P|320:133|249:19,1,268
105,268,14156,1,0,0:0:0:0:
293,275,14268,1,0,0:0:0:0:
126,187,14380,1,0,0:0:0:0:
239,339,14492,1,0,0:0:0:0:
203,153,14604,1,0,0:0:0:0:
155,335,14716,1,0,0:0:0:0:
278,192,14828,5,0,0:0:0:0:
203,153,15052,1,0,0:0:0:0:
126,187,15276,1,0,0:0:0:0:
126,187,15388,1,0,0:0:0:0:
105,268,15611,1,0,0:0:0:0:
155,335,15835,1,0,0:0:0:0:
239,339,16059,1,0,0:0:0:0:
293,275,16171,2,0,P|105:229|216:345,1,402
239,339,16619,6,0,P|362:314|457:327,1,134
476,141,16843,2,0,P|411:160|345:165,1,134
78,106,17067,2,0,P|217:108|230:218,1,268
87,333,17402,6,0,P|150:161|279:95,1,268
389,179,17738,2,0,P|412:242|413:309,1,134
123,205,17962,2,0,P|99:142|98:75,1,134
339,45,18186,1,0,0:0:0:0:
339,45,18410,6,0,L|282:335,1,268
18,291,18858,2,0,P|133:242|211:264,1,134
423,214,19082,1,0,0:0:0:0:
423,214,19194,6,0,P|411:328|305:284,1,268
79,61,19529,1,0,0:0:0:0:
79,61,19753,2,0,P|193:102|241:133,1,134
433,91,19977,2,0,P|319:50|271:19,1,134
43,214,20201,6,0,P|173:249|89:353,1,268
96,273,20537,1,0,0:0:0:0:
96,273,20649,2,0,P|198:240|232:241,1,134
382,259,20873,1,0,0:0:0:0:
382,259,20985,2,0,P|445:90|394:15,1,268
126,191,21320,2,0,P|210:225|283:208,1,134
309,160,21544,2,0,P|296:70|245:15,1,134
191,17,21768,2,0,P|119:72|97:144,1,134
268,312,21992,6,0,P|368:231|330:97,1,268
256,192,22328,1,0,0:0:0:0:
158,262,22440,6,0,P|278:308|375:208,1,268
256,192,22776,1,0,0:0:0:0:
146,142,22888,6,0,P|166:269|301:303,1,268
256,192,23224,1,0,0:0:0:0:
243,71,23335,6,0,P|143:152|182:287,1,268
170,276,23783,5,0,0:0:0:0:
170,276,24007,2,0,P|144:151|243:71,1,268
364,89,24231,1,0,0:0:0:0:
256,192,24343,1,0,0:0:0:0:
109,215,24455,1,0,0:0:0:0:
109,215,24567,2,0,P|130:114|189:57,1,134
403,169,24791,5,0,0:0:0:0:
403,169,24902,2,0,P|382:270|323:327,1,134
179,313,25126,2,0,B|73:290|73:290|50:259,1,134
91,34,25350,1,0,0:0:0:0:
91,34,25574,6,0,P|156:157|113:321,1,268
220,43,25910,1,0,0:0:0:0:
220,43,26022,2,0,P|214:182|95:302,1,268
258,227,26358,1,0,0:0:0:0:
258,227,26470,6,0,P|201:262|136:278,1,134
30,148,26694,2,0,P|86:112|151:96,1,134
477,177,26917,2,0,P|420:212|355:228,1,134
248,97,27141,2,0,P|304:61|369:45,1,134
226,349,27365,6,0,B|75:348|44:186|44:186|84:250|142:282,2,402
445,81,28261,6,0,P|256:42|181:63,1,268
188,61,28597,1,0,0:0:0:0:
31,264,28708,2,0,P|125:273|221:224,1,134
285,205,28932,1,0,0:0:0:0:
20,32,29156,5,0,0:0:0:0:
20,32,29380,2,0,L|61:185,1,134
208,352,29604,1,0,0:0:0:0:
208,352,29716,2,0,L|166:198,1,134
20,32,29940,6,0,L|79:255,1,201.000007667542
433,280,30388,1,0,0:0:0:0:
418,197,30499,1,0,0:0:0:0:
343,158,30611,1,0,0:0:0:0:
266,192,30723,1,0,0:0:0:0:
245,273,30835,1,0,0:0:0:0:
295,340,30947,6,0,B|379:344|379:344|433:280|433:280|418:196|418:196|343:158,1,268
245,273,31283,1,0,0:0:0:0:
433,280,31395,6,0,B|418:197|418:197|343:159|343:159|265:191|265:191|244:274,1,268,0|0,2:0|2:0,2:0:0:0:
379,344,31731,1,0,0:0:0:0:
343,158,31843,6,0,B|265:191|265:191|245:272|245:272|294:340|294:340|379:342,1,268,0|0,2:0|2:0,2:0:0:0:
418,197,32179,1,0,0:0:0:0:
245,273,32291,6,0,B|294:340|294:340|378:342|378:342|433:278|433:278|416:195,1,268,0|0,2:0|2:0,2:0:0:0:
266,192,32626,1,0,0:0:0:0:
379,344,32738,6,0,B|433:280|433:280|416:198|416:198|342:158|342:158|265:194,1,268
184,218,33074,2,0,B|169:225|169:225|95:185|95:185|78:103|78:103|133:40,1,268
218,44,33410,1,0,0:0:0:0:
267,111,33522,1,0,0:0:0:0:
184,218,33634,6,0,P|111:221|45:182,1,134
218,44,33858,2,0,P|291:41|357:80,1,134
294,340,34082,2,0,P|221:343|155:304,1,134
328,166,34306,2,0,P|401:163|467:202,1,134
187,240,34529,6,0,P|266:107|315:253,1,268
332,227,34865,1,0,0:0:0:0:
263,275,34977,6,0,P|187:140|338:171,1,268
324,143,35313,1,0,0:0:0:0:
332,227,35425,6,0,P|177:225|279:110,1,268
248,108,35761,1,0,0:0:0:0:
325,143,35873,6,0,P|246:277|197:131,1,268
180,157,36209,1,0,0:0:0:0:
248,108,36320,6,0,P|324:243|173:212,1,268
263,275,36768,2,0,P|187:140|338:171,1,268
248,107,37216,5,0,0:0:0:0:
333,227,37328,1,0,0:0:0:0:
186,240,37440,1,0,0:0:0:0:
372,90,37664,1,0,0:0:0:0:
285,343,37888,1,0,0:0:0:0:
109,141,38111,5,0,0:0:0:0:
315,208,38223,1,0,0:0:0:0:
109,275,38335,1,0,0:0:0:0:
237,100,38447,1,0,0:0:0:0:
237,317,38559,1,0,0:0:0:0:
237,317,38783,2,0,L|97:271,1,134
133,85,39007,5,0,0:0:0:0:
271,235,39119,1,0,0:0:0:0:
237,29,39231,1,0,0:0:0:0:
274,253,39343,1,0,0:0:0:0:
454,35,39455,1,0,0:0:0:0:
454,35,39679,2,0,L|311:67,1,134
177,244,39902,5,0,0:0:0:0:
308,270,40014,1,0,0:0:0:0:
334,139,40126,1,0,0:0:0:0:
203,113,40238,1,0,0:0:0:0:
161,335,40350,5,0,0:0:0:0:
351,49,40574,1,0,0:0:0:0:
81,164,40798,6,0,P|97:271|164:343,1,201.000007667542
431,220,41134,6,0,P|415:113|348:41,1,201.000007667542
90,255,41470,6,0,P|157:339|251:368,1,201.000007667542
421,128,42141,6,0,P|354:44|260:15,1,201.000007667542
144,329,43037,6,0,P|244:369|340:347,1,201.000007667542
367,54,43932,6,0,P|267:14|171:36,1,201.000007667542
228,367,44828,6,0,P|335:351|407:284,1,201.000007667542
284,17,45276,6,0,P|177:33|105:100,1,201.000007667542
109,92,45723,1,0,0:0:0:0:
319,357,45947,6,0,P|403:290|432:196,1,201.000007667542
192,26,46171,6,0,P|108:93|79:187,1,201.000007667542
393,303,46395,6,0,P|433:203|411:107,1,201.000007667542
118,80,46619,6,0,P|78:180|100:276,1,201.000007667542
431,220,46843,6,0,P|415:112|347:41,1,201.000007667542
81,164,47067,6,0,P|97:271|164:343,1,201.000007667542
431,220,47402,6,0,P|415:113|348:41,1,201.000007667542
81,164,47738,6,0,P|97:271|164:343,1,201.000007667542
431,220,47962,6,0,P|415:113|348:41,1,201.000007667542
355,45,48186,1,0,0:0:0:0:
183,242,48410,1,0,0:0:0:0:
345,171,48522,1,0,0:0:0:0:
113,84,48634,1,0,0:0:0:0:
113,84,48858,6,0,B|65:104|65:104|45:151|45:151|65:196|65:196|113:216|113:216|158:196|158:196|178:151|178:151|158:104|158:104|113:84|113:84|65:104|65:104|45:151|45:151|65:196|65:196|113:216|113:216|158:196|158:196|178:151|178:151|158:104|158:104|113:84|113:84|65:104|65:104|45:151|45:151|65:196|65:196|113:216|113:216|158:196|158:196|178:151|178:151|158:104|158:104|113:84|113:84|65:104|65:104|45:151|45:151|65:196|65:196|113:216|113:216|158:196|158:196|178:151|178:151|158:104|158:104|113:84|113:84|65:104|65:104|45:151|45:151|65:196|65:196|113:216|113:216|158:196|158:196|178:151|178:151|158:104|158:104|113:84|113:84|65:104|65:104|45:151|45:151|65:196|65:196|113:216|113:216|158:196|158:196|178:151|178:151|158:104|158:104|113:84|113:84|65:104|65:104|45:151|45:151|65:196|65:196|113:216|113:216|158:196|158:196|178:151|178:151|158:104|158:104|113:84|113:84|65:104|65:104|45:151|45:151|65:196|65:196|113:216|113:216|158:196|158:196|178:151|178:151|158:104|158:104|113:84|113:84|65:104|65:104|45:151|45:151|65:196|65:196|113:216|113:216|158:196|158:196|178:151|178:151|158:104|158:104|113:84|113:84|65:104|65:104|45:151|45:151|65:196|65:196|113:216|113:216|158:196|158:196|178:151|178:151|158:104|158:104|113:84|113:84|65:104|65:104|45:151|45:151|65:196|65:196|113:216|113:216|158:196|158:196|178:151|178:151|158:104|158:104|113:84|113:84|65:104|65:104|45:151|45:151|65:196|65:196|113:216|113:216|158:196|158:196|178:151|178:151|158:104|158:104|113:84|113:84|65:104|65:104|45:151|45:151|65:196|65:196|113:216|113:216|158:196|158:196|178:151|178:151|158:104|158:104|113:84|113:84|65:104|65:104|45:151|45:151|65:196|65:196|113:216|113:216|158:196|158:196|178:151|178:151|158:104|158:104|113:84|113:84|65:104|65:104|45:151|45:151|65:196|65:196|113:216|113:216|158:196|158:196|178:151|178:151|158:104|158:104|113:84|113:84|65:104|65:104|45:151|45:151|65:196|65:196|113:216|113:216|158:196|158:196|178:151|178:151|158:104|158:104|113:84|113:84|65:104|65:104|45:151|45:151|65:196|65:196|113:216|113:216|158:196|158:196|178:151|178:151|158:104|158:104|113:84|113:84|65:104|65:104|45:151|45:151|65:196|65:196|113:216|113:216|158:196|158:196|178:151|178:151|158:104|158:104|113:84|113:84|65:104|65:104|45:151|45:151|65:196|65:196|113:216|113:216|158:196|158:196|178:151|178:151|158:104|158:104|113:84|113:84|65:104|65:104|45:151|45:151|65:196|65:196|113:216|113:216|158:196|158:196|178:151|178:151|158:104|158:104|113:84|113:84|65:104|65:104|45:151|45:151|65:196|65:196|113:216|113:216|158:196|158:196|178:151|178:151|158:104|158:104|113:84|113:84|65:104|65:104|45:151|45:151|65:196|65:196|113:216|113:216|158:196|158:196|178:151|178:151|158:104|158:104|113:84|113:84|65:104|65:104|45:151|45:151|65:196|65:196|113:216|113:216|158:196|158:196|178:151|178:151|158:104|158:104|113:84|113:84|65:104|65:104|45:151|45:151|65:196|65:196|113:216|113:216|158:196|158:196|178:151|178:151|158:104|158:104|113:84|113:84|65:104|65:104|45:151|45:151|65:196|65:196|113:216|113:216|158:196|158:196|178:151|178:151|158:104|158:104|113:84|113:84|65:104|65:104|45:151|45:151|65:196|65:196|113:216|113:216|158:196|158:196|178:151|178:151|158:104|158:104|113:84|113:84|65:104|65:104|45:151|45:151|65:196|65:196|113:216|113:216|158:196|158:196|178:151|178:151|158:104|158:104|113:84|113:84|65:104|65:104|45:151|45:151|65:196|65:196|113:216|113:216|158:196|158:196|178:151|178:151|158:104|158:104|113:84|113:84|65:104|65:104|45:151|45:151|65:196|65:196|113:216|113:216|158:196|158:196|178:151|178:151|158:104|158:104|113:84|113:84|65:104|65:104|45:151|45:151|65:196|65:196|113:216|113:216|158:196|158:196|178:151|178:151|158:104|158:104|113:84|113:84|65:104|65:104|45:151|45:151|65:196|65:196|113:216|113:216|158:196|158:196|178:151|178:151|158:104|158:104|113:84|113:84|65:104|65:104|45:151|45:151|65:196|65:196|113:216|113:216|158:196|158:196|178:151|178:151|158:104|158:104|113:84|113:84|65:104|65:104|45:151|45:151|65:196|65:196|113:216|113:216|158:196|158:196|178:151|178:151|158:104|158:104|113:84|113:84|65:104|65:104|45:151|45:151|65:196|65:196|113:216|113:216|158:196|158:196|178:151|178:151|158:104|158:104|113:84|113:84|65:104|65:104|45:151|45:151|65:196|65:196|113:216|113:216|158:196|158:196|178:151|178:151|158:104|158:104|113:84|113:84|65:104|65:104|45:151|45:151|65:196|65:196|113:216|113:216|158:196|158:196|178:151|178:151|158:104|158:104|113:84|113:84|65:104|65:104|45:151|45:151|65:196|65:196|113:216|113:216|158:196|158:196|178:151|178:151|158:104|158:104|113:84|113:84|65:104|65:104|45:151|45:151|65:196|65:196|113:216|113:216|158:196|158:196|178:151|178:151|158:104|158:104|113:84|113:84|65:104|65:104|45:151|45:151|65:196|65:196|113:216|113:216|158:196|158:196|178:151|178:151|158:104|158:104|113:84|113:84|65:104|65:104|45:151|45:151|65:196|65:196|113:216|113:216|158:196|158:196|178:151|178:151|158:104|158:104|113:84|113:84|65:104|65:104|45:151|45:151|65:196|65:196|113:216|113:216|158:196|158:196|178:151|178:151|158:104|158:104|113:84|113:84|65:104|65:104|45:151|45:151|65:196|65:196|113:216|113:216|158:196|158:196|178:151|178:151|158:104|158:104|113:84|113:84|65:104|65:104|45:151|45:151|65:196|65:196|113:216|113:216|158:196|158:196|178:151|178:151|158:104|158:104|113:84|113:84|65:104|65:104|45:151|45:151|65:196|65:196|113:216|113:216|158:196|158:196|178:151|178:151|158:104|158:104|113:84|113:84|65:104|65:104|45:151|45:151|65:196|65:196|113:216|113:216|158:196|158:196|178:151|178:151|158:104|158:104|113:84|113:84|65:104|65:104|45:151|45:151|65:196|65:196|113:216|113:216|158:196|158:196|178:151|178:151|158:104|158:104|113:84|113:84|65:104|65:104|45:151|45:151|65:196|65:196|113:216|113:216|158:196|158:196|178:151|178:151|158:104|158:104|113:84|113:84|65:104|65:104|45:151|45:151|65:196|65:196|113:216|113:216|158:196|158:196|178:151|178:151|158:104|158:104|113:84|113:84|65:104|65:104|45:151|45:151|65:196|65:196|113:216|113:216|158:196|158:196|178:151|178:151|158:104|158:104|113:84|113:84|65:104|65:104|45:151|45:151|65:196|65:196|113:216|113:216|158:196|158:196|178:151|178:151|158:104|158:104|113:84|113:84|65:104|65:104|45:151|45:151|65:196|65:196|113:216|113:216|158:196|158:196|178:151|178:151|158:104|158:104|113:84|113:84|65:104|65:104|45:151|45:151|65:196|65:196|113:216|113:216|158:196|158:196|178:151|178:151|158:104|158:104|113:84|113:84|65:104|65:104|45:151|45:151|65:196|65:196|113:216|113:216|158:196|158:196|178:151|178:151|158:104|158:104|113:84|113:84|65:104|65:104|45:151|45:151|65:196|65:196|113:216|113:216|158:196|158:196|178:151|178:151|158:104|158:104|113:84|113:84|65:104|65:104|45:151|45:151|65:196|65:196|113:216|113:216|158:196|158:196|178:151|178:151|158:104|158:104|113:84|113:84|65:104|65:104|45:151|45:151|65:196|65:196|113:216|113:216|158:196|158:196|178:151|178:151|158:104|158:104|113:84|113:84|65:104|65:104|45:151|45:151|65:196|65:196|113:216|113:216|158:196|158:196|178:151|178:151|158:104|158:104|113:84|113:84|65:104|65:104|45:151|45:151|65:196|65:196|113:216|113:216|158:196|158:196|178:151|178:151|158:104|158:104|113:84|113:84|65:104|65:104|45:151|45:151|65:196|65:196|113:216|113:216|158:196|158:196|178:151|178:151|158:104|158:104|113:84|113:84|65:104|65:104|45:151|45:151|65:196|65:196|113:216|113:216|158:196|158:196|178:151|178:151|158:104|158:104|113:84|113:84|65:104|65:104|45:151|45:151|65:196|65:196|113:216|113:216|158:196|158:196|178:151|178:151|158:104|158:104|113:84|113:84|65:104|65:104|45:151|45:151|65:196|65:196|113:216|113:216|158:196|158:196|178:151|178:151|158:104|158:104|113:84|113:84|65:104|65:104|45:151|45:151|65:196|65:196|113:216|113:216|158:196|158:196|178:151|178:151|158:104|158:104|113:84|113:84|65:104|65:104|45:151|45:151|65:196|65:196|113:216|113:216|158:196|158:196|178:151|178:151|158:104|158:104|113:84|113:84,1,25728.0009814453
386,241,49082,5,0,0:0:0:0:
112,150,49305,2,0,P|107:254|366:282,1,402.000015335084
437,39,49641,2,0,P|335:61|375:318,1,402.000015335084
428,256,49977,6,0,B|376:119|376:119|338:71,1,201.000007667542
84,128,50201,2,0,B|136:265|136:265|174:313,1,201.000007667542
457,106,50425,1,0,0:0:0:0:
354,42,50537,1,0,0:0:0:0:
233,36,50649,6,0,P|74:117|146:359,1,402.000015335084
279,348,50985,2,0,P|438:267|366:25,1,402.000015335084
113,84,51320,1,0,0:0:0:0:
68,197,51432,1,0,0:0:0:0:
124,304,51544,6,0,B|278:252|278:252|303:197,1,201.000007667542
270,31,51768,2,0,B|116:83|116:83|91:138,1,201.000007667542
366,349,51992,2,0,L|419:150,1,201.000007667542
168,29,52216,2,0,L|220:223,1,201.000007667542
254,345,52440,5,0,0:0:0:0:
506,54,52664,1,0,0:0:0:0:
48,204,52888,2,0,L|448:311,1,402.000015335084
19,111,53223,6,0,L|419:218,1,402.000015335084
318,33,53559,2,0,P|218:61|130:141,1,201.000007667542
239,277,53783,2,0,P|339:249|427:169,1,201.000007667542
81,34,54007,2,0,L|141:259,1,201.000007667542
406,54,54231,6,0,B|319:33|319:33|23:173,1,402.000015335084
208,278,54567,1,0,0:0:0:0:
208,278,54679,2,0,P|254:150|149:280,1,402.000015335084
223,357,55014,1,0,0:0:0:0:
223,357,55126,6,0,P|318:336|418:260,1,201.000007667542
289,27,55350,2,0,P|194:48|94:124,1,201.000007667542
421,225,55574,2,0,P|400:130|324:30,1,201.000007667542
91,159,55798,2,0,P|112:254|188:354,1,201.000007667542
482,164,56022,6,0,L|64:40,1,402.000015335084
96,49,56358,1,0,0:0:0:0:
96,49,56470,6,0,L|482:164,1,402.000015335084
482,164,56694,2,0,P|397:229|259:205,1,201.000007667542
127,323,56917,6,0,B|206:67|206:67|64:175,1,402.000015335084
344,184,57253,1,0,0:0:0:0:
344,184,57365,2,0,B|272:171|258:74|420:17|460:113|492:278|181:296,1,402.000015335084
218,288,57701,1,0,0:0:0:0:
218,288,57813,6,0,B|367:244|485:290|485:290|425:350|321:347,1,402.000015335084
36,65,58261,2,0,B|185:21|303:67|303:67|243:127|139:124,1,402.000015335084
187,121,58485,1,0,0:0:0:0:
113,234,58597,1,0,0:0:0:0:
113,234,58708,6,0,P|226:334|338:326,1,201.000007667542
298,335,58932,2,0,P|398:222|390:110,1,201.000007667542
399,150,59156,2,0,P|286:50|174:58,1,201.000007667542
214,49,59380,2,0,P|114:162|122:274,1,201.000007667542
292,322,59604,6,0,P|217:61|186:308,1,603.000023002625
292,322,60052,6,0,B|345:237|425:185|425:185|284:124|85:138|85:138|109:184|138:212,1,603.000023002625
292,322,60499,6,0,B|381:313|423:261|423:261|207:223|96:108|96:108|118:147|121:212,1,603.000023002625
292,322,60947,6,0,B|183:177|183:177|221:138|221:138|241:55|241:55|349:12,1,402.000015335084
454,174,61283,1,0,0:0:0:0:
386,337,61395,6,0,B|211:210|5:299|5:299|30:172|124:136,2,603.000023002625
482,305,62179,1,0,0:0:0:0:
395,123,62291,1,0,0:0:0:0:
205,63,62402,1,0,0:0:0:0:
482,305,62626,5,0,0:0:0:0:
306,348,62738,1,0,0:0:0:0:
135,288,62850,1,0,0:0:0:0:
52,126,62962,1,0,0:0:0:0:
52,126,63186,6,0,B|4:146|4:146|-16:193|-16:193|4:238|4:238|52:258|52:258|97:238|97:238|117:193|117:193|97:146|97:146|52:126|52:126|4:146|4:146|-16:193|-16:193|4:238|4:238|52:258|52:258|97:238|97:238|117:193|117:193|97:146|97:146|52:126|52:126|4:146|4:146|-16:193|-16:193|4:238|4:238|52:258|52:258|97:238|97:238|117:193|117:193|97:146|97:146|52:126|52:126|4:146|4:146|-16:193|-16:193|4:238|4:238|52:258|52:258|97:238|97:238|117:193|117:193|97:146|97:146|52:126|52:126|4:146|4:146|-16:193|-16:193|4:238|4:238|52:258|52:258|97:238|97:238|117:193|117:193|97:146|97:146|52:126|52:126|4:146|4:146|-16:193|-16:193|4:238|4:238|52:258|52:258|97:238|97:238|117:193|117:193|97:146|97:146|52:126|52:126|4:146|4:146|-16:193|-16:193|4:238|4:238|52:258|52:258|97:238|97:238|117:193|117:193|97:146|97:146|52:126|52:126|4:146|4:146|-16:193|-16:193|4:238|4:238|52:258|52:258|97:238|97:238|117:193|117:193|97:146|97:146|52:126|52:126|4:146|4:146|-16:193|-16:193|4:238|4:238|52:258|52:258|97:238|97:238|117:193|117:193|97:146|97:146|52:126|52:126|4:146|4:146|-16:193|-16:193|4:238|4:238|52:258|52:258|97:238|97:238|117:193|117:193|97:146|97:146|52:126|52:126|4:146|4:146|-16:193|-16:193|4:238|4:238|52:258|52:258|97:238|97:238|117:193|117:193|97:146|97:146|52:126|52:126|4:146|4:146|-16:193|-16:193|4:238|4:238|52:258|52:258|97:238|97:238|117:193|117:193|97:146|97:146|52:126|52:126|4:146|4:146|-16:193|-16:193|4:238|4:238|52:258|52:258|97:238|97:238|117:193|117:193|97:146|97:146|52:126|52:126|4:146|4:146|-16:193|-16:193|4:238|4:238|52:258|52:258|97:238|97:238|117:193|117:193|97:146|97:146|52:126|52:126|4:146|4:146|-16:193|-16:193|4:238|4:238|52:258|52:258|97:238|97:238|117:193|117:193|97:146|97:146|52:126|52:126|4:146|4:146|-16:193|-16:193|4:238|4:238|52:258|52:258|97:238|97:238|117:193|117:193|97:146|97:146|52:126|52:126|4:146|4:146|-16:193|-16:193|4:238|4:238|52:258|52:258|97:238|97:238|117:193|117:193|97:146|97:146|52:126|52:126|4:146|4:146|-16:193|-16:193|4:238|4:238|52:258|52:258|97:238|97:238|117:193|117:193|97:146|97:146|52:126|52:126|4:146|4:146|-16:193|-16:193|4:238|4:238|52:258|52:258|97:238|97:238|117:193|117:193|97:146|97:146|52:126|52:126|4:146|4:146|-16:193|-16:193|4:238|4:238|52:258|52:258|97:238|97:238|117:193|117:193|97:146|97:146|52:126|52:126|4:146|4:146|-16:193|-16:193|4:238|4:238|52:258|52:258|97:238|97:238|117:193|117:193|97:146|97:146|52:126|52:126|4:146|4:146|-16:193|-16:193|4:238|4:238|52:258|52:258|97:238|97:238|117:193|117:193|97:146|97:146|52:126|52:126|4:146|4:146|-16:193|-16:193|4:238|4:238|52:258|52:258|97:238|97:238|117:193|117:193|97:146|97:146|52:126|52:126|4:146|4:146|-16:193|-16:193|4:238|4:238|52:258|52:258|97:238|97:238|117:193|117:193|97:146|97:146|52:126|52:126|4:146|4:146|-16:193|-16:193|4:238|4:238|52:258|52:258|97:238|97:238|117:193|117:193|97:146|97:146|52:126|52:126|4:146|4:146|-16:193|-16:193|4:238|4:238|52:258|52:258|97:238|97:238|117:193|117:193|97:146|97:146|52:126|52:126|4:146|4:146|-16:193|-16:193|4:238|4:238|52:258|52:258|97:238|97:238|117:193|117:193|97:146|97:146|52:126|52:126|4:146|4:146|-16:193|-16:193|4:238|4:238|52:258|52:258|97:238|97:238|117:193|117:193|97:146|97:146|52:126|52:126|4:146|4:146|-16:193|-16:193|4:238|4:238|52:258|52:258|97:238|97:238|117:193|117:193|97:146|97:146|52:126|52:126|4:146|4:146|-16:193|-16:193|4:238|4:238|52:258|52:258|97:238|97:238|117:193|117:193|97:146|97:146|52:126|52:126|4:146|4:146|-16:193|-16:193|4:238|4:238|52:258|52:258|97:238|97:238|117:193|117:193|97:146|97:146|52:126|52:126|4:146|4:146|-16:193|-16:193|4:238|4:238|52:258|52:258|97:238|97:238|117:193|117:193|97:146|97:146|52:126|52:126|4:146|4:146|-16:193|-16:193|4:238|4:238|52:258|52:258|97:238|97:238|117:193|117:193|97:146|97:146|52:126|52:126|4:146|4:146|-16:193|-16:193|4:238|4:238|52:258|52:258|97:238|97:238|117:193|117:193|97:146|97:146|52:126|52:126|4:146|4:146|-16:193|-16:193|4:238|4:238|52:258|52:258|97:238|97:238|117:193|117:193|97:146|97:146|52:126|52:126|4:146|4:146|-16:193|-16:193|4:238|4:238|52:258|52:258|97:238|97:238|117:193|117:193|97:146|97:146|52:126|52:126|4:146|4:146|-16:193|-16:193|4:238|4:238|52:258|52:258|97:238|97:238|117:193|117:193|97:146|97:146|52:126|52:126|4:146|4:146|-16:193|-16:193|4:238|4:238|52:258|52:258|97:238|97:238|117:193|117:193|97:146|97:146|52:126|52:126|4:146|4:146|-16:193|-16:193|4:238|4:238|52:258|52:258|97:238|97:238|117:193|117:193|97:146|97:146|52:126|52:126|4:146|4:146|-16:193|-16:193|4:238|4:238|52:258|52:258|97:238|97:238|117:193|117:193|97:146|97:146|52:126|52:126|4:146|4:146|-16:193|-16:193|4:238|4:238|52:258|52:258|97:238|97:238|117:193|117:193|97:146|97:146|52:126|52:126|4:146|4:146|-16:193|-16:193|4:238|4:238|52:258|52:258|97:238|97:238|117:193|117:193|97:146|97:146|52:126|52:126|4:146|4:146|-16:193|-16:193|4:238|4:238|52:258|52:258|97:238|97:238|117:193|117:193|97:146|97:146|52:126|52:126|4:146|4:146|-16:193|-16:193|4:238|4:238|52:258|52:258|97:238|97:238|117:193|117:193|97:146|97:146|52:126|52:126|4:146|4:146|-16:193|-16:193|4:238|4:238|52:258|52:258|97:238|97:238|117:193|117:193|97:146|97:146|52:126|52:126|4:146|4:146|-16:193|-16:193|4:238|4:238|52:258|52:258|97:238|97:238|117:193|117:193|97:146|97:146|52:126|52:126|4:146|4:146|-16:193|-16:193|4:238|4:238|52:258|52:258|97:238|97:238|117:193|117:193|97:146|97:146|52:126|52:126|4:146|4:146|-16:193|-16:193|4:238|4:238|52:258|52:258|97:238|97:238|117:193|117:193|97:146|97:146|52:126|52:126|4:146|4:146|-16:193|-16:193|4:238|4:238|52:258|52:258|97:238|97:238|117:193|117:193|97:146|97:146|52:126|52:126|4:146|4:146|-16:193|-16:193|4:238|4:238|52:258|52:258|97:238|97:238|117:193|117:193|97:146|97:146|52:126|52:126|4:146|4:146|-16:193|-16:193|4:238|4:238|52:258|52:258|97:238|97:238|117:193|117:193|97:146|97:146|52:126|52:126|4:146|4:146|-16:193|-16:193|4:238|4:238|52:258|52:258|97:238|97:238|117:193|117:193|97:146|97:146|52:126|52:126|4:146|4:146|-16:193|-16:193|4:238|4:238|52:258|52:258|97:238|97:238|117:193|117:193|97:146|97:146|52:126|52:126|4:146|4:146|-16:193|-16:193|4:238|4:238|52:258|52:258|97:238|97:238|117:193|117:193|97:146|97:146|52:126|52:126|4:146|4:146|-16:193|-16:193|4:238|4:238|52:258|52:258|97:238|97:238|117:193|117:193|97:146|97:146|52:126|52:126|4:146|4:146|-16:193|-16:193|4:238|4:238|52:258|52:258|97:238|97:238|117:193|117:193|97:146|97:146|52:126|52:126|4:146|4:146|-16:193|-16:193|4:238|4:238|52:258|52:258|97:238|97:238|117:193|117:193|97:146|97:146|52:126|52:126|4:146|4:146|-16:193|-16:193|4:238|4:238|52:258|52:258|97:238|97:238|117:193|117:193|97:146|97:146|52:126|52:126|4:146|4:146|-16:193|-16:193|4:238|4:238|52:258|52:258|97:238|97:238|117:193|117:193|97:146|97:146|52:126|52:126|4:146|4:146|-16:193|-16:193|4:238|4:238|52:258|52:258|97:238|97:238|117:193|117:193|97:146|97:146|52:126|52:126|4:146|4:146|-16:193|-16:193|4:238|4:238|52:258|52:258|97:238|97:238|117:193|117:193|97:146|97:146|52:126|52:126|4:146|4:146|-16:193|-16:193|4:238|4:238|52:258|52:258|97:238|97:238|117:193|117:193|97:146|97:146|52:126|52:126|4:146|4:146|-16:193|-16:193|4:238|4:238|52:258|52:258|97:238|97:238|117:193|117:193|97:146|97:146|52:126|52:126|4:146|4:146|-16:193|-16:193|4:238|4:238|52:258|52:258|97:238|97:238|117:193|117:193|97:146|97:146|52:126|52:126,1,25728.0009814453
52,126,63410,5,0,0:0:0:0:
419,182,63634,2,0,P|239:88|45:129,1,402.000015335084
133,336,63970,2,0,P|338:133|310:-1,1,402.000015335084
34,37,64305,2,0,L|92:265,1,201.000007667542
302,349,64529,2,0,L|252:154,1,201.000007667542
34,37,64753,2,0,L|92:265,1,201.000007667542
302,349,64977,6,0,B|352:212|543:189|543:189|464:293|366:275,1,402.000015335084
165,207,65313,2,0,B|364:91|478:189|478:189|459:282|508:330,1,402.000015335084
311,85,65649,2,0,P|478:189|538:334,1,201.000007667542
13,323,65873,6,0,B|65:170|65:170|62:86,1,201.000007667542
246,30,66097,2,0,B|194:183|194:183|197:267,1,201.000007667542
136,355,66320,2,0,B|248:299|248:299|555:206,1,402.000015335084
512,218,66768,6,0,P|322:206|247:21,1,402.000015335084
245,30,67216,2,0,B|216:291|216:291|355:194,1,402.000015335084
34,185,67552,2,0,P|293:182|403:359,1,402.000015335084
181,280,67888,6,0,P|112:189|115:69,1,201.000007667542
369,212,68111,2,0,P|325:318|219:375,1,201.000007667542
217,83,68335,2,0,P|330:68|433:131,1,201.000007667542
369,212,68559,6,0,B|164:324|28:280|28:280|103:238,1,402.000015335084
67,258,68895,1,0,0:0:0:0:
482,138,69007,2,0,P|275:171|183:15,1,402.000015335084
183,28,69343,1,0,0:0:0:0:
135,349,69455,6,0,B|249:255|276:171|276:171|391:235|439:327,3,402.000015335084
60,340,70350,6,0,P|24:183|229:26,1,402.000015335084
321,29,70686,1,0,0:0:0:0:
321,29,70798,6,0,P|470:150|444:340,1,402.000015335084
444,340,71022,2,0,L|207:298,1,201.000007667542
0,239,71246,6,0,P|228:140|457:170,2,402.000015335084
443,328,71917,1,0,0:0:0:0:
443,328,72141,6,0,B|451:131|295:46|295:46|343:108|259:194,1,402.000015335084
233,96,72477,1,0,0:0:0:0:
443,328,72589,6,0,B|360:145|195:161|195:161|245:131|230:80,1,402.000015335084
161,96,72925,1,0,0:0:0:0:
443,328,73037,6,0,B|376:218|186:241|186:241|207:208|207:208|147:156|71:200,1,402.000015335084
63,209,73373,1,0,0:0:0:0:
443,328,73485,6,0,P|245:287|-5:369,1,402.000015335084
54,50,73932,6,0,P|247:97|443:56,2,402.000015335084
463,267,74604,2,0,P|447:158|353:104,1,201.000007667542
10,301,74828,6,0,B|34:327|74:326|74:326|248:209|400:201,1,402.000015335084
75,27,75276,1,0,0:0:0:0:
388,342,75499,1,0,0:0:0:0:
463,34,75723,6,0,P|349:61|248:131,1,201.000007667542
27,335,75947,1,0,0:0:0:0:
319,234,76171,2,0,B|227:218|227:218|127:138,1,201.000007667542
436,201,76395,1,0,0:0:0:0:
40,157,76619,5,0,0:0:0:0:
40,157,76731,2,0,B|41:94|103:68|103:68|58:16|-14:70,1,201.000007667542
322,269,76955,1,0,0:0:0:0:
218,136,77067,1,0,0:0:0:0:
168,289,77179,1,0,0:0:0:0:
341,145,77290,1,0,0:0:0:0:
341,145,77514,6,0,P|133:62|56:-23,1,268
102,34,77850,1,0,0:0:0:0:
254,289,77962,2,0,P|430:150|542:126,1,268
468,138,78298,1,0,0:0:0:0:
172,141,78410,5,0,0:0:0:0:
390,198,78522,1,0,0:0:0:0:
188,228,78634,1,0,0:0:0:0:
410,203,78746,1,0,0:0:0:0:
117,336,78858,1,0,0:0:0:0:
117,336,79082,1,0,0:0:0:0:
117,336,79305,6,0,B|31:233|110:128|110:128|128:188,1,268
256,357,79641,1,0,0:0:0:0:
395,336,79753,2,0,B|481:233|402:128|402:128|384:188,1,268
256,357,80089,1,0,0:0:0:0:
256,357,80201,5,0,0:0:0:0:
159,58,80425,1,0,0:0:0:0:
412,242,80649,1,0,0:0:0:0:
99,242,80873,1,0,0:0:0:0:
352,58,81097,6,0,P|247:42|200:43,1,134
160,326,81992,6,0,P|265:342|312:341,1,134
256,259,82888,6,0,L|256:106,1,134
256,125,84679,6,0,P|408:211|428:338,1,268
79,291,85014,2,0,P|134:172|256:125,1,268
256,318,85350,2,0,L|256:50,1,268
201,103,86022,6,0,P|256:295|291:92,1,536
79,305,86693,1,0,0:0:0:0:
429,267,86917,2,0,P|442:194|484:128,1,134
471,142,87141,1,0,0:0:0:0:
134,42,87253,6,0,P|249:206|161:311,1,268
156,314,87589,2,0,P|71:312|10:261,1,134
167,148,87813,2,0,P|252:150|313:201,1,134
11,201,88037,2,0,B|33:110|33:110|64:55,1,134
418,47,88261,5,0,0:0:0:0:
42,123,88484,1,0,0:0:0:0:
360,330,88708,2,0,B|396:229|396:229|396:186,1,134
115,27,88932,1,0,0:0:0:0:
115,27,89044,6,0,L|156:323,1,268
244,354,89380,2,0,L|225:221,1,134
283,68,89604,2,0,L|301:200,1,134
404,349,89828,1,0,0:0:0:0:
404,349,90052,6,0,P|463:221|338:97,1,268
193,262,90387,1,0,0:0:0:0:
193,262,90499,2,0,P|274:277|339:243,1,134
108,120,90723,1,0,0:0:0:0:
108,120,90835,6,0,P|48:234|108:349,1,268
214,356,91171,2,0,B|250:338|250:338|360:327,1,134
478,227,91395,2,0,B|444:204|444:204|379:115,1,134
235,63,91619,2,0,B|232:103|232:103|187:203,1,134
422,298,91843,5,0,0:0:0:0:
26,228,92067,1,0,0:0:0:0:
422,298,92290,2,0,L|228:263,1,134
26,228,92514,1,0,0:0:0:0:
26,228,92626,6,0,L|314:278,1,268
348,330,92962,5,0,0:0:0:0:
249,349,93074,1,0,0:0:0:0:
145,264,93186,1,0,0:0:0:0:
182,101,93298,1,0,0:0:0:0:
337,37,93410,2,0,L|343:224,1,134
348,330,93634,6,0,B|284:306|220:321|220:321|146:334|35:305|200:190|0:153,1,402
52,41,94417,1,0,0:0:0:0:
52,41,94529,6,0,P|234:138|31:316,1,536
62,326,95425,5,0,0:0:0:0:
427,172,96992,2,0,P|368:119|357:64,1,134
369,239,97216,2,0,P|232:229|134:93,1,268
38,274,98559,2,0,P|86:254|129:258,1,67
116,41,99007,6,0,P|112:141|58:244,1,201
4,293,99902,1,0,0:0:0:0:
402,227,100350,1,0,0:0:0:0:
122,33,100798,6,0,P|130:79|129:111,1,53.6
230,51,101134,1,0,0:0:0:0:
230,51,101246,6,0,P|203:123|175:168,1,107.2
337,139,101581,1,0,0:0:0:0:
337,139,101693,6,0,P|255:207|191:241,1,160.799995092774
411,287,102029,1,0,0:0:0:0:
411,287,102141,6,0,P|248:315|135:311,2,214.4
199,316,102365,1,0,0:0:0:0:
199,316,102589,5,0,0:0:0:0:
199,316,102813,2,0,B|301:318|411:287|411:287|279:214,1,335
45,63,103261,1,0,0:0:0:0:
45,63,103373,6,0,P|137:153|290:139,1,268
269,150,103708,2,0,P|329:97|357:45,1,134
441,180,103932,2,0,P|382:213|317:224,1,134
334,311,104156,2,0,P|409:336|468:334,1,134
378,123,104380,6,0,P|199:122|126:207,1,268
269,150,104716,1,0,0:0:0:0:
269,150,104828,2,0,P|114:59|8:96,1,268
2,173,105164,1,0,0:0:0:0:
41,271,105276,6,0,P|143:251|186:205,1,134
298,24,105499,2,0,P|264:122|282:182,1,134
383,370,105723,2,0,P|314:291|253:277,1,134
41,271,105947,1,0,0:0:0:0:
41,271,106171,6,0,B|196:238|176:110|176:110|228:139,1,268
293,173,106507,2,0,P|361:140|235:89,1,268
210,295,106843,2,0,B|317:272|317:272|380:287,1,134
54,18,107067,6,0,L|131:307,1,268
280,351,107402,1,0,0:0:0:0:
280,351,107514,2,0,B|371:319|371:319|324:297,1,134
8,156,107738,1,0,0:0:0:0:
8,156,107962,5,0,0:0:0:0:
52,321,108186,1,0,0:0:0:0:
194,111,108410,1,0,0:0:0:0:
249,318,108522,1,0,0:0:0:0:
381,67,108746,6,0,L|455:343,1,268
450,325,109081,1,0,0:0:0:0:
321,287,109193,1,0,0:0:0:0:
228,188,109305,1,0,0:0:0:0:
196,55,109417,1,0,0:0:0:0:
102,152,109529,1,0,0:0:0:0:
71,285,109641,1,0,0:0:0:0:
71,285,109753,6,0,L|365:206,1,268
408,194,110089,1,0,0:0:0:0:
360,82,110201,2,0,L|101:151,1,268
23,173,110537,1,0,0:0:0:0:
10,334,110649,6,0,L|304:255,1,268
347,243,110985,1,0,0:0:0:0:
421,33,111096,2,0,L|126:111,1,268
84,124,111432,1,0,0:0:0:0:
104,356,111544,6,0,L|371:231,1,268
326,10,111992,2,0,L|58:134,1,268
217,339,112328,1,0,0:0:0:0:
297,348,112440,6,0,P|379:312|418:244,1,134
215,36,112664,2,0,P|133:72|94:140,1,134
412,151,112887,2,0,P|376:69|308:30,1,134
100,233,113111,2,0,P|136:315|204:354,1,134
404,278,113335,6,0,B|441:49|441:49|404:-11,1,268
355,66,113671,1,0,0:0:0:0:
180,261,113783,2,0,B|266:151|351:92|351:92|355:63,1,268
274,46,114119,1,0,0:0:0:0:
51,188,114231,6,0,B|122:118|171:113|171:113|243:56|243:56|293:39,1,268
277,128,114567,1,0,0:0:0:0:
277,128,114678,2,0,P|224:264|325:363,1,268
399,287,115014,1,0,0:0:0:0:
399,287,115126,6,0,L|337:-6,1,268
113,97,115574,2,0,L|175:390,1,268
464,93,116022,5,0,0:0:0:0:
385,74,116134,1,0,0:0:0:0:
370,168,116246,1,0,0:0:0:0:
311,112,116358,1,0,0:0:0:0:
251,185,116470,1,0,0:0:0:0:
227,107,116582,1,0,0:0:0:0:
139,141,116693,1,0,0:0:0:0:
158,61,116805,1,0,0:0:0:0:
227,107,116917,5,0,0:0:0:0:
64,47,117029,1,0,0:0:0:0:
196,123,117141,1,0,0:0:0:0:
33,63,117253,1,0,0:0:0:0:
165,139,117365,2,0,L|366:254,1,201.000007667542
481,297,117589,2,0,P|414:299|349:317,1,134
64,337,117813,5,0,0:0:0:0:
227,277,117925,1,0,0:0:0:0:
33,321,118037,1,0,0:0:0:0:
196,261,118149,1,0,0:0:0:0:
2,305,118261,2,0,L|203:190,1,201.000007667542
349,127,118484,1,0,0:0:0:0:
349,127,118596,1,0,0:0:0:0:
349,13,118708,5,0,0:0:0:0:
240,91,118820,1,0,0:0:0:0:
282,219,118932,1,0,0:0:0:0:
416,219,119044,1,0,0:0:0:0:
457,91,119156,2,0,P|347:48|239:29,1,134
84,122,119380,2,0,P|194:165|302:184,1,134
416,219,119604,6,0,B|267:308|267:308|232:379,1,201.000007667542
199,39,119940,2,0,B|350:124|350:124|429:119,1,201.000007667542
152,317,120276,2,0,B|150:143|150:143|106:77,1,201.000007667542
403,259,120947,6,0,B|236:306|236:306|184:366,1,201.000007667542
240,29,121843,2,0,B|364:150|364:150|441:166,1,201.000007667542
123,285,122738,2,0,B|166:117|166:117|140:42,1,201.000007667542
381,295,123634,1,0,0:0:0:0:
381,295,124081,6,0,B|207:297|207:297|141:341,1,201.000007667542
283,30,124529,2,0,B|371:180|371:180|442:215,1,201.000007667542
103,248,124753,2,0,B|188:96|188:96|183:17,1,201.000007667542
350,324,124977,6,0,B|181:281|181:281|106:307,1,201.000007667542
323,43,125201,2,0,B|370:210|370:210|429:262,1,201.000007667542
94,206,125425,2,0,B|215:82|215:82|231:4,1,201.000007667542
312,344,125649,6,0,B|161:259|161:259|82:264,1,201.000007667542
360,66,125873,2,0,B|361:239|361:239|405:305,1,201.000007667542
95,164,126208,2,0,B|245:75|245:75|280:4,1,201.000007667542
216,345,126544,2,0,B|177:196|177:196|200:133,1,201.000007667542
303,24,126768,6,0,B|389:353|389:353|300:276,1,402.000015335084
342,312,127216,1,0,0:0:0:0:
267,164,127328,1,0,0:0:0:0:
113,94,127440,1,0,0:0:0:0:
113,94,127664,6,0,B|161:114|161:114|181:161|181:161|161:206|161:206|113:226|113:226|68:206|68:206|48:161|48:161|68:114|68:114|113:94|113:94|161:114|161:114|181:161|181:161|161:206|161:206|113:226|113:226|68:206|68:206|48:161|48:161|68:114|68:114|113:94|113:94|161:114|161:114|181:161|181:161|161:206|161:206|113:226|113:226|68:206|68:206|48:161|48:161|68:114|68:114|113:94|113:94|161:114|161:114|181:161|181:161|161:206|161:206|113:226|113:226|68:206|68:206|48:161|48:161|68:114|68:114|113:94|113:94|161:114|161:114|181:161|181:161|161:206|161:206|113:226|113:226|68:206|68:206|48:161|48:161|68:114|68:114|113:94|113:94|161:114|161:114|181:161|181:161|161:206|161:206|113:226|113:226|68:206|68:206|48:161|48:161|68:114|68:114|113:94|113:94|161:114|161:114|181:161|181:161|161:206|161:206|113:226|113:226|68:206|68:206|48:161|48:161|68:114|68:114|113:94|113:94|161:114|161:114|181:161|181:161|161:206|161:206|113:226|113:226|68:206|68:206|48:161|48:161|68:114|68:114|113:94|113:94|161:114|161:114|181:161|181:161|161:206|161:206|113:226|113:226|68:206|68:206|48:161|48:161|68:114|68:114|113:94|113:94|161:114|161:114|181:161|181:161|161:206|161:206|113:226|113:226|68:206|68:206|48:161|48:161|68:114|68:114|113:94|113:94|161:114|161:114|181:161|181:161|161:206|161:206|113:226|113:226|68:206|68:206|48:161|48:161|68:114|68:114|113:94|113:94|161:114|161:114|181:161|181:161|161:206|161:206|113:226|113:226|68:206|68:206|48:161|48:161|68:114|68:114|113:94|113:94|161:114|161:114|181:161|181:161|161:206|161:206|113:226|113:226|68:206|68:206|48:161|48:161|68:114|68:114|113:94|113:94|161:114|161:114|181:161|181:161|161:206|161:206|113:226|113:226|68:206|68:206|48:161|48:161|68:114|68:114|113:94|113:94|161:114|161:114|181:161|181:161|161:206|161:206|113:226|113:226|68:206|68:206|48:161|48:161|68:114|68:114|113:94|113:94|161:114|161:114|181:161|181:161|161:206|161:206|113:226|113:226|68:206|68:206|48:161|48:161|68:114|68:114|113:94|113:94|161:114|161:114|181:161|181:161|161:206|161:206|113:226|113:226|68:206|68:206|48:161|48:161|68:114|68:114|113:94|113:94|161:114|161:114|181:161|181:161|161:206|161:206|113:226|113:226|68:206|68:206|48:161|48:161|68:114|68:114|113:94|113:94|161:114|161:114|181:161|181:161|161:206|161:206|113:226|113:226|68:206|68:206|48:161|48:161|68:114|68:114|113:94|113:94|161:114|161:114|181:161|181:161|161:206|161:206|113:226|113:226|68:206|68:206|48:161|48:161|68:114|68:114|113:94|113:94|161:114|161:114|181:161|181:161|161:206|161:206|113:226|113:226|68:206|68:206|48:161|48:161|68:114|68:114|113:94|113:94|161:114|161:114|181:161|181:161|161:206|161:206|113:226|113:226|68:206|68:206|48:161|48:161|68:114|68:114|113:94|113:94|161:114|161:114|181:161|181:161|161:206|161:206|113:226|113:226|68:206|68:206|48:161|48:161|68:114|68:114|113:94|113:94|161:114|161:114|181:161|181:161|161:206|161:206|113:226|113:226|68:206|68:206|48:161|48:161|68:114|68:114|113:94|113:94|161:114|161:114|181:161|181:161|161:206|161:206|113:226|113:226|68:206|68:206|48:161|48:161|68:114|68:114|113:94|113:94|161:114|161:114|181:161|181:161|161:206|161:206|113:226|113:226|68:206|68:206|48:161|48:161|68:114|68:114|113:94|113:94|161:114|161:114|181:161|181:161|161:206|161:206|113:226|113:226|68:206|68:206|48:161|48:161|68:114|68:114|113:94|113:94|161:114|161:114|181:161|181:161|161:206|161:206|113:226|113:226|68:206|68:206|48:161|48:161|68:114|68:114|113:94|113:94|161:114|161:114|181:161|181:161|161:206|161:206|113:226|113:226|68:206|68:206|48:161|48:161|68:114|68:114|113:94|113:94|161:114|161:114|181:161|181:161|161:206|161:206|113:226|113:226|68:206|68:206|48:161|48:161|68:114|68:114|113:94|113:94|161:114|161:114|181:161|181:161|161:206|161:206|113:226|113:226|68:206|68:206|48:161|48:161|68:114|68:114|113:94|113:94|161:114|161:114|181:161|181:161|161:206|161:206|113:226|113:226|68:206|68:206|48:161|48:161|68:114|68:114|113:94|113:94|161:114|161:114|181:161|181:161|161:206|161:206|113:226|113:226|68:206|68:206|48:161|48:161|68:114|68:114|113:94|113:94|161:114|161:114|181:161|181:161|161:206|161:206|113:226|113:226|68:206|68:206|48:161|48:161|68:114|68:114|113:94|113:94|161:114|161:114|181:161|181:161|161:206|161:206|113:226|113:226|68:206|68:206|48:161|48:161|68:114|68:114|113:94|113:94|161:114|161:114|181:161|181:161|161:206|161:206|113:226|113:226|68:206|68:206|48:161|48:161|68:114|68:114|113:94|113:94|161:114|161:114|181:161|181:161|161:206|161:206|113:226|113:226|68:206|68:206|48:161|48:161|68:114|68:114|113:94|113:94|161:114|161:114|181:161|181:161|161:206|161:206|113:226|113:226|68:206|68:206|48:161|48:161|68:114|68:114|113:94|113:94|161:114|161:114|181:161|181:161|161:206|161:206|113:226|113:226|68:206|68:206|48:161|48:161|68:114|68:114|113:94|113:94|161:114|161:114|181:161|181:161|161:206|161:206|113:226|113:226|68:206|68:206|48:161|48:161|68:114|68:114|113:94|113:94|161:114|161:114|181:161|181:161|161:206|161:206|113:226|113:226|68:206|68:206|48:161|48:161|68:114|68:114|113:94|113:94|161:114|161:114|181:161|181:161|161:206|161:206|113:226|113:226|68:206|68:206|48:161|48:161|68:114|68:114|113:94|113:94|161:114|161:114|181:161|181:161|161:206|161:206|113:226|113:226|68:206|68:206|48:161|48:161|68:114|68:114|113:94|113:94|161:114|161:114|181:161|181:161|161:206|161:206|113:226|113:226|68:206|68:206|48:161|48:161|68:114|68:114|113:94|113:94|161:114|161:114|181:161|181:161|161:206|161:206|113:226|113:226|68:206|68:206|48:161|48:161|68:114|68:114|113:94|113:94|161:114|161:114|181:161|181:161|161:206|161:206|113:226|113:226|68:206|68:206|48:161|48:161|68:114|68:114|113:94|113:94|161:114|161:114|181:161|181:161|161:206|161:206|113:226|113:226|68:206|68:206|48:161|48:161|68:114|68:114|113:94|113:94|161:114|161:114|181:161|181:161|161:206|161:206|113:226|113:226|68:206|68:206|48:161|48:161|68:114|68:114|113:94|113:94|161:114|161:114|181:161|181:161|161:206|161:206|113:226|113:226|68:206|68:206|48:161|48:161|68:114|68:114|113:94|113:94|161:114|161:114|181:161|181:161|161:206|161:206|113:226|113:226|68:206|68:206|48:161|48:161|68:114|68:114|113:94|113:94|161:114|161:114|181:161|181:161|161:206|161:206|113:226|113:226|68:206|68:206|48:161|48:161|68:114|68:114|113:94|113:94|161:114|161:114|181:161|181:161|161:206|161:206|113:226|113:226|68:206|68:206|48:161|48:161|68:114|68:114|113:94|113:94|161:114|161:114|181:161|181:161|161:206|161:206|113:226|113:226|68:206|68:206|48:161|48:161|68:114|68:114|113:94|113:94|161:114|161:114|181:161|181:161|161:206|161:206|113:226|113:226|68:206|68:206|48:161|48:161|68:114|68:114|113:94|113:94|161:114|161:114|181:161|181:161|161:206|161:206|113:226|113:226|68:206|68:206|48:161|48:161|68:114|68:114|113:94|113:94|161:114|161:114|181:161|181:161|161:206|161:206|113:226|113:226|68:206|68:206|48:161|48:161|68:114|68:114|113:94|113:94|161:114|161:114|181:161|181:161|161:206|161:206|113:226|113:226|68:206|68:206|48:161|48:161|68:114|68:114|113:94|113:94|161:114|161:114|181:161|181:161|161:206|161:206|113:226|113:226|68:206|68:206|48:161|48:161|68:114|68:114|113:94|113:94|161:114|161:114|181:161|181:161|161:206|161:206|113:226|113:226|68:206|68:206|48:161|48:161|68:114|68:114|113:94|113:94|161:114|161:114|181:161|181:161|161:206|161:206|113:226|113:226|68:206|68:206|48:161|48:161|68:114|68:114|113:94|113:94|161:114|161:114|181:161|181:161|161:206|161:206|113:226|113:226|68:206|68:206|48:161|48:161|68:114|68:114|113:94|113:94|161:114|161:114|181:161|181:161|161:206|161:206|113:226|113:226|68:206|68:206|48:161|48:161|68:114|68:114|113:94|113:94|161:114|161:114|181:161|181:161|161:206|161:206|113:226|113:226|68:206|68:206|48:161|48:161|68:114|68:114|113:94|113:94|161:114|161:114|181:161|181:161|161:206|161:206|113:226|113:226|68:206|68:206|48:161|48:161|68:114|68:114|113:94|113:94,1,25728.0009814453
409,179,127887,1,0,0:0:0:0:
136,316,128111,2,0,P|243:299|381:43,1,402.000015335084
314,32,128447,2,0,P|366:207|217:363,1,402.000015335084
37,271,128783,6,0,P|49:161|118:90,1,201.000007667542
267,90,129007,2,0,P|255:200|186:271,1,201.000007667542
37,271,129231,1,0,0:0:0:0:
37,271,129455,6,0,B|149:225|216:132|216:132|252:80|233:23|233:23|273:66|316:52,1,402.000015335084
317,137,129790,1,0,0:0:0:0:
435,86,129902,2,0,P|434:245|318:137,1,402.000015335084
317,137,130238,1,0,0:0:0:0:
317,137,130350,6,0,P|215:97|136:30,1,201.000007667542
6,257,130574,2,0,P|108:216|187:149,1,201.000007667542
433,245,130798,1,0,0:0:0:0:
253,33,131022,1,0,0:0:0:0:
202,328,131246,6,0,B|126:220|120:57|120:57|102:123|43:160,1,402.000015335084
320,203,131693,2,0,B|289:216|202:153|307:35|433:83|442:187|392:251|187:363,1,402.000015335084
144,315,132029,6,0,B|137:251|137:251|-12:218|-12:218|101:26,1,402.000015335084
429,32,132365,2,0,B|430:73|430:73|349:233,1,201.000007667542
209,241,132589,2,0,B|208:200|208:200|289:40,1,201.000007667542
433,304,132813,1,0,0:0:0:0:
433,304,132925,1,0,0:0:0:0:
433,304,133037,6,0,P|241:274|34:346,1,402.000015335084
42,245,133373,1,0,0:0:0:0:
42,245,133484,2,0,P|230:181|427:211,1,402.000015335084
433,304,133820,1,0,0:0:0:0:
350,357,133932,6,0,P|318:241|357:97,1,201.000007667542
162,27,134156,2,0,P|194:143|155:287,1,201.000007667542
254,381,134380,2,0,P|285:265|390:160,1,201.000007667542
257,2,134604,2,0,P|226:118|121:223,1,201.000007667542
56,313,134828,6,0,B|119:216|119:216|158:280|158:280|151:329|73:347,1,268
56,313,135164,1,0,0:0:0:0:
60,231,135276,6,0,B|154:85|154:85|213:181|213:181|202:255|85:282,1,402.000015335084
139,264,135499,2,0,P|274:237|389:163,1,201.000007667542
425,346,135723,6,0,P|189:224|16:243,1,402.000015335084
429,111,136059,1,0,0:0:0:0:
429,111,136171,2,0,B|201:174|145:48|145:48|203:33|264:76,1,402.000015335084
371,202,136507,1,0,0:0:0:0:
371,202,136619,6,0,B|270:344|270:344|202:362,1,201.000007667542
141,182,136843,2,0,B|242:40|242:40|310:22,1,201.000007667542
397,334,137067,6,0,P|160:264|40:62,1,402.000015335084
68,52,137290,1,0,0:0:0:0:
162,128,137402,1,0,0:0:0:0:
191,249,137514,6,0,P|49:341|98:177,1,402.000015335084
451,187,137962,2,0,P|448:349|321:249,1,402.000015335084
371,182,138298,1,0,0:0:0:0:
451,187,138410,6,0,P|233:349|57:129,1,603.000023002625
92,47,138858,6,0,B|160:140|144:284|144:284|339:190|433:236|433:236|475:136|458:88,1,603.000023002625
432,15,139305,6,0,B|422:166|282:200|282:200|262:140|262:140|224:67|114:152|114:152|83:4,1,603.000023002625
178,303,139753,2,0,P|251:144|465:5,1,402.000015335084
510,200,140089,1,0,0:0:0:0:
363,349,140201,6,0,B|236:185|289:66|289:66|141:53|122:152|122:152|266:188,2,603.000023002625
363,349,140984,1,0,0:0:0:0:
451,64,141208,1,0,0:0:0:0:
38,215,141432,1,0,0:0:0:0:
218,126,141544,1,0,0:0:0:0:
415,161,141656,1,0,0:0:0:0:
405,185,141768,1,0,0:0:0:0:
227,154,141880,1,0,0:0:0:0:
66,234,141992,6,0,B|114:254|114:254|134:301|134:301|114:346|114:346|66:366|66:366|21:346|21:346|1:301|1:301|21:254|21:254|66:234|66:234|114:254|114:254|134:301|134:301|114:346|114:346|66:366|66:366|21:346|21:346|1:301|1:301|21:254|21:254|66:234|66:234|114:254|114:254|134:301|134:301|114:346|114:346|66:366|66:366|21:346|21:346|1:301|1:301|21:254|21:254|66:234|66:234|114:254|114:254|134:301|134:301|114:346|114:346|66:366|66:366|21:346|21:346|1:301|1:301|21:254|21:254|66:234|66:234|114:254|114:254|134:301|134:301|114:346|114:346|66:366|66:366|21:346|21:346|1:301|1:301|21:254|21:254|66:234|66:234|114:254|114:254|134:301|134:301|114:346|114:346|66:366|66:366|21:346|21:346|1:301|1:301|21:254|21:254|66:234|66:234|114:254|114:254|134:301|134:301|114:346|114:346|66:366|66:366|21:346|21:346|1:301|1:301|21:254|21:254|66:234|66:234|114:254|114:254|134:301|134:301|114:346|114:346|66:366|66:366|21:346|21:346|1:301|1:301|21:254|21:254|66:234|66:234|114:254|114:254|134:301|134:301|114:346|114:346|66:366|66:366|21:346|21:346|1:301|1:301|21:254|21:254|66:234|66:234|114:254|114:254|134:301|134:301|114:346|114:346|66:366|66:366|21:346|21:346|1:301|1:301|21:254|21:254|66:234|66:234|114:254|114:254|134:301|134:301|114:346|114:346|66:366|66:366|21:346|21:346|1:301|1:301|21:254|21:254|66:234|66:234|114:254|114:254|134:301|134:301|114:346|114:346|66:366|66:366|21:346|21:346|1:301|1:301|21:254|21:254|66:234|66:234|114:254|114:254|134:301|134:301|114:346|114:346|66:366|66:366|21:346|21:346|1:301|1:301|21:254|21:254|66:234|66:234|114:254|114:254|134:301|134:301|114:346|114:346|66:366|66:366|21:346|21:346|1:301|1:301|21:254|21:254|66:234|66:234|114:254|114:254|134:301|134:301|114:346|114:346|66:366|66:366|21:346|21:346|1:301|1:301|21:254|21:254|66:234|66:234|114:254|114:254|134:301|134:301|114:346|114:346|66:366|66:366|21:346|21:346|1:301|1:301|21:254|21:254|66:234|66:234|114:254|114:254|134:301|134:301|114:346|114:346|66:366|66:366|21:346|21:346|1:301|1:301|21:254|21:254|66:234|66:234|114:254|114:254|134:301|134:301|114:346|114:346|66:366|66:366|21:346|21:346|1:301|1:301|21:254|21:254|66:234|66:234|114:254|114:254|134:301|134:301|114:346|114:346|66:366|66:366|21:346|21:346|1:301|1:301|21:254|21:254|66:234|66:234|114:254|114:254|134:301|134:301|114:346|114:346|66:366|66:366|21:346|21:346|1:301|1:301|21:254|21:254|66:234|66:234|114:254|114:254|134:301|134:301|114:346|114:346|66:366|66:366|21:346|21:346|1:301|1:301|21:254|21:254|66:234|66:234|114:254|114:254|134:301|134:301|114:346|114:346|66:366|66:366|21:346|21:346|1:301|1:301|21:254|21:254|66:234|66:234|114:254|114:254|134:301|134:301|114:346|114:346|66:366|66:366|21:346|21:346|1:301|1:301|21:254|21:254|66:234|66:234|114:254|114:254|134:301|134:301|114:346|114:346|66:366|66:366|21:346|21:346|1:301|1:301|21:254|21:254|66:234|66:234|114:254|114:254|134:301|134:301|114:346|114:346|66:366|66:366|21:346|21:346|1:301|1:301|21:254|21:254|66:234|66:234|114:254|114:254|134:301|134:301|114:346|114:346|66:366|66:366|21:346|21:346|1:301|1:301|21:254|21:254|66:234|66:234|114:254|114:254|134:301|134:301|114:346|114:346|66:366|66:366|21:346|21:346|1:301|1:301|21:254|21:254|66:234|66:234|114:254|114:254|134:301|134:301|114:346|114:346|66:366|66:366|21:346|21:346|1:301|1:301|21:254|21:254|66:234|66:234|114:254|114:254|134:301|134:301|114:346|114:346|66:366|66:366|21:346|21:346|1:301|1:301|21:254|21:254|66:234|66:234|114:254|114:254|134:301|134:301|114:346|114:346|66:366|66:366|21:346|21:346|1:301|1:301|21:254|21:254|66:234|66:234|114:254|114:254|134:301|134:301|114:346|114:346|66:366|66:366|21:346|21:346|1:301|1:301|21:254|21:254|66:234|66:234|114:254|114:254|134:301|134:301|114:346|114:346|66:366|66:366|21:346|21:346|1:301|1:301|21:254|21:254|66:234|66:234|114:254|114:254|134:301|134:301|114:346|114:346|66:366|66:366|21:346|21:346|1:301|1:301|21:254|21:254|66:234|66:234|114:254|114:254|134:301|134:301|114:346|114:346|66:366|66:366|21:346|21:346|1:301|1:301|21:254|21:254|66:234|66:234|114:254|114:254|134:301|134:301|114:346|114:346|66:366|66:366|21:346|21:346|1:301|1:301|21:254|21:254|66:234|66:234|114:254|114:254|134:301|134:301|114:346|114:346|66:366|66:366|21:346|21:346|1:301|1:301|21:254|21:254|66:234|66:234|114:254|114:254|134:301|134:301|114:346|114:346|66:366|66:366|21:346|21:346|1:301|1:301|21:254|21:254|66:234|66:234|114:254|114:254|134:301|134:301|114:346|114:346|66:366|66:366|21:346|21:346|1:301|1:301|21:254|21:254|66:234|66:234|114:254|114:254|134:301|134:301|114:346|114:346|66:366|66:366|21:346|21:346|1:301|1:301|21:254|21:254|66:234|66:234|114:254|114:254|134:301|134:301|114:346|114:346|66:366|66:366|21:346|21:346|1:301|1:301|21:254|21:254|66:234|66:234|114:254|114:254|134:301|134:301|114:346|114:346|66:366|66:366|21:346|21:346|1:301|1:301|21:254|21:254|66:234|66:234|114:254|114:254|134:301|134:301|114:346|114:346|66:366|66:366|21:346|21:346|1:301|1:301|21:254|21:254|66:234|66:234|114:254|114:254|134:301|134:301|114:346|114:346|66:366|66:366|21:346|21:346|1:301|1:301|21:254|21:254|66:234|66:234|114:254|114:254|134:301|134:301|114:346|114:346|66:366|66:366|21:346|21:346|1:301|1:301|21:254|21:254|66:234|66:234|114:254|114:254|134:301|134:301|114:346|114:346|66:366|66:366|21:346|21:346|1:301|1:301|21:254|21:254|66:234|66:234|114:254|114:254|134:301|134:301|114:346|114:346|66:366|66:366|21:346|21:346|1:301|1:301|21:254|21:254|66:234|66:234|114:254|114:254|134:301|134:301|114:346|114:346|66:366|66:366|21:346|21:346|1:301|1:301|21:254|21:254|66:234|66:234|114:254|114:254|134:301|134:301|114:346|114:346|66:366|66:366|21:346|21:346|1:301|1:301|21:254|21:254|66:234|66:234|114:254|114:254|134:301|134:301|114:346|114:346|66:366|66:366|21:346|21:346|1:301|1:301|21:254|21:254|66:234|66:234|114:254|114:254|134:301|134:301|114:346|114:346|66:366|66:366|21:346|21:346|1:301|1:301|21:254|21:254|66:234|66:234|114:254|114:254|134:301|134:301|114:346|114:346|66:366|66:366|21:346|21:346|1:301|1:301|21:254|21:254|66:234|66:234|114:254|114:254|134:301|134:301|114:346|114:346|66:366|66:366|21:346|21:346|1:301|1:301|21:254|21:254|66:234|66:234|114:254|114:254|134:301|134:301|114:346|114:346|66:366|66:366|21:346|21:346|1:301|1:301|21:254|21:254|66:234|66:234|114:254|114:254|134:301|134:301|114:346|114:346|66:366|66:366|21:346|21:346|1:301|1:301|21:254|21:254|66:234|66:234|114:254|114:254|134:301|134:301|114:346|114:346|66:366|66:366|21:346|21:346|1:301|1:301|21:254|21:254|66:234|66:234|114:254|114:254|134:301|134:301|114:346|114:346|66:366|66:366|21:346|21:346|1:301|1:301|21:254|21:254|66:234|66:234|114:254|114:254|134:301|134:301|114:346|114:346|66:366|66:366|21:346|21:346|1:301|1:301|21:254|21:254|66:234|66:234|114:254|114:254|134:301|134:301|114:346|114:346|66:366|66:366|21:346|21:346|1:301|1:301|21:254|21:254|66:234|66:234|114:254|114:254|134:301|134:301|114:346|114:346|66:366|66:366|21:346|21:346|1:301|1:301|21:254|21:254|66:234|66:234|114:254|114:254|134:301|134:301|114:346|114:346|66:366|66:366|21:346|21:346|1:301|1:301|21:254|21:254|66:234|66:234|114:254|114:254|134:301|134:301|114:346|114:346|66:366|66:366|21:346|21:346|1:301|1:301|21:254|21:254|66:234|66:234|114:254|114:254|134:301|134:301|114:346|114:346|66:366|66:366|21:346|21:346|1:301|1:301|21:254|21:254|66:234|66:234|114:254|114:254|134:301|134:301|114:346|114:346|66:366|66:366|21:346|21:346|1:301|1:301|21:254|21:254|66:234|66:234|114:254|114:254|134:301|134:301|114:346|114:346|66:366|66:366|21:346|21:346|1:301|1:301|21:254|21:254|66:234|66:234,1,25728.0009814453
329,152,142216,2,0,B|281:132|281:132|261:85|261:85|281:40|281:40|329:20|329:20|374:40|374:40|394:85|394:85|374:132|374:132|329:152|329:152|281:132|281:132|261:85|261:85|281:40|281:40|329:20|329:20|374:40|374:40|394:85|394:85|374:132|374:132|329:152|329:152|281:132|281:132|261:85|261:85|281:40|281:40|329:20|329:20|374:40|374:40|394:85|394:85|374:132|374:132|329:152|329:152|281:132|281:132|261:85|261:85|281:40|281:40|329:20|329:20|374:40|374:40|394:85|394:85|374:132|374:132|329:152|329:152|281:132|281:132|261:85|261:85|281:40|281:40|329:20|329:20|374:40|374:40|394:85|394:85|374:132|374:132|329:152|329:152|281:132|281:132|261:85|261:85|281:40|281:40|329:20|329:20|374:40|374:40|394:85|394:85|374:132|374:132|329:152|329:152|281:132|281:132|261:85|261:85|281:40|281:40|329:20|329:20|374:40|374:40|394:85|394:85|374:132|374:132|329:152|329:152|281:132|281:132|261:85|261:85|281:40|281:40|329:20|329:20|374:40|374:40|394:85|394:85|374:132|374:132|329:152|329:152|281:132|281:132|261:85|261:85|281:40|281:40|329:20|329:20|374:40|374:40|394:85|394:85|374:132|374:132|329:152|329:152|281:132|281:132|261:85|261:85|281:40|281:40|329:20|329:20|374:40|374:40|394:85|394:85|374:132|374:132|329:152|329:152|281:132|281:132|261:85|261:85|281:40|281:40|329:20|329:20|374:40|374:40|394:85|394:85|374:132|374:132|329:152|329:152|281:132|281:132|261:85|261:85|281:40|281:40|329:20|329:20|374:40|374:40|394:85|394:85|374:132|374:132|329:152|329:152|281:132|281:132|261:85|261:85|281:40|281:40|329:20|329:20|374:40|374:40|394:85|394:85|374:132|374:132|329:152|329:152|281:132|281:132|261:85|261:85|281:40|281:40|329:20|329:20|374:40|374:40|394:85|394:85|374:132|374:132|329:152|329:152|281:132|281:132|261:85|261:85|281:40|281:40|329:20|329:20|374:40|374:40|394:85|394:85|374:132|374:132|329:152|329:152|281:132|281:132|261:85|261:85|281:40|281:40|329:20|329:20|374:40|374:40|394:85|394:85|374:132|374:132|329:152|329:152|281:132|281:132|261:85|261:85|281:40|281:40|329:20|329:20|374:40|374:40|394:85|394:85|374:132|374:132|329:152|329:152|281:132|281:132|261:85|261:85|281:40|281:40|329:20|329:20|374:40|374:40|394:85|394:85|374:132|374:132|329:152|329:152|281:132|281:132|261:85|261:85|281:40|281:40|329:20|329:20|374:40|374:40|394:85|394:85|374:132|374:132|329:152|329:152|281:132|281:132|261:85|261:85|281:40|281:40|329:20|329:20|374:40|374:40|394:85|394:85|374:132|374:132|329:152|329:152|281:132|281:132|261:85|261:85|281:40|281:40|329:20|329:20|374:40|374:40|394:85|394:85|374:132|374:132|329:152|329:152|281:132|281:132|261:85|261:85|281:40|281:40|329:20|329:20|374:40|374:40|394:85|394:85|374:132|374:132|329:152|329:152|281:132|281:132|261:85|261:85|281:40|281:40|329:20|329:20|374:40|374:40|394:85|394:85|374:132|374:132|329:152|329:152|281:132|281:132|261:85|261:85|281:40|281:40|329:20|329:20|374:40|374:40|394:85|394:85|374:132|374:132|329:152|329:152|281:132|281:132|261:85|261:85|281:40|281:40|329:20|329:20|374:40|374:40|394:85|394:85|374:132|374:132|329:152|329:152|281:132|281:132|261:85|261:85|281:40|281:40|329:20|329:20|374:40|374:40|394:85|394:85|374:132|374:132|329:152|329:152|281:132|281:132|261:85|261:85|281:40|281:40|329:20|329:20|374:40|374:40|394:85|394:85|374:132|374:132|329:152|329:152|281:132|281:132|261:85|261:85|281:40|281:40|329:20|329:20|374:40|374:40|394:85|394:85|374:132|374:132|329:152|329:152|281:132|281:132|261:85|261:85|281:40|281:40|329:20|329:20|374:40|374:40|394:85|394:85|374:132|374:132|329:152|329:152|281:132|281:132|261:85|261:85|281:40|281:40|329:20|329:20|374:40|374:40|394:85|394:85|374:132|374:132|329:152|329:152|281:132|281:132|261:85|261:85|281:40|281:40|329:20|329:20|374:40|374:40|394:85|394:85|374:132|374:132|329:152|329:152|281:132|281:132|261:85|261:85|281:40|281:40|329:20|329:20|374:40|374:40|394:85|394:85|374:132|374:132|329:152|329:152|281:132|281:132|261:85|261:85|281:40|281:40|329:20|329:20|374:40|374:40|394:85|394:85|374:132|374:132|329:152|329:152|281:132|281:132|261:85|261:85|281:40|281:40|329:20|329:20|374:40|374:40|394:85|394:85|374:132|374:132|329:152|329:152|281:132|281:132|261:85|261:85|281:40|281:40|329:20|329:20|374:40|374:40|394:85|394:85|374:132|374:132|329:152|329:152|281:132|281:132|261:85|261:85|281:40|281:40|329:20|329:20|374:40|374:40|394:85|394:85|374:132|374:132|329:152|329:152|281:132|281:132|261:85|261:85|281:40|281:40|329:20|329:20|374:40|374:40|394:85|394:85|374:132|374:132|329:152|329:152|281:132|281:132|261:85|261:85|281:40|281:40|329:20|329:20|374:40|374:40|394:85|394:85|374:132|374:132|329:152|329:152|281:132|281:132|261:85|261:85|281:40|281:40|329:20|329:20|374:40|374:40|394:85|394:85|374:132|374:132|329:152|329:152|281:132|281:132|261:85|261:85|281:40|281:40|329:20|329:20|374:40|374:40|394:85|394:85|374:132|374:132|329:152|329:152|281:132|281:132|261:85|261:85|281:40|281:40|329:20|329:20|374:40|374:40|394:85|394:85|374:132|374:132|329:152|329:152|281:132|281:132|261:85|261:85|281:40|281:40|329:20|329:20|374:40|374:40|394:85|394:85|374:132|374:132|329:152|329:152|281:132|281:132|261:85|261:85|281:40|281:40|329:20|329:20|374:40|374:40|394:85|394:85|374:132|374:132|329:152|329:152|281:132|281:132|261:85|261:85|281:40|281:40|329:20|329:20|374:40|374:40|394:85|394:85|374:132|374:132|329:152|329:152|281:132|281:132|261:85|261:85|281:40|281:40|329:20|329:20|374:40|374:40|394:85|394:85|374:132|374:132|329:152|329:152|281:132|281:132|261:85|261:85|281:40|281:40|329:20|329:20|374:40|374:40|394:85|394:85|374:132|374:132|329:152|329:152|281:132|281:132|261:85|261:85|281:40|281:40|329:20|329:20|374:40|374:40|394:85|394:85|374:132|374:132|329:152|329:152|281:132|281:132|261:85|261:85|281:40|281:40|329:20|329:20|374:40|374:40|394:85|394:85|374:132|374:132|329:152|329:152|281:132|281:132|261:85|261:85|281:40|281:40|329:20|329:20|374:40|374:40|394:85|394:85|374:132|374:132|329:152|329:152|281:132|281:132|261:85|261:85|281:40|281:40|329:20|329:20|374:40|374:40|394:85|394:85|374:132|374:132|329:152|329:152|281:132|281:132|261:85|261:85|281:40|281:40|329:20|329:20|374:40|374:40|394:85|394:85|374:132|374:132|329:152|329:152|281:132|281:132|261:85|261:85|281:40|281:40|329:20|329:20|374:40|374:40|394:85|394:85|374:132|374:132|329:152|329:152|281:132|281:132|261:85|261:85|281:40|281:40|329:20|329:20|374:40|374:40|394:85|394:85|374:132|374:132|329:152|329:152|281:132|281:132|261:85|261:85|281:40|281:40|329:20|329:20|374:40|374:40|394:85|394:85|374:132|374:132|329:152|329:152|281:132|281:132|261:85|261:85|281:40|281:40|329:20|329:20|374:40|374:40|394:85|394:85|374:132|374:132|329:152|329:152|281:132|281:132|261:85|261:85|281:40|281:40|329:20|329:20|374:40|374:40|394:85|394:85|374:132|374:132|329:152|329:152|281:132|281:132|261:85|261:85|281:40|281:40|329:20|329:20|374:40|374:40|394:85|394:85|374:132|374:132|329:152|329:152|281:132|281:132|261:85|261:85|281:40|281:40|329:20|329:20|374:40|374:40|394:85|394:85|374:132|374:132|329:152|329:152|281:132|281:132|261:85|261:85|281:40|281:40|329:20|329:20|374:40|374:40|394:85|394:85|374:132|374:132|329:152|329:152|281:132|281:132|261:85|261:85|281:40|281:40|329:20|329:20|374:40|374:40|394:85|394:85|374:132|374:132|329:152|329:152|281:132|281:132|261:85|261:85|281:40|281:40|329:20|329:20|374:40|374:40|394:85|394:85|374:132|374:132|329:152|329:152|281:132|281:132|261:85|261:85|281:40|281:40|329:20|329:20|374:40|374:40|394:85|394:85|374:132|374:132|329:152|329:152|281:132|281:132|261:85|261:85|281:40|281:40|329:20|329:20|374:40|374:40|394:85|394:85|374:132|374:132|329:152|329:152,1,25326.0009661103
87,51,142440,2,0,P|205:175|92:366,1,402.000015335084
421,305,142776,6,0,P|177:326|22:117,1,402.000015335084
168,37,143111,2,0,B|227:116|217:215|217:215|194:187,1,201.000007667542
3,304,143335,2,0,B|41:213|132:172|132:172|119:206,1,201.000007667542
422,214,143559,1,0,0:0:0:0:
422,214,143783,6,0,B|306:270|190:229|190:229|209:119|163:19|163:19|133:130|68:169,2,603.000023002625
344,144,144567,1,0,0:0:0:0:
344,144,144678,6,0,P|192:102|139:61,1,201.000007667542
304,280,144902,2,0,P|346:128|387:75,1,201.000007667542
168,240,145126,2,0,P|320:282|373:323,1,201.000007667542
208,104,145350,2,0,P|166:256|125:309,1,201.000007667542
46,352,145574,6,0,B|100:238|79:35|79:35|110:83|164:92,1,402.000015335084
159,168,145910,1,0,0:0:0:0:
159,168,146022,2,0,B|201:195|201:195|366:140,1,201.000007667542
282,65,146246,1,0,0:0:0:0:
179,72,146358,6,0,B|201:158|151:205|151:205|214:266|288:249|288:249|329:309|277:384,1,402.000015335084
139,332,146693,2,0,B|20:256|41:180|41:180|91:170,1,201.000007667542
282,65,146917,2,0,B|275:206|199:225|199:225|165:187,1,201.000007667542
32,40,147141,1,0,0:0:0:0:
32,40,147365,6,0,P|318:90|472:80,1,402.000015335084
507,147,147701,1,0,0:0:0:0:
484,246,147813,2,0,P|246:146|134:15,1,402.000015335084
101,162,148149,1,0,0:0:0:0:
101,162,148261,6,0,B|245:84|245:84|272:22,1,201.000007667542
484,246,148484,2,0,B|340:168|340:168|313:106,1,201.000007667542
423,41,148708,2,0,L|348:245,1,201.000007667542
170,350,148932,2,0,L|100:161,1,201.000007667542
89,69,149156,6,0,P|140:242|11:191,1,402.000015335084
100,161,149492,1,0,0:0:0:0:
100,161,149604,2,0,B|191:167|227:229|227:229|228:175|344:115|344:115|455:190,1,402.000015335084
411,160,149828,1,0,0:0:0:0:
411,160,149940,1,0,0:0:0:0:
497,198,150052,6,0,P|334:206|423:69,1,402.000015335084
411,160,150387,1,0,0:0:0:0:
346,238,150499,2,0,B|181:211|181:211|107:235,1,201.000007667542
22,46,150723,2,0,P|129:101|267:89,1,201.000007667542
334,339,150947,6,0,B|207:296|242:148|346:144|346:144|278:52|152:60,1,402.000015335084
255,73,151283,1,0,0:0:0:0:
236,343,151395,6,0,B|334:304|165:227|349:221|349:221|283:174|307:117|307:117|251:69,1,402.000015335084
255,73,151731,1,0,0:0:0:0:
133,282,151843,6,0,B|179:245|152:210|152:210|226:172|246:203|246:203|218:222|218:222|196:121|232:38|257:75,1,402.000015335084
255,73,152178,1,0,0:0:0:0:
78,149,152290,6,0,B|74:146|97:155|97:155|111:114|110:84|110:84|140:96|207:93|207:93|174:75|174:75|195:56|186:101|186:101|225:34|225:34|255:74,1,402.000015335084
255,73,152626,1,0,0:0:0:0:
272,223,152738,6,0,P|362:330|433:154,2,402.000015335084
181,41,153410,2,0,P|128:139|137:242,1,201.000007667542
43,325,153634,6,0,P|189:137|382:104,1,402.000015335084
417,196,153970,1,0,0:0:0:0:
390,313,154081,2,0,P|183:211|102:19,1,402.000015335084
449,251,154529,5,2,0:0:0:0:
63,133,154753,1,0,0:0:0:0:
449,251,154977,1,0,0:0:0:0:
256,192,155089,1,0,0:0:0:0:
63,133,155201,1,0,0:0:0:0:
378,62,155425,5,0,0:0:0:0:
256,89,155537,2,0,B|200:122|138:112|138:112|175:211|42:308|42:308|133:286|186:343,1,402.000015335084
349,366,155873,1,0,0:0:0:0:
256,192,155984,1,0,0:0:0:0:
95,61,156096,2,0,P|7:23|-92:8,1,134
67,234,156320,5,0,0:0:0:0:
67,234,156432,1,0,0:0:0:0:
67,234,156544,1,0,0:0:0:0:
67,234,156656,1,0,0:0:0:0:
66,234,156768,2,0,B|21:254|21:254|1:301|1:301|21:346|21:346|66:366|66:366|114:346|114:346|134:300|134:300|114:254|114:254|66:234|66:234|30:221,1,402.000015335084
329,152,157216,5,0,0:0:0:0:
329,152,157328,1,0,0:0:0:0:
329,152,157440,1,0,0:0:0:0:
329,152,157552,1,0,0:0:0:0:
329,152,157664,2,0,B|374:132|374:132|394:85|394:85|374:40|374:40|329:20|329:20|281:40|281:40|261:86|261:86|281:132|281:132|329:152|329:152|365:165,1,402.000015335084
113,84,158111,5,0,0:0:0:0:
181,150,158223,1,0,0:0:0:0:
48,151,158335,1,0,0:0:0:0:
113,216,158447,1,0,0:0:0:0:
113,84,158559,2,0,B|68:104|68:104|48:151|48:151|68:196|68:196|113:216|113:216|161:196|161:196|181:150|181:150|161:104|161:104|113:84|113:84|77:71,1,402.000015335084
323,308,159007,5,0,0:0:0:0:
390,192,159119,1,0,0:0:0:0:
323,75,159231,1,0,0:0:0:0:
189,75,159343,1,0,0:0:0:0:
122,191,159455,2,0,P|70:124|78:37,1,134
446,77,159678,2,0,P|434:142|390:191,1,134
189,308,159902,6,0,P|304:319|383:152,1,301.500011501313
189,75,160798,6,0,P|122:170|227:321,1,301.500011501313
389,192,161693,6,0,P|341:86|157:102,1,301.500011501313
173,85,162141,1,0,0:0:0:0:
152,106,162365,1,0,0:0:0:0:
173,85,162589,6,0,P|315:69|389:192,1,301.500011501313
205,314,162925,6,0,P|120:200|189:75,1,301.500011501313
388,173,163261,6,0,P|331:304|189:308,1,301.500011501313
234,336,163708,1,0,0:0:0:0:
364,296,163932,1,0,0:0:0:0:
495,256,164156,1,0,0:0:0:0:
234,336,164380,6,0,L|0:112,1,301.500011501313
364,296,164716,6,0,L|130:72,1,301.500011501313
495,256,165052,6,0,L|278:48,1,301.500011501313
16,127,165499,5,0,0:0:0:0:
146,87,165723,1,0,0:0:0:0:
278,48,165947,1,0,0:0:0:0:
101,164,166171,6,0,P|302:192|439:122,1,301.500011501313
27,214,166507,2,0,P|97:291|325:341,1,301.500011501313
350,29,166843,2,0,P|292:82|254:175,1,150.750005750656
244,352,167067,6,0,B|294:320|294:320|416:317|416:317|491:245|507:113,1,402
124,293,167514,2,0,B|244:352|244:352|294:320|294:320|416:317|416:317|452:285|471:233,1,361.799988958741
506,120,167962,2,0,B|487:251|416:317|416:317|338:322,1,214.4
124,293,168298,2,0,B|244:352|244:352|294:320|294:320|416:317|416:317|486:252|506:120|506:120|458:190|394:194,1,643.2
295,198,168746,1,0,0:0:0:0:
105,100,168858,5,0,0:0:0:0:
105,100,169081,1,0,0:0:0:0:
113,376,169305,1,0,0:0:0:0:
392,72,169529,1,0,0:0:0:0:
105,100,169753,2,0,B|135:189|45:310|45:310|151:274|244:373,1,402.000015335084
392,72,170089,2,0,P|199:165|-20:165,1,402.000015335084
113,376,170425,2,0,P|196:268|197:3,1,402.000015335084
196,368,170873,5,0,0:0:0:0:
256,68,171096,1,0,0:0:0:0:
377,294,171320,1,0,0:0:0:0:
196,368,171544,6,0,P|300:223|312:-1,1,402.000015335084
256,68,171880,2,0,B|347:75|471:19|471:19|480:114|361:199,1,402.000015335084
377,294,172216,2,0,B|409:356|409:356|479:321|516:183|516:183|383:172,1,402.000015335084
393,172,172664,5,0,0:0:0:0:
256,192,172887,1,0,0:0:0:0:
118,211,173111,1,0,0:0:0:0:
393,172,173335,5,0,0:0:0:0:
118,211,173447,1,0,0:0:0:0:
455,352,173671,2,0,P|489:205|429:72,1,268
57,32,174007,2,0,P|23:179|83:312,1,268
61,285,174231,5,0,0:0:0:0:
450,98,174455,1,0,0:0:0:0:
160,124,174678,1,0,0:0:0:0:
339,235,174790,1,0,0:0:0:0:
303,39,175014,6,0,L|-15:112,1,268
6,228,175350,6,0,L|268:169,1,268
449,244,175574,6,0,L|131:317,1,268
317,274,175798,1,0,0:0:0:0:
188,304,176022,6,0,B|129:224|129:224|143:124|143:124|224:65|224:65|324:79|324:79|383:160|383:160|369:260|369:260|288:319|288:319|188:304|188:304|129:224|129:224|143:124|143:124|224:65|224:65|324:79|324:79|383:160|383:160|369:260|369:260|288:319|288:319|188:304|188:304|129:224|129:224|143:124|143:124|224:65|224:65|324:79|324:79|383:160|383:160|369:260|369:260|288:319|288:319|188:304|188:304|129:224|129:224|143:124|143:124|224:65|224:65|324:79|324:79|383:160|383:160|369:260|369:260|288:319|288:319|188:304|188:304|135:307,1,3216.00012268067
143,124,176246,1,0,0:0:0:0:
324,79,176470,1,0,0:0:0:0:
369,260,176693,1,0,0:0:0:0:
188,304,176917,5,0,0:0:0:0:
143,124,177141,1,0,0:0:0:0:
324,79,177365,1,0,0:0:0:0:
369,260,177588,1,0,0:0:0:0:
129,223,177812,5,0,0:0:0:0:
224,64,178037,1,0,0:0:0:0:
383,160,178261,1,0,0:0:0:0:
287,319,178484,1,0,0:0:0:0:
188,304,178708,5,0,0:0:0:0:
369,260,178932,1,0,0:0:0:0:
324,79,179155,1,0,0:0:0:0:
143,124,179379,1,0,0:0:0:0:
188,304,179604,6,0,B|288:319|288:319|369:260|369:260|288:319|288:319|188:304|188:304|288:319|288:319|369:260|369:260|383:160|383:160|324:79|324:79|224:65|224:65|143:124|143:124|129:224|129:224|188:304|188:304|288:319|288:319|369:260|369:260|383:160|383:160|369:260|369:260|288:319|288:319|188:304|188:304|288:319|288:319|369:260|369:260|383:160|383:160|324:79|324:79|224:65|224:65|224:65|143:124|143:124|129:224|129:224|200:320,1,2613.00009967804
369,260,179828,1,0,0:0:0:0:
188,304,180052,1,0,0:0:0:0:
368,260,180276,1,0,0:0:0:0:
324,79,180499,5,0,0:0:0:0:
143,124,180723,1,0,0:0:0:0:
188,304,180947,1,0,0:0:0:0:
368,260,181171,1,0,0:0:0:0:
368,260,181395,5,0,0:0:0:0:
188,304,181619,1,0,0:0:0:0:
368,260,181843,1,0,0:0:0:0:
325,81,182067,1,0,0:0:0:0:
143,124,182290,6,0,B|129:224|129:224|191:308,1,201.000007667542
188,305,182514,6,0,B|288:319|288:319|372:257,1,201.000007667542
143,124,182738,6,0,B|224:65|224:65|324:79|324:79|383:160|383:160|369:260|369:260|361:294,1,402.000015335084
369,259,182962,6,0,B|383:160|383:160|324:79|324:79|224:65|224:65|143:124|143:124|129:224|129:224|188:304|188:304|288:319|288:319|369:260|369:260|422:236,1,804.000030670167
369,259,183186,6,0,P|346:151|162:98,1,268
213,85,183634,2,0,P|110:126|90:316,1,268
369,259,184081,5,0,0:0:0:0:
69,268,184193,1,0,0:0:0:0:
369,259,184417,2,0,B|377:198|377:198|483:141|467:9|381:36|373:85,1,268
294,139,184753,2,0,P|211:136|186:93,1,134
317,61,184977,5,0,0:0:0:0:
44,173,185201,1,0,0:0:0:0:
348,316,185425,1,0,0:0:0:0:
348,316,185537,2,0,P|379:240|391:167,1,134
117,32,185761,2,0,L|166:308,1,268
348,316,186096,6,0,P|306:156|77:166,1,268
470,44,186432,1,0,0:0:0:0:
470,44,186544,1,0,0:0:0:0:
445,91,186656,1,0,0:0:0:0:
371,124,186768,1,0,0:0:0:0:
281,67,186880,1,0,0:0:0:0:
148,85,186992,1,0,0:0:0:0:
71,227,187104,1,0,0:0:0:0:
201,362,187216,2,0,L|376:340,1,134
10,358,187552,6,0,L|446:303,1,402.000015335084
367,237,187887,2,0,L|234:253,1,134
193,183,188111,2,0,L|93:195,1,100.500003833771
52,125,188335,2,0,L|126:116,1,75.3750028753282
52,125,188559,5,0,0:0:0:0:
240,311,188783,1,0,0:0:0:0:
237,121,189007,1,0,0:0:0:0:
51,309,189119,1,0,0:0:0:0:
51,309,189343,6,0,B|86:268|86:268|144:247|144:247|136:158|282:169,1,268
126,162,189790,1,0,0:0:0:0:
126,162,189902,1,0,0:0:0:0:
126,162,190014,1,0,0:0:0:0:
85,332,190126,1,0,0:0:0:0:
85,332,190350,6,0,B|53:319|53:319|40:288|40:288|53:258|53:258|85:244|85:244|115:257|115:257|128:288|128:288|115:319|115:319|85:332|85:332|53:319|53:319|40:288|40:288|53:258|53:258|85:244|85:244|115:257|115:257|128:288|128:288|115:319|115:319|85:332|85:332|53:319|53:319|40:288|40:288|53:258|53:258|85:244|85:244|115:257|115:257|128:288|128:288|115:319|115:319|85:332|85:332|53:319|53:319|40:288|40:288|53:258|53:258|85:244|85:244|115:257|115:257|128:288|128:288|115:319|115:319|85:332|85:332|53:319|53:319|40:288|40:288|53:258|53:258|85:244|85:244|115:257|115:257|128:288|128:288|115:319|115:319|85:332|85:332|53:319|53:319|40:288|40:288|53:258|53:258|85:244|85:244|115:257|115:257|128:288|128:288|115:319|115:319|85:332|85:332|53:319|53:319|40:288|40:288|53:258|53:258|85:244|85:244|115:257|115:257|128:288|128:288|115:319|115:319|85:332|85:332|53:319|53:319|40:288|40:288|53:258|53:258|85:244|85:244|115:257|115:257|128:288|128:288|115:319|115:319|85:332|85:332|53:319|53:319|40:288|40:288|53:258|53:258|85:244|85:244|115:257|115:257|128:288|128:288|115:319|115:319|85:332|85:332|53:319|53:319|40:288|40:288|53:258|53:258|85:244|85:244|115:257|115:257|128:288|128:288|115:319|115:319|85:332|85:332|53:319|53:319|40:288|40:288|53:258|53:258|85:244|85:244|115:257|115:257|128:288|128:288|115:319|115:319|85:332|85:332|53:319|53:319|40:288|40:288|53:258|53:258|85:244|85:244|115:257|115:257|128:288|128:288|115:319|115:319|85:332|85:332|53:319|53:319|40:288|40:288|53:258|53:258|85:244|85:244|115:257|115:257|128:288|128:288|115:319|115:319|85:332|85:332|53:319|53:319|40:288|40:288|53:258|53:258|85:244|85:244|115:257|115:257|128:288|128:288|115:319|115:319|85:332|85:332|53:319|53:319|40:288|40:288|53:258|53:258|85:244|85:244|115:257|115:257|128:288|128:288|115:319|115:319|85:332|85:332|53:319|53:319|40:288|40:288|53:258|53:258|85:244|85:244|115:257|115:257|128:288|128:288|115:319|115:319|85:332|85:332|53:319|53:319|40:288|40:288|53:258|53:258|85:244|85:244|115:257|115:257|128:288|128:288|115:319|115:319|85:332|85:332|53:319|53:319|40:288|40:288|53:258|53:258|85:244|85:244|115:257|115:257|128:288|128:288|115:319|115:319|85:332|85:332|53:319|53:319|40:288|40:288|53:258|53:258|85:244|85:244|115:257|115:257|128:288|128:288|115:319|115:319|85:332|85:332|53:319|53:319|40:288|40:288|53:258|53:258|85:244|85:244|115:257|115:257|128:288|128:288|115:319|115:319|85:332|85:332|53:319|53:319|40:288|40:288|53:258|53:258|85:244|85:244|115:257|115:257|128:288|128:288|115:319|115:319|85:332|85:332|53:319|53:319|40:288|40:288|53:258|53:258|85:244|85:244|115:257|115:257|128:288|128:288|115:319|115:319|85:332|85:332|53:319|53:319|40:288|40:288|53:258|53:258|85:244|85:244|115:257|115:257|128:288|128:288|115:319|115:319|85:332|85:332|53:319|53:319|40:288|40:288|53:258|53:258|85:244|85:244|115:257|115:257|128:288|128:288|115:319|115:319|85:332|85:332|53:319|53:319|40:288|40:288|53:258|53:258|85:244|85:244|115:257|115:257|128:288|128:288|115:319|115:319|85:332|85:332|53:319|53:319|40:288|40:288|53:258|53:258|85:244|85:244|115:257|115:257|128:288|128:288|115:319|115:319|85:332|85:332|53:319|53:319|40:288|40:288|53:258|53:258|85:244|85:244|115:257|115:257|128:288|128:288|115:319|115:319|85:332|85:332|53:319|53:319|40:288|40:288|53:258|53:258|85:244|85:244|115:257|115:257|128:288|128:288|115:319|115:319|85:332|85:332|53:319|53:319|40:288|40:288|53:258|53:258|85:244|85:244|115:257|115:257|128:288|128:288|115:319|115:319|85:332|85:332|53:319|53:319|40:288|40:288|53:258|53:258|85:244|85:244|115:257|115:257|128:288|128:288|115:319|115:319|85:332|85:332|53:319|53:319|40:288|40:288|53:258|53:258|85:244|85:244|115:257|115:257|128:288|128:288|115:319|115:319|85:332|85:332|53:319|53:319|40:288|40:288|53:258|53:258|85:244|85:244|115:257|115:257|128:288|128:288|115:319|115:319|85:332|85:332|53:319|53:319|40:288|40:288|53:258|53:258|85:244|85:244|115:257|115:257|128:288|128:288|115:319|115:319|85:332|85:332|53:319|53:319|40:288|40:288|53:258|53:258|85:244|85:244|115:257|115:257|128:288|128:288|115:319|115:319|85:332|85:332|53:319|53:319|40:288|40:288|53:258|53:258|85:244|85:244|115:257|115:257|128:288|128:288|115:319|115:319|85:332|85:332|53:319|53:319|40:288|40:288|53:258|53:258|85:244|85:244|115:257|115:257|128:288|128:288|115:319|115:319|85:332|85:332|53:319|53:319|40:288|40:288|53:258|53:258|85:244|85:244|115:257|115:257|128:288|128:288|115:319|115:319|85:332|85:332|53:319|53:319|40:288|40:288|53:258|53:258|85:244|85:244|115:257|115:257|128:288|128:288|115:319|115:319|85:332|85:332|53:319|53:319|40:288|40:288|53:258|53:258|85:244|85:244|115:257|115:257|128:288|128:288|115:319|115:319|85:332|85:332|53:319|53:319|40:288|40:288|53:258|53:258|85:244|85:244|115:257|115:257|128:288|128:288|115:319|115:319|85:332|85:332|53:319|53:319|40:288|40:288|53:258|53:258|85:244|85:244|115:257|115:257|128:288|128:288|115:319|115:319|85:332|85:332|53:319|53:319|40:288|40:288|53:258|53:258|85:244|85:244|115:257|115:257|128:288|128:288|115:319|115:319|85:332|85:332|53:319|53:319|40:288|40:288|53:258|53:258|85:244|85:244|115:257|115:257|128:288|128:288|115:319|115:319|85:332|85:332|53:319|53:319|40:288|40:288|53:258|53:258|85:244|85:244|115:257|115:257|128:288|128:288|115:319|115:319|85:332|85:332|53:319|53:319|40:288|40:288|53:258|53:258|85:244|85:244|115:257|115:257|128:288|128:288|115:319|115:319|85:332|85:332|53:319|53:319|40:288|40:288|53:258|53:258|85:244|85:244|115:257|115:257|128:288|128:288|115:319|115:319|85:332|85:332|53:319|53:319|40:288|40:288|53:258|53:258|85:244|85:244|115:257|115:257|128:288|128:288|115:319|115:319|85:332|85:332|53:319|53:319|40:288|40:288|53:258|53:258|85:244|85:244|115:257|115:257|128:288|128:288|115:319|115:319|85:332|85:332|53:319|53:319|40:288|40:288|53:258|53:258|85:244|85:244|115:257|115:257|128:288|128:288|115:319|115:319|85:332|85:332|53:319|53:319|40:288|40:288|53:258|53:258|85:244|85:244|115:257|115:257|128:288|128:288|115:319|115:319|85:332|85:332|53:319|53:319|40:288|40:288|53:258|53:258|85:244|85:244|115:257|115:257|128:288|128:288|115:319|115:319|85:332|85:332|53:319|53:319|40:288|40:288|53:258|53:258|85:244|85:244|115:257|115:257|128:288|128:288|115:319|115:319|85:332|85:332|53:319|53:319|40:288|40:288|53:258|53:258|85:244|85:244|115:257|115:257|128:288|128:288|115:319|115:319|85:332|85:332|53:319|53:319|40:288|40:288|53:258|53:258|85:244|85:244|115:257|115:257|128:288|128:288|115:319|115:319|85:332|85:332|53:319|53:319|40:288|40:288|53:258|53:258|85:244|85:244|115:257|115:257|128:288|128:288|115:319|115:319|85:332|85:332|53:319|53:319|40:288|40:288|53:258|53:258|85:244|85:244|115:257|115:257|128:288|128:288|115:319|115:319|85:332|85:332|53:319|53:319|40:288|40:288|53:258|53:258|85:244|85:244|115:257|115:257|128:288|128:288|115:319|115:319|85:332|85:332|53:319|53:319|40:288|40:288|53:258|53:258|85:244|85:244|115:257|115:257|128:288|128:288|115:319|115:319|85:332|85:332|53:319|53:319|40:288|40:288|53:258|53:258|85:244|85:244|115:257|115:257|128:288|128:288|115:319|115:319|85:332|85:332|53:319|53:319|40:288|40:288|53:258|53:258|85:244|85:244|115:257|115:257|128:288|128:288|115:319|115:319|85:332|85:332|53:319|53:319|40:288|40:288|53:258|53:258|85:244|85:244|115:257|115:257|128:288|128:288|115:319|115:319|85:332|85:332|53:319|53:319|40:288|40:288|53:258|53:258|85:244|85:244|115:257|115:257|128:288|128:288|115:319|115:319|85:332|85:332|53:319|53:319|40:288|40:288|53:258|53:258|85:244|85:244|115:257|115:257|128:288|128:288|115:319|115:319|85:332|85:332|53:319|53:319|40:288|40:288|53:258|53:258|85:244|85:244|115:257|115:257|128:288|128:288|115:319|115:319|85:332|85:332|53:319|53:319|40:288|40:288|53:258|53:258|85:244|85:244|115:257|115:257|128:288|128:288|115:319|115:319|85:332|85:332|53:319|53:319|40:288|40:288|53:258|53:258|85:244|85:244|115:257|115:257|128:288|128:288|115:319|115:319|85:332|85:332|53:319|53:319|40:288|40:288|53:258|53:258|85:244|85:244|115:257|115:257|128:288|128:288|115:319|115:319|85:332|85:332|53:319|53:319|40:288|40:288|53:258|53:258|85:244|85:244|115:257|115:257|128:288|128:288|115:319|115:319|85:332|85:332|53:319|53:319|40:288|40:288|53:258|53:258|85:244|85:244|115:257|115:257|128:288|128:288|115:319|115:319|85:332|85:332|53:319|53:319|40:288|40:288|53:258|53:258|85:244|85:244|115:257|115:257|128:288|128:288|115:319|115:319|85:332|85:332|53:319|53:319|40:288|40:288|53:258|53:258|85:244|85:244|115:257|115:257|128:288|128:288|115:319|115:319|85:332|85:332|53:319|53:319|40:288|40:288|53:258|53:258|85:244|85:244|115:257|115:257|128:288|128:288|115:319|115:319|85:332|85:332|53:337,1,19296
126,162,190574,2,0,P|247:79|376:143,1,268
386,162,191022,2,0,P|265:79|136:143,1,268
126,162,191470,2,0,P|247:79|376:143,1,268
386,162,191917,1,0,0:0:0:0:
256,332,192141,6,0,B|224:319|224:319|211:288|211:288|224:258|224:258|256:244|256:244|286:257|286:257|299:288|299:288|286:319|286:319|256:332|256:332|224:319|224:319|211:288|211:288|224:258|224:258|256:244|256:244|286:257|286:257|299:288|299:288|286:319|286:319|256:332|256:332|224:319|224:319|211:288|211:288|224:258|224:258|256:244|256:244|286:257|286:257|299:288|299:288|286:319|286:319|256:332|256:332|224:319|224:319|211:288|211:288|224:258|224:258|256:244|256:244|286:257|286:257|299:288|299:288|286:319|286:319|256:332|256:332|224:319|224:319|211:288|211:288|224:258|224:258|256:244|256:244|286:257|286:257|299:288|299:288|286:319|286:319|256:332|256:332|224:319|224:319|211:288|211:288|224:258|224:258|256:244|256:244|286:257|286:257|299:288|299:288|286:319|286:319|256:332|256:332|224:319|224:319|211:288|211:288|224:258|224:258|256:244|256:244|286:257|286:257|299:288|299:288|286:319|286:319|256:332|256:332|224:319|224:319|211:288|211:288|224:258|224:258|256:244|256:244|286:257|286:257|299:288|299:288|286:319|286:319|256:332|256:332|224:319|224:319|211:288|211:288|224:258|224:258|256:244|256:244|286:257|286:257|299:288|299:288|286:319|286:319|256:332|256:332|224:319|224:319|211:288|211:288|224:258|224:258|256:244|256:244|286:257|286:257|299:288|299:288|286:319|286:319|256:332|256:332|224:319|224:319|211:288|211:288|224:258|224:258|256:244|256:244|286:257|286:257|299:288|299:288|286:319|286:319|256:332|256:332|224:319|224:319|211:288|211:288|224:258|224:258|256:244|256:244|286:257|286:257|299:288|299:288|286:319|286:319|256:332|256:332|224:319|224:319|211:288|211:288|224:258|224:258|256:244|256:244|286:257|286:257|299:288|299:288|286:319|286:319|256:332|256:332|224:319|224:319|211:288|211:288|224:258|224:258|256:244|256:244|286:257|286:257|299:288|299:288|286:319|286:319|256:332|256:332|224:319|224:319|211:288|211:288|224:258|224:258|256:244|256:244|286:257|286:257|299:288|299:288|286:319|286:319|256:332|256:332|224:319|224:319|211:288|211:288|224:258|224:258|256:244|256:244|286:257|286:257|299:288|299:288|286:319|286:319|256:332|256:332|224:319|224:319|211:288|211:288|224:258|224:258|256:244|256:244|286:257|286:257|299:288|299:288|286:319|286:319|256:332|256:332|224:319|224:319|211:288|211:288|224:258|224:258|256:244|256:244|286:257|286:257|299:288|299:288|286:319|286:319|256:332|256:332|224:319|224:319|211:288|211:288|224:258|224:258|256:244|256:244|286:257|286:257|299:288|299:288|286:319|286:319|256:332|256:332|224:319|224:319|211:288|211:288|224:258|224:258|256:244|256:244|286:257|286:257|299:288|299:288|286:319|286:319|256:332|256:332|224:319|224:319|211:288|211:288|224:258|224:258|256:244|256:244|286:257|286:257|299:288|299:288|286:319|286:319|256:332|256:332|224:319|224:319|211:288|211:288|224:258|224:258|256:244|256:244|286:257|286:257|299:288|299:288|286:319|286:319|256:332|256:332|224:319|224:319|211:288|211:288|224:258|224:258|256:244|256:244|286:257|286:257|299:288|299:288|286:319|286:319|256:332|256:332|224:319|224:319|211:288|211:288|224:258|224:258|256:244|256:244|286:257|286:257|299:288|299:288|286:319|286:319|256:332|256:332|224:319|224:319|211:288|211:288|224:258|224:258|256:244|256:244|286:257|286:257|299:288|299:288|286:319|286:319|256:332|256:332|224:319|224:319|211:288|211:288|224:258|224:258|256:244|256:244|286:257|286:257|299:288|299:288|286:319|286:319|256:332|256:332|224:319|224:319|211:288|211:288|224:258|224:258|256:244|256:244|286:257|286:257|299:288|299:288|286:319|286:319|256:332|256:332|224:319|224:319|211:288|211:288|224:258|224:258|256:244|256:244|286:257|286:257|299:288|299:288|286:319|286:319|256:332|256:332|224:319|224:319|211:288|211:288|224:258|224:258|256:244|256:244|286:257|286:257|299:288|299:288|286:319|286:319|256:332|256:332|224:319|224:319|211:288|211:288|224:258|224:258|256:244|256:244|286:257|286:257|299:288|299:288|286:319|286:319|256:332|256:332|224:319|224:319|211:288|211:288|224:258|224:258|256:244|256:244|286:257|286:257|299:288|299:288|286:319|286:319|256:332|256:332|224:319|224:319|211:288|211:288|224:258|224:258|256:244|256:244|286:257|286:257|299:288|299:288|286:319|286:319|256:332|256:332|224:319|224:319|211:288|211:288|224:258|224:258|256:244|256:244|286:257|286:257|299:288|299:288|286:319|286:319|256:332|256:332|224:319|224:319|211:288|211:288|224:258|224:258|256:244|256:244|286:257|286:257|299:288|299:288|286:319|286:319|256:332|256:332|224:319|224:319|211:288|211:288|224:258|224:258|256:244|256:244|286:257|286:257|299:288|299:288|286:319|286:319|256:332|256:332|224:319|224:319|211:288|211:288|224:258|224:258|256:244|256:244|286:257|286:257|299:288|299:288|286:319|286:319|256:332|256:332|224:319|224:319|211:288|211:288|224:258|224:258|256:244|256:244|286:257|286:257|299:288|299:288|286:319|286:319|256:332|256:332|224:319|224:319|211:288|211:288|224:258|224:258|256:244|256:244|286:257|286:257|299:288|299:288|286:319|286:319|256:332|256:332|224:319|224:319|211:288|211:288|224:258|224:258|256:244|256:244|286:257|286:257|299:288|299:288|286:319|286:319|256:332|256:332|224:319|224:319|211:288|211:288|224:258|224:258|256:244|256:244|286:257|286:257|299:288|299:288|286:319|286:319|256:332|256:332|224:319|224:319|211:288|211:288|224:258|224:258|256:244|256:244|286:257|286:257|299:288|299:288|286:319|286:319|256:332|256:332|224:319|224:319|211:288|211:288|224:258|224:258|256:244|256:244|286:257|286:257|299:288|299:288|286:319|286:319|256:332|256:332|224:319|224:319|211:288|211:288|224:258|224:258|256:244|256:244|286:257|286:257|299:288|299:288|286:319|286:319|256:332|256:332|224:319|224:319|211:288|211:288|224:258|224:258|256:244|256:244|286:257|286:257|299:288|299:288|286:319|286:319|256:332|256:332|224:319|224:319|211:288|211:288|224:258|224:258|256:244|256:244|286:257|286:257|299:288|299:288|286:319|286:319|256:332|256:332|224:319|224:319|211:288|211:288|224:258|224:258|256:244|256:244|286:257|286:257|299:288|299:288|286:319|286:319|256:332|256:332|224:319|224:319|211:288|211:288|224:258|224:258|256:244|256:244|286:257|286:257|299:288|299:288|286:319|286:319|256:332|256:332|224:319|224:319|211:288|211:288|224:258|224:258|256:244|256:244|286:257|286:257|299:288|299:288|286:319|286:319|256:332|256:332|224:319|224:319|211:288|211:288|224:258|224:258|256:244|256:244|286:257|286:257|299:288|299:288|286:319|286:319|256:332|256:332|224:319|224:319|211:288|211:288|224:258|224:258|256:244|256:244|286:257|286:257|299:288|299:288|286:319|286:319|256:332|256:332|224:319|224:319|211:288|211:288|224:258|224:258|256:244|256:244|286:257|286:257|299:288|299:288|286:319|286:319|256:332|256:332|224:319|224:319|211:288|211:288|224:258|224:258|256:244|256:244|286:257|286:257|299:288|299:288|286:319|286:319|256:332|256:332|224:319|224:319|211:288|211:288|224:258|224:258|256:244|256:244|286:257|286:257|299:288|299:288|286:319|286:319|256:332|256:332|224:319|224:319|211:288|211:288|224:258|224:258|256:244|256:244|286:257|286:257|299:288|299:288|286:319|286:319|256:332|256:332|224:319|224:319|211:288|211:288|224:258|224:258|256:244|256:244|286:257|286:257|299:288|299:288|286:319|286:319|256:332|256:332|224:319|224:319|211:288|211:288|224:258|224:258|256:244|256:244|286:257|286:257|299:288|299:288|286:319|286:319|256:332|256:332|224:319|224:319|211:288|211:288|224:258|224:258|256:244|256:244|286:257|286:257|299:288|299:288|286:319|286:319|256:332|256:332|224:319|224:319|211:288|211:288|224:258|224:258|256:244|256:244|286:257|286:257|299:288|299:288|286:319|286:319|256:332|256:332|224:319|224:319|211:288|211:288|224:258|224:258|256:244|256:244|286:257|286:257|299:288|299:288|286:319|286:319|256:332|256:332|224:319|224:319|211:288|211:288|224:258|224:258|256:244|256:244|286:257|286:257|299:288|299:288|286:319|286:319|256:332|256:332|224:319|224:319|211:288|211:288|224:258|224:258|256:244|256:244|286:257|286:257|299:288|299:288|286:319|286:319|256:332|256:332|224:319|224:319|211:288|211:288|224:258|224:258|256:244|256:244|286:257|286:257|299:288|299:288|286:319|286:319|256:332|256:332|224:319|224:319|211:288|211:288|224:258|224:258|256:244|256:244|286:257|286:257|299:288|299:288|286:319|286:319|256:332|256:332|224:319|224:319|211:288|211:288|224:258|224:258|256:244|256:244|286:257|286:257|299:288|299:288|286:319|286:319|256:332|256:332|217:339,1,17152
126,162,192365,1,0,0:0:0:0:
256,332,192589,1,0,0:0:0:0:
386,162,192813,1,0,0:0:0:0:
256,332,193037,1,0,0:0:0:0:
126,162,193261,1,0,0:0:0:0:
256,332,193484,1,0,0:0:0:0:
386,162,193708,1,0,0:0:0:0:
426,331,193932,6,0,B|394:318|394:318|381:287|381:287|394:257|394:257|426:243|426:243|456:256|456:256|469:287|469:287|456:318|456:318|426:331|426:331|394:318|394:318|381:287|381:287|394:257|394:257|426:243|426:243|456:256|456:256|469:287|469:287|456:318|456:318|426:331|426:331|394:318|394:318|381:287|381:287|394:257|394:257|426:243|426:243|456:256|456:256|469:287|469:287|456:318|456:318|426:331|426:331|394:318|394:318|381:287|381:287|394:257|394:257|426:243|426:243|456:256|456:256|469:287|469:287|456:318|456:318|426:331|426:331|394:318|394:318|381:287|381:287|394:257|394:257|426:243|426:243|456:256|456:256|469:287|469:287|456:318|456:318|426:331|426:331|394:318|394:318|381:287|381:287|394:257|394:257|426:243|426:243|456:256|456:256|469:287|469:287|456:318|456:318|426:331|426:331|394:318|394:318|381:287|381:287|394:257|394:257|426:243|426:243|456:256|456:256|469:287|469:287|456:318|456:318|426:331|426:331|394:318|394:318|381:287|381:287|394:257|394:257|426:243|426:243|456:256|456:256|469:287|469:287|456:318|456:318|426:331|426:331|394:318|394:318|381:287|381:287|394:257|394:257|426:243|426:243|456:256|456:256|469:287|469:287|456:318|456:318|426:331|426:331|394:318|394:318|381:287|381:287|394:257|394:257|426:243|426:243|456:256|456:256|469:287|469:287|456:318|456:318|426:331|426:331|394:318|394:318|381:287|381:287|394:257|394:257|426:243|426:243|456:256|456:256|469:287|469:287|456:318|456:318|426:331|426:331|394:318|394:318|381:287|381:287|394:257|394:257|426:243|426:243|456:256|456:256|469:287|469:287|456:318|456:318|426:331|426:331|394:318|394:318|381:287|381:287|394:257|394:257|426:243|426:243|456:256|456:256|469:287|469:287|456:318|456:318|426:331|426:331|394:318|394:318|381:287|381:287|394:257|394:257|426:243|426:243|456:256|456:256|469:287|469:287|456:318|456:318|426:331|426:331|394:318|394:318|381:287|381:287|394:257|394:257|426:243|426:243|456:256|456:256|469:287|469:287|456:318|456:318|426:331|426:331|394:318|394:318|381:287|381:287|394:257|394:257|426:243|426:243|456:256|456:256|469:287|469:287|456:318|456:318|426:331|426:331|394:318|394:318|381:287|381:287|394:257|394:257|426:243|426:243|456:256|456:256|469:287|469:287|456:318|456:318|426:331|426:331|394:318|394:318|381:287|381:287|394:257|394:257|426:243|426:243|456:256|456:256|469:287|469:287|456:318|456:318|426:331|426:331|394:318|394:318|381:287|381:287|394:257|394:257|426:243|426:243|456:256|456:256|469:287|469:287|456:318|456:318|426:331|426:331|394:318|394:318|381:287|381:287|394:257|394:257|426:243|426:243|456:256|456:256|469:287|469:287|456:318|456:318|426:331|426:331|394:318|394:318|381:287|381:287|394:257|394:257|426:243|426:243|456:256|456:256|469:287|469:287|456:318|456:318|426:331|426:331|394:318|394:318|381:287|381:287|394:257|394:257|426:243|426:243|456:256|456:256|469:287|469:287|456:318|456:318|426:331|426:331|394:318|394:318|381:287|381:287|394:257|394:257|426:243|426:243|456:256|456:256|469:287|469:287|456:318|456:318|426:331|426:331|394:318|394:318|381:287|381:287|394:257|394:257|426:243|426:243|456:256|456:256|469:287|469:287|456:318|456:318|426:331|426:331|394:318|394:318|381:287|381:287|394:257|394:257|426:243|426:243|456:256|456:256|469:287|469:287|456:318|456:318|426:331|426:331|394:318|394:318|381:287|381:287|394:257|394:257|426:243|426:243|456:256|456:256|469:287|469:287|456:318|456:318|426:331|426:331|394:318|394:318|381:287|381:287|394:257|394:257|426:243|426:243|456:256|456:256|469:287|469:287|456:318|456:318|426:331|426:331|394:318|394:318|381:287|381:287|394:257|394:257|426:243|426:243|456:256|456:256|469:287|469:287|456:318|456:318|426:331|426:331|394:318|394:318|381:287|381:287|394:257|394:257|426:243|426:243|456:256|456:256|469:287|469:287|456:318|456:318|426:331|426:331|394:318|394:318|381:287|381:287|394:257|394:257|426:243|426:243|456:256|456:256|469:287|469:287|456:318|456:318|426:331|426:331|394:318|394:318|381:287|381:287|394:257|394:257|426:243|426:243|456:256|456:256|469:287|469:287|456:318|456:318|426:331|426:331|394:318|394:318|381:287|381:287|394:257|394:257|426:243|426:243|456:256|456:256|469:287|469:287|456:318|456:318|426:331|426:331|394:318|394:318|381:287|381:287|394:257|394:257|426:243|426:243|456:256|456:256|469:287|469:287|456:318|456:318|426:331|426:331|394:318|394:318|381:287|381:287|394:257|394:257|426:243|426:243|456:256|456:256|469:287|469:287|456:318|456:318|426:331|426:331|394:318|394:318|381:287|381:287|394:257|394:257|426:243|426:243|456:256|456:256|469:287|469:287|456:318|456:318|426:331|426:331|394:318|394:318|381:287|381:287|394:257|394:257|426:243|426:243|456:256|456:256|469:287|469:287|456:318|456:318|426:331|426:331|394:318|394:318|381:287|381:287|394:257|394:257|426:243|426:243|456:256|456:256|469:287|469:287|456:318|456:318|426:331|426:331|394:318|394:318|381:287|381:287|394:257|394:257|426:243|426:243|456:256|456:256|469:287|469:287|456:318|456:318|426:331|426:331|394:318|394:318|381:287|381:287|394:257|394:257|426:243|426:243|456:256|456:256|469:287|469:287|456:318|456:318|426:331|426:331|394:318|394:318|381:287|381:287|394:257|394:257|426:243|426:243|456:256|456:256|469:287|469:287|456:318|456:318|426:331|426:331|394:318|394:318|381:287|381:287|394:257|394:257|426:243|426:243|456:256|456:256|469:287|469:287|456:318|456:318|426:331|426:331|394:318|394:318|381:287|381:287|394:257|394:257|426:243|426:243|456:256|456:256|469:287|469:287|456:318|456:318|426:331|426:331|394:318|394:318|381:287|381:287|394:257|394:257|426:243|426:243|456:256|456:256|469:287|469:287|456:318|456:318|426:331|426:331|394:318|394:318|381:287|381:287|394:257|394:257|426:243|426:243|456:256|456:256|469:287|469:287|456:318|456:318|426:331|426:331|394:318|394:318|381:287|381:287|394:257|394:257|426:243|426:243|456:256|456:256|469:287|469:287|456:318|456:318|426:331|426:331|394:318|394:318|381:287|381:287|394:257|394:257|426:243|426:243|456:256|456:256|469:287|469:287|456:318|456:318|426:331|426:331|394:318|394:318|381:287|381:287|394:257|394:257|426:243|426:243|456:256|456:256|469:287|469:287|456:318|456:318|426:331|426:331|394:318|394:318|381:287|381:287|394:257|394:257|426:243|426:243|456:256|456:256|469:287|469:287|456:318|456:318|426:331|426:331|394:318|394:318|381:287|381:287|394:257|394:257|426:243|426:243|456:256|456:256|469:287|469:287|456:318|456:318|426:331|426:331|394:318|394:318|381:287|381:287|394:257|394:257|426:243|426:243|456:256|456:256|469:287|469:287|456:318|456:318|426:331|426:331|394:318|394:318|381:287|381:287|394:257|394:257|426:243|426:243|456:256|456:256|469:287|469:287|456:318|456:318|426:331|426:331|394:318|394:318|381:287|381:287|394:257|394:257|426:243|426:243|456:256|456:256|469:287|469:287|456:318|456:318|426:331|426:331|394:318|394:318|381:287|381:287|394:257|394:257|426:243|426:243|456:256|456:256|469:287|469:287|456:318|456:318|426:331|426:331|394:318|394:318|381:287|381:287|394:257|394:257|426:243|426:243|456:256|456:256|469:287|469:287|456:318|456:318|426:331|426:331|394:318|394:318|381:287|381:287|394:257|394:257|426:243|426:243|456:256|456:256|469:287|469:287|456:318|456:318|426:331|426:331|394:318|394:318|381:287|381:287|394:257|394:257|426:243|426:243|456:256|456:256|469:287|469:287|456:318|456:318|426:331|426:331|390:337,1,15008
426,331,194156,1,0,0:0:0:0:
386,162,194380,2,0,P|265:79|136:143,1,268
126,162,194828,2,0,P|247:79|376:143,1,268
386,162,195276,1,0,0:0:0:0:
256,332,195499,1,0,0:0:0:0:
433,334,195723,1,0,0:0:0:0:
256,332,195947,1,0,0:0:0:0:
85,332,196171,1,0,0:0:0:0:
85,332,196283,2,0,B|169:359|169:359|129:268,1,134
426,331,196507,1,0,0:0:0:0:
426,331,196619,1,0,0:0:0:0:
426,331,196731,1,0,0:0:0:0:
426,331,196843,1,0,0:0:0:0:
426,331,196955,1,0,0:0:0:0:
426,331,197067,1,0,0:0:0:0:
85,52,197290,1,0,0:0:0:0:
85,52,197514,6,0,B|117:65|117:65|130:96|130:96|117:126|117:126|85:140|85:140|55:127|55:127|42:96|42:96|55:65|55:65|85:52|85:52|117:65|117:65|130:96|130:96|117:126|117:126|85:140|85:140|55:127|55:127|42:96|42:96|55:65|55:65|85:52|85:52|117:65|117:65|130:96|130:96|117:126|117:126|85:140|85:140|55:127|55:127|42:96|42:96|55:65|55:65|85:52|85:52|117:65|117:65|130:96|130:96|117:126|117:126|85:140|85:140|55:127|55:127|42:96|42:96|55:65|55:65|85:52|85:52|117:65|117:65|130:96|130:96|117:126|117:126|85:140|85:140|55:127|55:127|42:96|42:96|55:65|55:65|85:52|85:52|117:65|117:65|130:96|130:96|117:126|117:126|85:140|85:140|55:127|55:127|42:96|42:96|55:65|55:65|85:52|85:52|117:65|117:65|130:96|130:96|117:126|117:126|85:140|85:140|55:127|55:127|42:96|42:96|55:65|55:65|85:52|85:52|117:65|117:65|130:96|130:96|117:126|117:126|85:140|85:140|55:127|55:127|42:96|42:96|55:65|55:65|85:52|85:52|117:65|117:65|130:96|130:96|117:126|117:126|85:140|85:140|55:127|55:127|42:96|42:96|55:65|55:65|85:52|85:52|117:65|117:65|130:96|130:96|117:126|117:126|85:140|85:140|55:127|55:127|42:96|42:96|55:65|55:65|85:52|85:52|117:65|117:65|130:96|130:96|117:126|117:126|85:140|85:140|55:127|55:127|42:96|42:96|55:65|55:65|85:52|85:52|117:65|117:65|130:96|130:96|117:126|117:126|85:140|85:140|55:127|55:127|42:96|42:96|55:65|55:65|85:52|85:52|117:65|117:65|130:96|130:96|117:126|117:126|85:140|85:140|55:127|55:127|42:96|42:96|55:65|55:65|85:52|85:52|117:65|117:65|130:96|130:96|117:126|117:126|85:140|85:140|55:127|55:127|42:96|42:96|55:65|55:65|85:52|85:52|117:65|117:65|130:96|130:96|117:126|117:126|85:140|85:140|55:127|55:127|42:96|42:96|55:65|55:65|85:52|85:52|117:65|117:65|130:96|130:96|117:126|117:126|85:140|85:140|55:127|55:127|42:96|42:96|55:65|55:65|85:52|85:52|117:65|117:65|130:96|130:96|117:126|117:126|85:140|85:140|55:127|55:127|42:96|42:96|55:65|55:65|85:52|85:52|117:65|117:65|130:96|130:96|117:126|117:126|85:140|85:140|55:127|55:127|42:96|42:96|55:65|55:65|85:52|85:52|117:65|117:65|130:96|130:96|117:126|117:126|85:140|85:140|55:127|55:127|42:96|42:96|55:65|55:65|85:52|85:52|117:65|117:65|130:96|130:96|117:126|117:126|85:140|85:140|55:127|55:127|42:96|42:96|55:65|55:65|85:52|85:52|117:65|117:65|130:96|130:96|117:126|117:126|85:140|85:140|55:127|55:127|42:96|42:96|55:65|55:65|85:52|85:52|117:65|117:65|130:96|130:96|117:126|117:126|85:140|85:140|55:127|55:127|42:96|42:96|55:65|55:65|85:52|85:52|117:65|117:65|130:96|130:96|117:126|117:126|85:140|85:140|55:127|55:127|42:96|42:96|55:65|55:65|85:52|85:52|117:65|117:65|130:96|130:96|117:126|117:126|85:140|85:140|55:127|55:127|42:96|42:96|55:65|55:65|85:52|85:52|117:65|117:65|130:96|130:96|117:126|117:126|85:140|85:140|55:127|55:127|42:96|42:96|55:65|55:65|85:52|85:52|117:65|117:65|130:96|130:96|117:126|117:126|85:140|85:140|55:127|55:127|42:96|42:96|55:65|55:65|85:52|85:52|117:65|117:65|130:96|130:96|117:126|117:126|85:140|85:140|55:127|55:127|42:96|42:96|55:65|55:65|85:52|85:52|117:65|117:65|130:96|130:96|117:126|117:126|85:140|85:140|55:127|55:127|42:96|42:96|55:65|55:65|85:52|85:52|117:65|117:65|130:96|130:96|117:126|117:126|85:140|85:140|55:127|55:127|42:96|42:96|55:65|55:65|85:52|85:52|117:65|117:65|130:96|130:96|117:126|117:126|85:140|85:140|55:127|55:127|42:96|42:96|55:65|55:65|85:52|85:52|117:65|117:65|130:96|130:96|117:126|117:126|85:140|85:140|55:127|55:127|42:96|42:96|55:65|55:65|85:52|85:52|117:65|117:65|130:96|130:96|117:126|117:126|85:140|85:140|55:127|55:127|42:96|42:96|55:65|55:65|85:52|85:52|117:65|117:65|130:96|130:96|117:126|117:126|85:140|85:140|55:127|55:127|42:96|42:96|55:65|55:65|85:52|85:52|117:65|117:65|130:96|130:96|117:126|117:126|85:140|85:140|55:127|55:127|42:96|42:96|55:65|55:65|85:52|85:52|117:65|117:65|130:96|130:96|117:126|117:126|85:140|85:140|55:127|55:127|42:96|42:96|55:65|55:65|85:52|85:52|117:65|117:65|130:96|130:96|117:126|117:126|85:140|85:140|55:127|55:127|42:96|42:96|55:65|55:65|85:52|85:52|117:65|117:65|130:96|130:96|117:126|117:126|85:140|85:140|55:127|55:127|42:96|42:96|55:65|55:65|85:52|85:52|117:65|117:65|130:96|130:96|117:126|117:126|85:140|85:140|55:127|55:127|42:96|42:96|55:65|55:65|85:52|85:52|117:65|117:65|130:96|130:96|117:126|117:126|85:140|85:140|55:127|55:127|42:96|42:96|55:65|55:65|85:52|85:52|117:65|117:65|130:96|130:96|117:126|117:126|85:140|85:140|55:127|55:127|42:96|42:96|55:65|55:65|85:52|85:52|123:45,1,10720
473,183,197738,2,0,L|209:59,1,268
63,264,198186,1,0,0:0:0:0:
63,264,198410,1,0,0:0:0:0:
63,264,198634,2,0,L|327:140,1,268
416,248,199081,1,0,0:0:0:0:
256,52,199305,6,0,B|288:65|288:65|301:96|301:96|288:126|288:126|256:140|256:140|226:127|226:127|213:96|213:96|226:65|226:65|256:52|256:52|288:65|288:65|301:96|301:96|288:126|288:126|256:140|256:140|226:127|226:127|213:96|213:96|226:65|226:65|256:52|256:52|288:65|288:65|301:96|301:96|288:126|288:126|256:140|256:140|226:127|226:127|213:96|213:96|226:65|226:65|256:52|256:52|288:65|288:65|301:96|301:96|288:126|288:126|256:140|256:140|226:127|226:127|213:96|213:96|226:65|226:65|256:52|256:52|288:65|288:65|301:96|301:96|288:126|288:126|256:140|256:140|226:127|226:127|213:96|213:96|226:65|226:65|256:52|256:52|288:65|288:65|301:96|301:96|288:126|288:126|256:140|256:140|226:127|226:127|213:96|213:96|226:65|226:65|256:52|256:52|288:65|288:65|301:96|301:96|288:126|288:126|256:140|256:140|226:127|226:127|213:96|213:96|226:65|226:65|256:52|256:52|288:65|288:65|301:96|301:96|288:126|288:126|256:140|256:140|226:127|226:127|213:96|213:96|226:65|226:65|256:52|256:52|288:65|288:65|301:96|301:96|288:126|288:126|256:140|256:140|226:127|226:127|213:96|213:96|226:65|226:65|256:52|256:52|288:65|288:65|301:96|301:96|288:126|288:126|256:140|256:140|226:127|226:127|213:96|213:96|226:65|226:65|256:52|256:52|288:65|288:65|301:96|301:96|288:126|288:126|256:140|256:140|226:127|226:127|213:96|213:96|226:65|226:65|256:52|256:52|288:65|288:65|301:96|301:96|288:126|288:126|256:140|256:140|226:127|226:127|213:96|213:96|226:65|226:65|256:52|256:52|288:65|288:65|301:96|301:96|288:126|288:126|256:140|256:140|226:127|226:127|213:96|213:96|226:65|226:65|256:52|256:52|288:65|288:65|301:96|301:96|288:126|288:126|256:140|256:140|226:127|226:127|213:96|213:96|226:65|226:65|256:52|256:52|288:65|288:65|301:96|301:96|288:126|288:126|256:140|256:140|226:127|226:127|213:96|213:96|226:65|226:65|256:52|256:52|288:65|288:65|301:96|301:96|288:126|288:126|256:140|256:140|226:127|226:127|213:96|213:96|226:65|226:65|256:52|256:52|288:65|288:65|301:96|301:96|288:126|288:126|256:140|256:140|226:127|226:127|213:96|213:96|226:65|226:65|256:52|256:52|288:65|288:65|301:96|301:96|288:126|288:126|256:140|256:140|226:127|226:127|213:96|213:96|226:65|226:65|256:52|256:52|288:65|288:65|301:96|301:96|288:126|288:126|256:140|256:140|226:127|226:127|213:96|213:96|226:65|226:65|256:52|256:52|288:65|288:65|301:96|301:96|288:126|288:126|256:140|256:140|226:127|226:127|213:96|213:96|226:65|226:65|256:52|256:52|288:65|288:65|301:96|301:96|288:126|288:126|256:140|256:140|226:127|226:127|213:96|213:96|226:65|226:65|256:52|256:52|288:65|288:65|301:96|301:96|288:126|288:126|256:140|256:140|226:127|226:127|213:96|213:96|226:65|226:65|256:52|256:52|288:65|288:65|301:96|301:96|288:126|288:126|256:140|256:140|226:127|226:127|213:96|213:96|226:65|226:65|256:52|256:52|288:65|288:65|301:96|301:96|288:126|288:126|256:140|256:140|226:127|226:127|213:96|213:96|226:65|226:65|256:52|256:52|288:65|288:65|301:96|301:96|288:126|288:126|256:140|256:140|226:127|226:127|213:96|213:96|226:65|226:65|256:52|256:52|288:65|288:65|301:96|301:96|288:126|288:126|256:140|256:140|226:127|226:127|213:96|213:96|226:65|226:65|256:52|256:52|288:65|288:65|301:96|301:96|288:126|288:126|256:140|256:140|226:127|226:127|213:96|213:96|226:65|226:65|256:52|256:52|288:65|288:65|301:96|301:96|288:126|288:126|256:140|256:140|226:127|226:127|213:96|213:96|226:65|226:65|256:52|256:52|288:65|288:65|301:96|301:96|288:126|288:126|256:140|256:140|226:127|226:127|213:96|213:96|226:65|226:65|256:52|256:52|288:65|288:65|301:96|301:96|288:126|288:126|256:140|256:140|226:127|226:127|213:96|213:96|226:65|226:65|256:52|256:52|288:65|288:65|301:96|301:96|288:126|288:126|256:140|256:140|226:127|226:127|213:96|213:96|226:65|226:65|256:52|256:52|288:65|288:65|301:96|301:96|288:126|288:126|256:140|256:140|226:127|226:127|213:96|213:96|226:65|226:65|256:52|256:52|293:45,1,8576
416,248,199529,1,0,0:0:0:0:
256,52,199753,2,0,B|292:144|292:144|371:178|371:178|416:248,1,268
256,52,200201,1,0,0:0:0:0:
96,248,200425,1,0,0:0:0:0:
256,52,200649,2,0,B|220:144|220:144|141:178|141:178|96:248,1,268
426,53,201096,6,0,B|458:66|458:66|471:97|471:97|458:127|458:127|426:141|426:141|396:128|396:128|383:97|383:97|396:66|396:66|426:53|426:53|458:66|458:66|471:97|471:97|458:127|458:127|426:141|426:141|396:128|396:128|383:97|383:97|396:66|396:66|426:53|426:53|458:66|458:66|471:97|471:97|458:127|458:127|426:141|426:141|396:128|396:128|383:97|383:97|396:66|396:66|426:53|426:53|458:66|458:66|471:97|471:97|458:127|458:127|426:141|426:141|396:128|396:128|383:97|383:97|396:66|396:66|426:53|426:53|458:66|458:66|471:97|471:97|458:127|458:127|426:141|426:141|396:128|396:128|383:97|383:97|396:66|396:66|426:53|426:53|458:66|458:66|471:97|471:97|458:127|458:127|426:141|426:141|396:128|396:128|383:97|383:97|396:66|396:66|426:53|426:53|458:66|458:66|471:97|471:97|458:127|458:127|426:141|426:141|396:128|396:128|383:97|383:97|396:66|396:66|426:53|426:53|458:66|458:66|471:97|471:97|458:127|458:127|426:141|426:141|396:128|396:128|383:97|383:97|396:66|396:66|426:53|426:53|458:66|458:66|471:97|471:97|458:127|458:127|426:141|426:141|396:128|396:128|383:97|383:97|396:66|396:66|426:53|426:53|458:66|458:66|471:97|471:97|458:127|458:127|426:141|426:141|396:128|396:128|383:97|383:97|396:66|396:66|426:53|426:53|458:66|458:66|471:97|471:97|458:127|458:127|426:141|426:141|396:128|396:128|383:97|383:97|396:66|396:66|426:53|426:53|458:66|458:66|471:97|471:97|458:127|458:127|426:141|426:141|396:128|396:128|383:97|383:97|396:66|396:66|426:53|426:53|458:66|458:66|471:97|471:97|458:127|458:127|426:141|426:141|396:128|396:128|383:97|383:97|396:66|396:66|426:53|426:53|458:66|458:66|471:97|471:97|458:127|458:127|426:141|426:141|396:128|396:128|383:97|383:97|396:66|396:66|426:53|426:53|458:66|458:66|471:97|471:97|458:127|458:127|426:141|426:141|396:128|396:128|383:97|383:97|396:66|396:66|426:53|426:53|458:66|458:66|471:97|471:97|458:127|458:127|426:141|426:141|396:128|396:128|383:97|383:97|396:66|396:66|426:53|426:53|458:66|458:66|471:97|471:97|458:127|458:127|426:141|426:141|396:128|396:128|383:97|383:97|396:66|396:66|426:53|426:53|458:66|458:66|471:97|471:97|458:127|458:127|426:141|426:141|396:128|396:128|383:97|383:97|396:66|396:66|426:53|426:53|458:66|458:66|471:97|471:97|458:127|458:127|426:141|426:141|396:128|396:128|383:97|383:97|396:66|396:66|426:53|426:53|458:66|458:66|471:97|471:97|458:127|458:127|426:141|426:141|396:128|396:128|383:97|383:97|396:66|396:66|426:53|426:53|458:66|458:66|471:97|471:97|458:127|458:127|426:141|426:141|396:128|396:128|383:97|383:97|396:66|396:66|426:53|426:53|458:66|458:66|471:97|471:97|458:127|458:127|426:141|426:141|396:128|396:128|383:97|383:97|396:66|396:66|426:53|426:53|458:66|458:66|471:97|471:97|458:127|458:127|426:141|426:141|396:128|396:128|383:97|383:97|396:66|396:66|426:53|426:53|458:66|458:66|471:97|471:97|458:127|458:127|426:141|426:141|396:128|396:128|383:97|383:97|396:66|396:66|426:53|426:53|464:46,1,6432
256,52,201320,1,0,0:0:0:0:
426,331,201544,1,0,0:0:0:0:
426,53,201768,1,0,0:0:0:0:
137,155,201992,6,0,B|150:123|150:123|181:110|181:110|211:123|211:123|225:155|225:155|212:185|212:185|181:198|181:198|150:185|150:185|137:155|137:155|150:123|150:123|181:110|181:110|211:123|211:123|225:155|225:155|212:185|212:185|181:198|181:198|150:185|150:185|137:155|137:155|150:123|150:123|181:110|181:110|211:123|211:123|225:155|225:155|212:185|212:185|181:198|181:198|150:185|150:185|137:155|137:155|150:123|150:123|181:110|181:110|211:123|211:123|225:155|225:155|212:185|212:185|181:198|181:198|150:185|150:185|137:155|137:155|150:123|150:123|181:110|181:110|211:123|211:123|225:155|225:155|212:185|212:185|181:198|181:198|150:185|150:185|137:155|137:155|150:123|150:123|181:110|181:110|211:123|211:123|225:155|225:155|212:185|212:185|181:198|181:198|150:185|150:185|137:155|137:155|150:123|150:123|181:110|181:110|211:123|211:123|225:155|225:155|212:185|212:185|181:198|181:198|150:185|150:185|137:155|137:155|150:123|150:123|181:110|181:110|211:123|211:123|225:155|225:155|212:185|212:185|181:198|181:198|150:185|150:185|137:155|137:155|150:123|150:123|181:110|181:110|211:123|211:123|225:155|225:155|212:185|212:185|181:198|181:198|150:185|150:185|137:155|137:155|150:123|150:123|181:110|181:110|211:123|211:123|225:155|225:155|212:185|212:185|181:198|181:198|150:185|150:185|137:155|137:155|150:123|150:123|181:110|181:110|211:123|211:123|225:155|225:155|212:185|212:185|181:198|181:198|150:185|150:185|137:155|137:155|150:123|150:123|181:110|181:110|211:123|211:123|225:155|225:155|212:185|212:185|181:198|181:198|150:185|150:185|137:155|137:155|150:123|150:123|181:110|181:110|211:123|211:123|225:155|225:155|212:185|212:185|181:198|181:198|150:185|150:185|137:155|137:155|150:123|150:123|181:110|181:110|211:123|211:123|225:155|225:155|212:185|212:185|181:198|181:198|150:185|150:185|137:155|137:155|150:123|150:123|181:110|181:110|211:123|211:123|225:155|225:155|212:185|212:185|181:198|181:198|150:185|150:185|137:155|137:155|150:123|150:123|181:110|181:110|211:123|211:123|225:155|225:155|212:185|212:185|181:198|181:198|150:185|150:185|137:155|137:155|150:123|150:123|181:110|181:110|211:123|211:123|225:155|225:155|212:185|212:185|181:198|181:198|150:185|150:185|137:155|137:155|150:123|150:123|181:110|181:110|211:123|211:123|225:155|225:155|212:185|212:185|181:198|181:198|150:185|150:185|137:155|137:155|150:123|150:123|181:110|181:110|211:123|211:123|225:155|225:155|212:185|212:185|181:198|181:198|150:185|150:185|137:155|137:155|150:123|150:123|181:110|181:110|211:123|211:123|225:155|225:155|212:185|212:185|181:198|181:198|150:185|150:185|137:155|137:155|129:116,1,5360
426,331,202216,1,0,0:0:0:0:
256,52,202440,1,0,0:0:0:0:
256,332,202664,1,0,0:0:0:0:
512,220,202887,6,0,B|499:252|499:252|468:265|468:265|438:252|438:252|424:220|424:220|437:190|437:190|468:177|468:177|499:190|499:190|512:220|512:220|499:252|499:252|468:265|468:265|438:252|438:252|424:220|424:220|437:190|437:190|468:177|468:177|499:190|499:190|512:220|512:220|499:252|499:252|468:265|468:265|438:252|438:252|424:220|424:220|437:190|437:190|468:177|468:177|499:190|499:190|512:220|512:220|499:252|499:252|468:265|468:265|438:252|438:252|424:220|424:220|437:190|437:190|468:177|468:177|499:190|499:190|512:220|512:220|499:252|499:252|468:265|468:265|438:252|438:252|424:220|424:220|437:190|437:190|468:177|468:177|499:190|499:190|512:220|512:220|499:252|499:252|468:265|468:265|438:252|438:252|424:220|424:220|437:190|437:190|468:177|468:177|499:190|499:190|512:220|512:220|499:252|499:252|468:265|468:265|438:252|438:252|424:220|424:220|437:190|437:190|468:177|468:177|499:190|499:190|512:220|512:220|499:252|499:252|468:265|468:265|438:252|438:252|424:220|424:220|437:190|437:190|468:177|468:177|499:190|499:190|512:220|512:220|499:252|499:252|468:265|468:265|438:252|438:252|424:220|424:220|437:190|437:190|468:177|468:177|499:190|499:190|512:220|512:220|499:252|499:252|468:265|468:265|438:252|438:252|424:220|424:220|437:190|437:190|468:177|468:177|499:190|499:190|512:220|512:220|499:252|499:252|468:265|468:265|438:252|438:252|424:220|424:220|437:190|437:190|468:177|468:177|499:190|499:190|512:220|512:220|499:252|499:252|468:265|468:265|438:252|438:252|424:220|424:220|437:190|437:190|468:177|468:177|499:190|499:190|512:220|512:220|499:252|499:252|468:265|468:265|438:252|438:252|424:220|424:220|437:190|437:190|468:177|468:177|499:190|499:190|512:220|512:220|499:252|499:252|468:265|468:265|438:252|438:252|424:220|424:220|437:190|437:190|468:177|468:177|499:190|499:190|512:220|512:220|499:252|499:252|468:265|468:265|438:252|438:252|424:220|424:220|437:190|437:190|468:177|468:177|499:190|499:190|512:220|512:220|499:252|499:252|468:265|468:265|438:252|438:252|424:220|424:220|437:190|437:190|468:177|468:177|499:190|499:190|512:220|512:220|519:260,1,4288
137,155,203111,1,0,0:0:0:0:
512,220,203335,1,0,0:0:0:0:
85,332,203559,1,0,0:0:0:0:
310,198,203783,6,0,B|278:185|278:185|265:154|265:154|278:124|278:124|310:110|310:110|340:123|340:123|353:154|353:154|340:185|340:185|310:198|310:198|278:185|278:185|265:154|265:154|278:124|278:124|310:110|310:110|340:123|340:123|353:154|353:154|340:185|340:185|310:198|310:198|278:185|278:185|265:154|265:154|278:124|278:124|310:110|310:110|340:123|340:123|353:154|353:154|340:185|340:185|310:198|310:198|278:185|278:185|265:154|265:154|278:124|278:124|310:110|310:110|340:123|340:123|353:154|353:154|340:185|340:185|310:198|310:198|278:185|278:185|265:154|265:154|278:124|278:124|310:110|310:110|340:123|340:123|353:154|353:154|340:185|340:185|310:198|310:198|278:185|278:185|265:154|265:154|278:124|278:124|310:110|310:110|340:123|340:123|353:154|353:154|340:185|340:185|310:198|310:198|278:185|278:185|265:154|265:154|278:124|278:124|310:110|310:110|340:123|340:123|353:154|353:154|340:185|340:185|310:198|310:198|278:185|278:185|265:154|265:154|278:124|278:124|310:110|310:110|340:123|340:123|353:154|353:154|340:185|340:185|310:198|310:198|278:185|278:185|265:154|265:154|278:124|278:124|310:110|310:110|340:123|340:123|353:154|353:154|340:185|340:185|310:198|310:198|278:185|278:185|265:154|265:154|278:124|278:124|310:110|310:110|340:123|340:123|353:154|353:154|340:185|340:185|310:198|310:198|278:185|278:185|265:154|265:154|278:124|278:124|310:110|310:110|340:123|340:123|353:154|353:154|340:185|340:185|310:198|310:198|278:185|278:185|265:154|265:154|278:124|278:124|310:110|310:110|340:123|340:123|353:154|353:154|340:185|340:185|310:198|310:198|270:205,1,3216
310,198,204007,1,0,0:0:0:0:
137,155,204231,1,0,0:0:0:0:
512,220,204455,1,0,0:0:0:0:
15,300,204678,6,0,B|47:313|47:313|60:344|60:344|47:374|47:374|15:388|15:388|-15:375|-15:375|-28:344|-28:344|-15:313|-15:313|15:300|15:300|47:313|47:313|60:344|60:344|47:374|47:374|15:388|15:388|-15:375|-15:375|-28:344|-28:344|-15:313|-15:313|15:300|15:300|47:313|47:313|60:344|60:344|47:374|47:374|15:388|15:388|-15:375|-15:375|-28:344|-28:344|-15:313|-15:313|15:300|15:300|47:313|47:313|60:344|60:344|47:374|47:374|15:388|15:388|-15:375|-15:375|-28:344|-28:344|-15:313|-15:313|15:300|15:300|47:313|47:313|60:344|60:344|47:374|47:374|15:388|15:388|-15:375|-15:375|-28:344|-28:344|-15:313|-15:313|15:300|15:300|47:313|47:313|60:344|60:344|47:374|47:374|15:388|15:388|-15:375|-15:375|-28:344|-28:344|-15:313|-15:313|15:300|15:300|47:313|47:313|60:344|60:344|47:374|47:374|15:388|15:388|-15:375|-15:375|-28:344|-28:344|-15:313|-15:313|15:300|15:300|47:313|47:313|60:344|60:344|47:374|47:374|15:388|15:388|-15:375|-15:375|-28:344|-28:344|-15:313|-15:313|15:300|15:300|55:293,1,2144
256,52,204902,1,0,0:0:0:0:
348,309,205126,6,0,B|334:277|334:277|347:246|347:246|377:234|377:234|410:246|410:246|422:277|422:277|409:308|409:308|378:321|378:321|348:309|348:309|334:277|334:277|347:246|347:246|377:234|377:234|410:246|410:246|422:277|422:277|409:308|409:308|378:321|378:321|348:309|348:309|334:277|334:277|347:246|347:246|377:234|377:234|410:246|410:246|422:277|422:277|409:308|409:308|378:321|378:321|348:309|348:309|334:277|334:277|347:246|347:246|377:234|377:234|410:246|410:246|422:277|422:277|409:308|409:308|378:321|378:321|348:309|348:309|334:277|334:277|347:246|347:246|377:234|377:234|410:246|410:246|422:277|422:277|409:308|409:308|378:321|378:321|348:309|348:309|334:277|334:277|347:246|347:246|377:234|377:234|410:246|410:246|422:277|422:277|409:308|409:308|378:321|378:321|348:309|348:309|314:287,1,1608
256,52,205350,1,0,0:0:0:0:
210,231,205574,6,0,B|223:262|223:262|210:293|210:293|180:305|180:305|147:293|147:293|135:262|135:262|148:231|148:231|179:218|179:218|210:231|210:231|223:262|223:262|210:293|210:293|180:305|180:305|147:293|147:293|135:262|135:262|148:231|148:231|179:218|179:218|210:231|210:231|223:262|223:262|210:293|210:293|180:305|180:305|147:293|147:293|135:262|135:262|148:231|148:231|179:218|179:218|210:231|210:231|223:262|223:262|210:293|210:293|180:305|180:305|147:293|147:293|135:262|135:262|148:231|148:231|179:218|179:218|210:231|210:231|242:253,1,1072
210,231,205798,1,0,0:0:0:0:
0,180,206022,6,0,B|31:166|31:166|62:179|62:179|74:209|74:209|62:242|62:242|31:254|31:254|0:241|0:241|-12:210|-12:210|0:180|0:180|21:148,1,268
109,222,206134,2,0,B|81:201|81:201|76:167|76:167|97:142|97:142|131:136|131:136|157:157|157:157|161:190|161:190|141:217|141:217|109:222|109:222|71:219,1,268
234,241,206246,2,0,B|254:213|254:213|288:208|288:208|313:229|313:229|319:263|319:263|298:289|298:289|265:293|265:293|238:273|238:273|234:241|234:241|236:203,1,268
359,222,206358,2,0,B|327:209|327:209|314:178|314:178|327:148|327:148|359:134|359:134|389:147|389:147|402:178|402:178|389:209|389:209|359:222|359:222|322:229,1,268
475,181,206470,5,0,0:0:0:0:
234,241,206805,1,0,0:0:0:0:
0,180,207141,1,0,0:0:0:0:
256,65,207365,38,0,B|365:65|434:136|458:323|317:389|197:389|56:323|80:136|149:65|256:65,1,804,0|2,0:0|0:3,0:0:0:0:
256,65,207813,1,0,0:0:0:0:
256,192,207925,1,0,0:0:0:0:
256,319,208037,1,0,0:0:0:0:
256,319,208261,38,0,B|146:319|77:247|53:60|194:-5|314:-5|455:60|431:247|362:319|256:319,1,804,0|0,0:0|0:3,0:0:0:0:
256,319,210052,2,0,B|146:319|77:247|53:60|194:-5|314:-5|455:60|431:247|362:319|256:319,1,804,0|0,0:0|0:3,0:0:0:0:
127,192,210499,1,0,0:0:0:0:
256,65,210947,1,0,0:0:0:0:
382,192,211395,1,0,0:0:0:0:
256,319,211843,2,0,B|146:319|77:247|53:60|194:-5|314:-5|455:60|431:247|362:319|256:319,1,804,0|0,0:0|0:3,0:0:0:0:
256,319,213634,2,0,B|146:319|77:247|53:60|194:-5|314:-5|455:60|431:247|362:319|256:319,1,804,0|0,0:0|0:3,0:0:0:0:
127,192,214081,1,0,0:0:0:0:
256,65,214529,1,0,0:0:0:0:
382,192,214977,1,0,0:0:0:0:
256,319,215425,6,0,B|146:319|77:247|53:60|194:-5|314:-5|455:60|431:247|362:319|256:319,1,804,0|0,0:0|0:3,0:0:0:0:
164,285,215649,1,0,0:0:0:0:
127,192,215872,1,0,0:0:0:0:
162,104,216096,1,0,0:0:0:0:
256,65,216320,1,0,0:0:0:0:
343,101,216544,1,0,0:0:0:0:
382,192,216768,1,0,0:0:0:0:
347,283,216992,1,0,0:0:0:0:
256,319,217216,6,0,B|146:319|77:247|53:60|194:-5|314:-5|455:60|431:247|362:319|256:319,1,804,0|0,0:0|0:3,0:0:0:0:
164,285,217440,1,0,0:0:0:0:
168,280,217440,1,0,0:0:0:0:
127,192,217663,1,0,0:0:0:0:
133,192,217663,1,0,0:0:0:0:
162,104,217887,1,0,0:0:0:0:
166,108,217887,1,0,0:0:0:0:
256,65,218111,1,0,0:0:0:0:
256,71,218111,1,0,0:0:0:0:
343,101,218335,1,0,0:0:0:0:
338,105,218335,1,0,0:0:0:0:
382,192,218559,1,0,0:0:0:0:
375,192,218559,1,0,0:0:0:0:
347,283,218783,1,0,0:0:0:0:
342,278,218783,1,0,0:0:0:0:
256,319,219007,6,0,B|154:294|52:319|52:319|138:210|113:98|113:98|188:138|259:62,1,603.000023002625
256,65,219455,6,0,B|62:131|62:131|160:226|160:226|145:366|145:366|357:276,1,603.000023002625
255,65,219902,6,0,B|450:131|450:131|352:226|352:226|367:366|367:366|155:276,1,603.000023002625
256,319,220350,6,0,B|358:294|460:319|460:319|374:210|399:98|399:98|324:138|253:62,1,603.000023002625
255,65,220798,6,0,B|256:317|256:317|256:65|256:65|256:317|256:317|256:65,2,1005
256,319,221804,5,0,0:0:0:0:
256,278,221916,1,0,0:0:0:0:
256,237,222028,1,0,0:0:0:0:
256,196,222140,1,0,0:0:0:0:
256,155,222252,1,0,0:0:0:0:
256,114,222364,1,0,0:0:0:0:
256,73,222476,1,0,0:0:0:0:
3,228,223036,6,0,B|30:202|74:220|74:220|170:174|256:158|256:158|341:174|437:220|437:220|481:202|508:228,1,536
507,227,223372,1,0,0:0:0:0:
507,227,223707,1,0,0:0:0:0:
222,341,223931,1,0,0:0:0:0:
158,254,224043,1,0,0:0:0:0:
201,155,224155,1,0,0:0:0:0:
308,143,224267,1,0,0:0:0:0:
330,330,224379,6,0,L|-337:66,1,536
182,54,224715,2,0,L|849:318,1,536
256,192,225051,1,0,0:0:0:0:
256,218,225387,5,0,0:0:0:0:
256,36,225610,1,0,0:0:0:0:
256,62,225722,1,0,0:0:0:0:
256,88,225834,1,0,0:0:0:0:
256,62,225946,1,0,0:0:0:0:
256,36,226058,1,0,0:0:0:0:
256,16,226170,6,0,B|132:68|132:68|80:192|80:192|132:315|132:315|256:367|256:367|379:315|379:315|431:192|431:192|379:68|379:68|256:16|256:16|132:68|132:68|80:192|80:192|132:315|132:315|256:367|256:367|379:315|379:315|431:192|431:192|379:68|379:68|256:16|256:16|132:68|132:68|80:192|80:192|132:315|132:315|256:367|256:367|379:315|379:315|431:192|431:192|379:68|379:68|256:16|256:16|132:68|132:68|80:192|80:192|132:315|132:315|256:367|256:367|379:315|379:315|431:192|431:192|379:68|379:68|256:16|256:16|132:68|132:68|80:192|80:192|132:315|132:315|256:367|256:367|379:315|379:315|431:192|431:192|379:68|379:68|256:16|256:16|132:68|132:68|80:192|80:192|132:315|132:315|256:367|256:367|379:315|379:315|431:192|431:192|379:68|379:68|256:16|256:16|132:68|132:68|80:192|80:192|132:315|132:315|256:367|256:367|379:315|379:315|431:192|431:192|379:68|379:68|256:16|256:16|132:68|132:68|80:192|80:192|132:315|132:315|256:367|256:367|379:315|379:315|431:192|431:192|379:68|379:68|256:16|256:16|132:68|132:68|80:192|80:192|132:315|132:315|256:367|256:367|379:315|379:315|431:192|431:192|379:68|379:68|256:16|256:16|132:68|132:68|80:192|80:192|132:315|132:315|256:367|256:367|379:315|379:315|431:192|431:192|379:68|379:68|256:16|256:16|132:68|132:68|80:192|80:192|132:315|132:315|256:367|256:367|379:315|379:315|431:192|431:192|379:68|379:68|256:16|256:16|132:68|132:68|80:192|80:192|132:315|132:315|256:367|256:367|379:315|379:315|431:192|431:192|379:68|379:68|256:16|256:16|132:68|132:68|80:192|80:192|132:315|132:315|256:367|256:367|379:315|379:315|431:192|431:192|379:68|379:68|256:16|256:16|132:68|132:68|80:192|80:192|132:315|132:315|256:367|256:367|379:315|379:315|431:192|431:192|379:68|379:68|256:16|256:16|132:68|132:68|80:192|80:192|132:315|132:315|256:367|256:367|379:315|379:315|431:192|431:192|379:68|379:68|256:16|256:16|132:68|132:68|80:192|80:192|132:315|132:315|256:367|256:367|379:315|379:315|431:192|431:192|379:68|379:68|256:16|256:16|132:68|132:68|80:192|80:192|132:315|132:315|256:367|256:367|379:315|379:315|431:192|431:192|379:68|379:68|256:16|256:16|132:68|132:68|80:192|80:192|132:315|132:315|256:367|256:367|379:315|379:315|431:192|431:192|379:68|379:68|256:16|256:16|132:68|132:68|80:192|80:192|132:315|132:315|256:367|256:367|379:315|379:315|431:192|431:192|379:68|379:68|256:16|256:16|132:68|132:68|80:192|80:192|132:315|132:315|256:367|256:367|379:315|379:315|431:192|431:192|379:68|379:68|256:16|256:16|132:68|132:68|80:192|80:192|132:315|132:315|256:367|256:367|379:315|379:315|431:192|431:192|379:68|379:68|256:16|256:16|132:68|132:68|80:192|80:192|132:315|132:315|256:367|256:367|379:315|379:315|431:192|431:192|379:68|379:68|256:16|256:16|132:68|132:68|80:192|80:192|132:315|132:315|256:367|256:367|379:315|379:315|431:192|431:192|379:68|379:68|256:16|256:16|132:68|132:68|80:192|80:192|132:315|132:315|256:367|256:367|379:315|379:315|431:192|431:192|379:68|379:68|256:16|256:16|132:68|132:68|80:192|80:192|132:315|132:315|256:367|256:367|379:315|379:315|431:192|431:192|379:68|379:68|256:16|256:16|132:68|132:68|80:192|80:192|132:315|132:315|256:367|256:367|379:315|379:315|431:192|431:192|379:68|379:68|256:16|256:16|132:68|132:68|80:192|80:192|132:315|132:315|256:367|256:367|379:315|379:315|431:192|431:192|379:68|379:68|256:16|256:16|132:68|132:68|80:192|80:192|132:315|132:315|256:367|256:367|379:315|379:315|431:192|431:192|379:68|379:68|256:16|256:16|132:68|132:68|80:192|80:192|132:315|132:315|256:367|256:367|379:315|379:315|431:192|431:192|379:68|379:68|256:16|256:16|132:68|132:68|80:192|80:192|132:315|132:315|256:367|256:367|379:315|379:315|431:192|431:192|379:68|379:68|256:16|256:16|132:68|132:68|80:192|80:192|132:315|132:315|256:367|256:367|379:315|379:315|431:192|431:192|379:68|379:68|256:16|256:16|132:68|132:68|80:192|80:192|132:315|132:315|256:367|256:367|379:315|379:315|431:192|431:192|379:68|379:68|256:16|256:16|132:68|132:68|80:192|80:192|132:315|132:315|256:367|256:367|379:315|379:315|431:192|431:192|379:68|379:68|256:16|256:16|132:68|132:68|80:192|80:192|132:315|132:315|256:367|256:367|379:315|379:315|431:192|431:192|379:68|379:68|256:16|256:16|132:68|132:68|80:192|80:192|132:315|132:315|256:367|256:367|379:315|379:315|431:192|431:192|379:68|379:68|256:16|256:16|132:68|132:68|80:192|80:192|132:315|132:315|256:367|256:367|379:315|379:315|431:192|431:192|379:68|379:68|256:16|256:16|132:68|132:68|80:192|80:192|132:315|132:315|256:367|256:367|379:315|379:315|431:192|431:192|379:68|379:68|256:16|256:16|132:68|132:68|80:192|80:192|132:315|132:315|256:367|256:367|379:315|379:315|431:192|431:192|379:68|379:68|256:16|256:16|132:68|132:68|80:192|80:192|132:315|132:315|256:367|256:367|379:315|379:315|431:192|431:192|379:68|379:68|256:16|256:16|132:68|132:68|80:192|80:192|132:315|132:315|256:367|256:367|379:315|379:315|431:192|431:192|379:68|379:68|256:16|256:16|132:68|132:68|80:192|80:192|132:315|132:315|256:367|256:367|379:315|379:315|431:192|431:192|379:68|379:68|256:16|256:16|132:68|132:68|80:192|80:192|132:315|132:315|256:367|256:367|379:315|379:315|431:192|431:192|379:68|379:68|256:16|256:16|132:68|132:68|80:192|80:192|132:315|132:315|256:367|256:367|379:315|379:315|431:192|431:192|379:68|379:68|256:16|256:16|132:68|132:68|80:192|80:192|132:315|132:315|256:367|256:367|379:315|379:315|431:192|431:192|379:68|379:68|256:16|256:16|132:68|132:68|80:192|80:192|132:315|132:315|256:367|256:367|379:315|379:315|431:192|431:192|379:68|379:68|256:16|256:16|132:68|132:68|80:192|80:192|132:315|132:315|256:367|256:367|379:315|379:315|431:192|431:192|379:68|379:68|256:16|256:16|132:68|132:68|80:192|80:192|132:315|132:315|256:367|256:367|379:315|379:315|431:192|431:192|379:68|379:68|256:16|256:16|132:68|132:68|80:192|80:192|132:315|132:315|256:367|256:367|379:315|379:315|431:192|431:192|379:68|379:68|256:16|256:16|130:9,1,51456
46,232,226394,1,0,0:0:0:0:
478,74,226618,2,0,P|265:166|275:328,1,402.000015335084
469,325,226954,6,0,P|283:186|147:276,1,402.000015335084
159,258,227290,2,0,P|228:339|359:355,1,201.000007667542
246,74,227513,2,0,P|142:94|63:199,1,201.000007667542
362,242,227737,2,0,P|397:142|345:21,1,201.000007667542
141,0,227961,6,0,B|24:271|24:271|278:171,1,402.000015335084
256,149,228297,1,0,0:0:0:0:
371,0,228409,2,0,B|488:271|488:271|234:171,1,402.000015335084
256,149,228745,1,0,0:0:0:0:
69,289,228857,6,0,L|309:389,1,201.000007667542
256,149,229081,2,0,L|70:71,1,201.000007667542
59,296,229304,2,0,L|323:406,1,201.000007667542
265,142,229528,2,0,L|61:56,1,201.000007667542
59,296,229752,6,0,P|198:328|350:217,1,268
180,71,230088,1,0,0:0:0:0:
180,71,230200,2,0,P|338:297|316:40,1,536
329,63,230536,1,0,0:0:0:0:
180,71,230648,6,0,P|90:108|16:211,1,201.000007667542
321,233,230872,2,0,P|417:245|533:193,1,201.000007667542
180,71,231095,2,0,B|135:40|135:40|25:51|20:132,1,201.000007667542
291,309,231319,2,0,P|368:368|494:381,1,201.000007667542
180,71,231543,6,0,B|236:203|230:356|230:356|317:236|466:146|478:268,1,603.000023002625
472,241,231991,2,0,B|241:322|89:208|89:208|170:168|170:168|237:212|336:194,1,603.000023002625
274,199,232439,6,0,B|57:289|13:156|63:89|174:81|174:81|64:243|185:338|324:305,1,603.000023002625
156,266,232887,2,0,B|260:271|383:190|383:190|306:70|108:81|108:81|133:37|183:42,1,603.000023002625
142,47,233334,6,0,B|205:32|280:66|280:66|251:110|173:196|173:196|230:264|139:337,2,402.000015335084
491,224,234006,2,0,P|428:162|283:148,1,201.000007667542
26,334,234230,5,0,0:0:0:0:
499,305,234454,1,0,0:0:0:0:
0,73,234678,1,0,0:0:0:0:
499,305,234901,1,0,0:0:0:0:
101,230,235125,5,0,0:0:0:0:
292,172,235237,1,0,0:0:0:0:
101,230,235349,1,0,0:0:0:0:
424,40,235573,1,0,0:0:0:0:
424,40,235797,1,0,0:0:0:0:
50,133,236021,5,0,0:0:0:0:
230,263,236133,2,0,B|147:162|139:117|139:117|76:107|44:36|44:36|26:125|89:202,1,402.000015335084
123,267,236469,1,0,0:0:0:0:
258,337,236581,1,0,0:0:0:0:
407,325,236692,1,0,0:0:0:0:
111,39,236916,6,0,P|87:111|45:179,1,134
256,345,237140,2,0,P|280:273|322:205,1,134
401,39,237364,2,0,P|377:111|335:179,1,134
401,345,237812,6,0,P|425:273|467:205,1,134
256,39,238036,2,0,P|232:111|190:179,1,134
111,345,238260,2,0,P|135:273|177:205,1,134
483,81,238707,5,0,0:0:0:0:
350,68,238819,1,0,0:0:0:0:
456,104,238931,1,0,0:0:0:0:
374,45,239043,1,0,0:0:0:0:
449,238,239155,2,0,P|397:183|395:105,1,134
257,38,239603,6,0,P|260:113|278:168,1,134
157,123,239827,2,0,P|197:186|240:225,1,120.59999631958
103,237,240051,2,0,P|169:271|226:283,1,107.2
107,359,240275,2,0,P|181:356|237:338,1,107.2
200,280,240498,5,0,0:0:0:0:
200,280,240610,1,0,0:0:0:0:
200,280,240722,1,0,0:0:0:0:
200,280,240834,1,0,0:0:0:0:
200,280,240946,2,0,P|149:263|73:211,1,134
360,196,241394,5,0,0:0:0:0:
360,196,241506,1,0,0:0:0:0:
360,196,241618,1,0,0:0:0:0:
360,196,241730,1,0,0:0:0:0:
360,196,241842,2,0,P|371:248|363:340,1,134
207,99,242290,6,0,P|247:63|331:24,1,134
200,280,242513,1,0,0:0:0:0:
360,196,242737,2,0,P|371:248|363:340,1,134
207,99,242960,1,0,0:0:0:0:
200,280,243185,6,0,P|149:263|72:210,1,134
82,219,243633,1,0,0:0:0:0:
200,280,243745,1,0,0:0:0:0:
332,273,243857,1,0,0:0:0:0:
442,200,243969,1,0,0:0:0:0:
500,81,244081,6,0,B|391:66|391:66|347:35,1,134
371,52,244304,1,0,0:0:0:0:
12,81,244528,2,0,B|121:66|121:66|165:35,1,134
140,52,244751,1,0,0:0:0:0:
411,278,244976,6,0,B|309:235|309:235|275:194,1,134
452,352,245199,1,0,0:0:0:0:
100,278,245424,2,0,B|202:235|202:235|236:194,1,134
60,352,245647,1,0,0:0:0:0:
326,136,245872,6,0,L|304:39,1,67
241,94,246095,6,0,L|146:63,1,80.3999975463868
154,152,246319,6,0,L|80:217,1,93.7999971374513
162,266,246543,6,0,L|185:371,1,107.2
275,321,246767,6,0,L|396:358,1,120.59999631958
390,244,246991,6,0,L|489:151,1,134
380,91,247215,6,0,L|338:-87,1,147.400004498291
229,19,247439,6,0,L|72:-28,1,160.799995092774
283,365,247663,6,0,L|438:412,1,160.799995092774
436,412,248558,6,0,L|283:365,1,160.799995092774
283,365,249454,6,0,L|-28:461,1,321.599990185547
238,28,251245,6,0,P|101:136|29:212,1,268
164,367,251581,2,0,L|138:86,1,268
283,132,251916,2,0,L|267:303,1,134
423,205,252140,2,0,B|375:170|387:85|529:48|597:215|477:276|321:337|252:308,1,402
116,102,252588,2,0,B|127:49|204:44|210:102|210:102|206:185|138:228|138:228|29:189|19:136|19:136|11:86|80:66|115:105,1,536
374,333,253260,5,0,0:0:0:0:
374,333,253484,2,0,P|452:244|467:160,1,134
141,44,253707,1,0,0:0:0:0:
141,44,253819,6,0,L|196:337,1,268
365,138,254155,2,0,P|268:106|204:116,1,134
63,277,254379,2,0,P|160:309|224:299,1,134
364,287,254603,1,0,0:0:0:0:
364,287,254827,6,0,L|314:23,1,268
63,277,255275,2,0,P|160:309|224:299,1,134
141,44,255498,1,0,0:0:0:0:
141,44,255610,6,0,L|196:337,1,268
365,138,255946,2,0,P|268:106|204:116,1,134
63,277,256170,2,0,P|160:309|224:299,1,134
364,287,256394,1,0,0:0:0:0:
469,68,256618,6,0,L|154:119,1,268
364,287,257066,2,0,P|409:210|403:139,1,134
43,173,257290,1,0,0:0:0:0:
43,173,257401,2,2,L|358:224,1,268
410,167,257737,2,0,P|402:232|364:287,1,134
243,346,257961,2,0,P|177:338|123:299,1,134
269,38,258185,2,0,P|334:45|388:84,1,134
439,338,258409,5,0,0:0:0:0:
121,100,258633,1,0,0:0:0:0:
410,167,258857,1,0,0:0:0:0:
200,272,258969,1,0,0:0:0:0:
410,167,259192,2,0,B|291:156|291:156|185:289,1,268
410,343,259528,6,0,P|453:182|386:24,1,268
309,0,259752,2,0,P|148:26|45:163,1,268
48,249,259976,2,0,P|166:367|336:388,1,268
512,58,260200,5,0,0:0:0:0:
35,170,260424,1,0,0:0:0:0:
451,173,260648,2,0,L|214:114,1,201.000007667542
66,274,260872,1,0,0:0:0:0:
161,319,260984,6,0,P|329:252|271:31,1,402.000015335084
48,29,261319,2,0,B|81:186|81:186|127:219,1,201.000007667542
279,317,261543,2,0,L|510:281,1,201.000007667542
214,14,261767,1,0,0:0:0:0:
66,274,261991,5,0,0:0:0:0:
512,206,262215,1,0,0:0:0:0:
153,142,262439,1,0,0:0:0:0:
477,286,262551,2,0,L|423:66,1,201.000007667542
111,34,262775,6,0,B|52:340|52:340|178:261,1,402.000015335084
186,350,263110,2,0,L|407:214,1,201.000007667542
196,66,263334,2,0,L|-58:118,1,201.000007667542
454,354,263558,6,0,P|350:79|143:-2,1,402.000015335084
111,34,263782,6,0,P|98:202|253:119,1,402.000015335084
392,25,264230,2,0,L|118:82,1,201.000007667542
25,344,264454,1,0,0:0:0:0:
25,344,264566,6,0,L|418:262,1,402.000015335084
111,34,264901,2,0,B|82:187|82:187|151:173,1,201.000007667542
505,129,265125,2,0,P|419:61|278:32,1,201.000007667542
29,257,265349,1,0,0:0:0:0:
444,347,265573,5,0,0:0:0:0:
111,34,265797,1,0,0:0:0:0:
68,347,266021,1,0,0:0:0:0:
401,34,266133,2,0,L|444:347,1,201.000007667542
444,347,266357,1,0,0:0:0:0:
256,363,266469,1,0,0:0:0:0:
68,347,266581,1,0,0:0:0:0:
35,65,266804,1,0,0:0:0:0:
147,296,266916,1,0,0:0:0:0:
365,296,267028,1,0,0:0:0:0:
477,65,267140,1,0,0:0:0:0:
256,103,267364,6,0,B|193:129|193:129|167:192|167:192|193:253|193:253|256:279|256:279|317:253|317:253|343:192|343:192|317:129|317:129|256:103|256:103|193:129|193:129|167:192|167:192|193:253|193:253|256:279|256:279|317:253|317:253|343:192|343:192|317:129|317:129|256:103|256:103|193:129|193:129|167:192|167:192|193:253|193:253|256:279|256:279|317:253|317:253|343:192|343:192|317:129|317:129|256:103|256:103|195:79,1,1608
256,103,268707,2,0,L|253:104,1,3.35
