osu file format v14

[General]
AudioFilename: Utsuroi (Short Ver).mp3
AudioLeadIn: 0
PreviewTime: 37147
Countdown: 0
SampleSet: Normal
StackLeniency: 0.7
Mode: 1
LetterboxInBreaks: 0
WidescreenStoryboard: 0

[Editor]
Bookmarks: 9710,18941,28172,37403,69710,78941,88172
DistanceSpacing: 1
BeatDivisor: 4
GridSize: 16
TimelineZoom: 1.5

[Metadata]
Title:Utsuroi (Short Ver.)
TitleUnicode:うつろい (Short Ver.)
Artist:TrySail
ArtistUnicode:TrySail
Creator:Volta
Version:Muzukashii
Source:マギアレコード 魔法少女まどか☆マギカ外伝
Tags:Magia Record Puella Magi Madoka Magica Side Story Gaiden opening 2 op MagiReco マギレコ Video Game Version Japanese Magical Girl 麻倉もも Asakura Momo 雨宮天 Amamiya Sora 夏川椎菜 Natsukawa Shiina anime
BeatmapID:2269171
BeatmapSetID:1084794

[Difficulty]
HPDrainRate:6
CircleSize:5
OverallDifficulty:5
ApproachRate:5
SliderMultiplier:1.4
SliderTickRate:1

[Events]
//Background and Video events
0,0,"Irohahhaha.jpg",0,50
//Break Periods
//Storyboard Layer 0 (Background)
//Storyboard Layer 1 (Fail)
//Storyboard Layer 2 (Pass)
//Storyboard Layer 3 (Foreground)
//Storyboard Layer 4 (Overlay)
//Storyboard Sound Samples

[TimingPoints]
224,288.461538461538,4,1,0,70,1,0
224,-100,4,1,0,70,0,0
9454,-100,4,1,0,80,0,0
37147,-100,4,1,0,90,0,1
69454,-100,4,1,0,80,0,0

[HitObjects]
161,91,224,5,4,0:0:0:0:
161,91,800,1,8,0:0:0:0:
161,91,1089,1,0,0:0:0:0:
161,91,1377,1,0,0:0:0:0:
161,91,1954,1,8,0:0:0:0:
161,91,2243,1,8,0:0:0:0:
161,91,2531,1,0,0:0:0:0:
161,91,3108,1,0,0:0:0:0:
182,95,3397,1,8,0:0:0:0:
182,95,3685,1,0,0:0:0:0:
182,95,4262,1,0,0:0:0:0:
182,95,4550,1,8,0:0:0:0:
182,95,4839,1,8,0:0:0:0:
167,135,5416,1,0,0:0:0:0:
167,135,5704,1,8,0:0:0:0:
167,135,5993,1,0,0:0:0:0:
174,111,6570,1,8,0:0:0:0:
174,111,6858,1,8,0:0:0:0:
174,111,7147,1,8,0:0:0:0:
176,128,7723,1,8,0:0:0:0:
63,122,8012,1,0,0:0:0:0:
176,111,8300,1,8,0:0:0:0:
206,129,8445,1,0,0:0:0:0:
206,129,8589,1,0,0:0:0:0:
235,81,8733,1,8,0:0:0:0:
235,81,8877,1,0,0:0:0:0:
199,142,8949,1,0,0:0:0:0:
243,75,9022,1,0,0:0:0:0:
319,133,9166,1,8,0:0:0:0:
321,122,9454,1,4,0:0:0:0:
90,127,10031,1,8,0:0:0:0:
90,127,10175,1,8,0:0:0:0:
90,127,10320,1,0,0:0:0:0:
115,138,10608,1,0,0:0:0:0:
181,144,10897,1,8,0:0:0:0:
181,144,11041,1,0,0:0:0:0:
181,144,11185,1,8,0:0:0:0:
126,147,11329,1,8,0:0:0:0:
181,144,11473,1,0,0:0:0:0:
152,120,11762,1,0,0:0:0:0:
166,153,12050,1,8,0:0:0:0:
168,50,12339,1,8,0:0:0:0:
168,50,12483,1,0,0:0:0:0:
168,50,12627,1,8,0:0:0:0:
99,124,12916,1,0,0:0:0:0:
294,135,13060,1,8,0:0:0:0:
285,136,13204,1,0,0:0:0:0:
54,137,13348,1,8,0:0:0:0:
85,114,13493,1,8,0:0:0:0:
214,111,13781,1,8,0:0:0:0:
221,109,14070,1,0,0:0:0:0:
126,137,14647,1,0,0:0:0:0:
126,137,14791,1,0,0:0:0:0:
126,138,14935,1,8,0:0:0:0:
187,137,15223,1,0,0:0:0:0:
175,83,15512,1,0,0:0:0:0:
175,83,15656,1,8,0:0:0:0:
112,104,15800,1,8,0:0:0:0:
138,105,15945,1,0,0:0:0:0:
77,122,16089,1,8,0:0:0:0:
138,105,16377,1,0,0:0:0:0:
186,120,16666,1,8,0:0:0:0:
55,125,16954,1,8,0:0:0:0:
55,125,17098,1,0,0:0:0:0:
55,125,17243,1,8,0:0:0:0:
92,126,17531,1,8,0:0:0:0:
92,126,17675,1,0,0:0:0:0:
239,72,17820,1,0,0:0:0:0:
205,112,17964,1,8,0:0:0:0:
205,112,18108,1,8,0:0:0:0:
222,119,18252,1,0,0:0:0:0:
235,80,18397,1,8,0:0:0:0:
146,160,18469,1,8,0:0:0:0:
151,158,18541,1,8,0:0:0:0:
257,205,18685,5,4,0:0:0:0:
121,124,19262,1,0,0:0:0:0:
121,124,19550,1,0,0:0:0:0:
48,146,19695,1,0,0:0:0:0:
83,123,19839,1,8,0:0:0:0:
121,124,20127,1,8,0:0:0:0:
121,124,20416,1,8,0:0:0:0:
162,103,20560,1,0,0:0:0:0:
121,124,20704,1,8,0:0:0:0:
121,124,20993,1,0,0:0:0:0:
126,123,21281,1,0,0:0:0:0:
56,135,21570,1,8,0:0:0:0:
184,104,21714,1,8,0:0:0:0:
126,123,21858,1,0,0:0:0:0:
126,123,22147,1,8,0:0:0:0:
237,138,22291,1,0,0:0:0:0:
203,137,22435,1,8,0:0:0:0:
201,95,22579,1,8,0:0:0:0:
303,211,22651,1,8,0:0:0:0:
135,111,22723,1,8,0:0:0:0:
135,111,22868,1,0,0:0:0:0:
81,182,23012,1,8,0:0:0:0:
148,66,23300,1,0,0:0:0:0:
148,66,23877,1,0,0:0:0:0:
148,66,24166,1,0,0:0:0:0:
112,138,24310,1,0,0:0:0:0:
148,66,24454,1,8,0:0:0:0:
148,66,24743,1,8,0:0:0:0:
148,66,25031,1,8,0:0:0:0:
128,131,25175,1,0,0:0:0:0:
82,158,25320,1,8,0:0:0:0:
148,66,25608,1,0,0:0:0:0:
87,123,25752,1,0,0:0:0:0:
115,129,25897,1,8,0:0:0:0:
154,188,26041,1,8,0:0:0:0:
99,161,26113,1,8,0:0:0:0:
99,161,26185,1,8,0:0:0:0:
99,161,26329,1,0,0:0:0:0:
99,161,26473,1,8,0:0:0:0:
147,151,26762,1,0,0:0:0:0:
155,135,27050,1,0,0:0:0:0:
298,153,27195,1,8,0:0:0:0:
111,162,27339,1,0,0:0:0:0:
107,144,27627,1,8,0:0:0:0:
172,126,27699,1,8,0:0:0:0:
134,135,27772,1,8,0:0:0:0:
154,75,27916,1,4,0:0:0:0:
63,142,28204,1,8,0:0:0:0:
63,142,28348,1,8,0:0:0:0:
63,142,28493,1,0,0:0:0:0:
141,155,28637,1,0,0:0:0:0:
141,155,28781,1,0,0:0:0:0:
168,153,29070,1,0,0:0:0:0:
199,145,29647,1,8,0:0:0:0:
189,86,29935,1,0,0:0:0:0:
13,168,30079,1,0,0:0:0:0:
199,145,30223,1,12,0:0:0:0:
186,73,30512,1,8,0:0:0:0:
186,73,30656,1,8,0:0:0:0:
186,73,30800,1,0,0:0:0:0:
186,73,30945,1,0,0:0:0:0:
186,73,31089,1,0,0:0:0:0:
122,152,31377,1,0,0:0:0:0:
134,79,31666,1,8,0:0:0:0:
100,160,31810,1,8,0:0:0:0:
76,160,31954,1,0,0:0:0:0:
174,149,32243,1,0,0:0:0:0:
174,149,32531,1,12,0:0:0:0:
170,143,32820,1,8,0:0:0:0:
170,143,32964,1,8,0:0:0:0:
170,143,33108,1,0,0:0:0:0:
170,143,33252,1,0,0:0:0:0:
170,143,33397,1,0,0:0:0:0:
170,143,33685,1,0,0:0:0:0:
170,143,34262,1,8,0:0:0:0:
170,143,34550,1,0,0:0:0:0:
85,178,34695,1,0,0:0:0:0:
143,127,34839,1,12,0:0:0:0:
170,143,35127,1,0,0:0:0:0:
143,127,35272,1,12,0:0:0:0:
170,143,35560,1,0,0:0:0:0:
170,143,35704,1,8,0:0:0:0:
143,127,35848,1,4,0:0:0:0:
152,108,36137,1,0,0:0:0:0:
152,108,36281,1,0,0:0:0:0:
82,132,36425,1,0,0:0:0:0:
151,108,36570,1,12,0:0:0:0:
148,127,37147,1,4,0:0:0:0:
110,154,37435,1,8,0:0:0:0:
138,173,37579,1,0,0:0:0:0:
87,118,37723,1,8,0:0:0:0:
78,149,37868,1,0,0:0:0:0:
57,149,38012,1,8,0:0:0:0:
59,144,38156,1,8,0:0:0:0:
143,140,38300,1,0,0:0:0:0:
105,137,38589,1,8,0:0:0:0:
115,149,38733,1,0,0:0:0:0:
215,139,39022,1,0,0:0:0:0:
31,158,39166,1,8,0:0:0:0:
110,138,39310,1,0,0:0:0:0:
215,139,39454,1,8,0:0:0:0:
108,144,39526,1,8,0:0:0:0:
146,141,39598,1,8,0:0:0:0:
112,137,39743,1,0,0:0:0:0:
93,97,39887,1,8,0:0:0:0:
75,184,40175,1,8,0:0:0:0:
89,160,40320,1,0,0:0:0:0:
121,106,40464,1,8,0:0:0:0:
142,114,40608,1,0,0:0:0:0:
159,123,40897,1,8,0:0:0:0:
79,164,41041,1,8,0:0:0:0:
217,133,41185,1,0,0:0:0:0:
184,146,41329,1,8,0:0:0:0:
179,161,41473,1,0,0:0:0:0:
180,159,41546,1,0,0:0:0:0:
246,173,41618,1,0,0:0:0:0:
232,160,41762,1,8,0:0:0:0:
276,123,42050,1,8,0:0:0:0:
196,136,42195,1,0,0:0:0:0:
48,144,42627,1,8,0:0:0:0:
39,148,42916,1,0,0:0:0:0:
190,160,43204,1,8,0:0:0:0:
190,160,43348,1,8,0:0:0:0:
190,160,43493,1,0,0:0:0:0:
175,68,43637,1,0,0:0:0:0:
163,128,43781,1,8,0:0:0:0:
98,137,44070,1,8,0:0:0:0:
189,131,44358,1,8,0:0:0:0:
201,120,44502,1,0,0:0:0:0:
134,132,44791,1,0,0:0:0:0:
134,132,44935,1,8,0:0:0:0:
116,137,45079,1,0,0:0:0:0:
103,153,45223,1,0,0:0:0:0:
99,136,45296,1,0,0:0:0:0:
105,141,45368,1,0,0:0:0:0:
103,153,45512,1,8,0:0:0:0:
103,153,45656,1,8,0:0:0:0:
99,143,46089,1,8,0:0:0:0:
208,66,46377,1,4,0:0:0:0:
205,128,46666,1,8,0:0:0:0:
214,100,46810,1,0,0:0:0:0:
202,151,46954,1,8,0:0:0:0:
134,142,47243,1,8,0:0:0:0:
134,142,47387,1,8,0:0:0:0:
134,142,47531,1,0,0:0:0:0:
178,130,47820,1,8,0:0:0:0:
128,139,47964,1,0,0:0:0:0:
225,137,48252,1,0,0:0:0:0:
175,125,48397,1,8,0:0:0:0:
175,125,48541,1,0,0:0:0:0:
175,125,48685,1,8,0:0:0:0:
10,140,48757,1,8,0:0:0:0:
178,130,48829,1,8,0:0:0:0:
112,137,48973,1,0,0:0:0:0:
93,97,49118,1,8,0:0:0:0:
114,144,49406,1,8,0:0:0:0:
73,139,49550,1,0,0:0:0:0:
121,106,49695,1,8,0:0:0:0:
142,114,49839,1,0,0:0:0:0:
159,123,50127,1,8,0:0:0:0:
79,164,50272,1,8,0:0:0:0:
194,187,50416,1,0,0:0:0:0:
184,146,50560,1,8,0:0:0:0:
246,139,50704,1,0,0:0:0:0:
73,142,50776,1,0,0:0:0:0:
249,140,50848,1,0,0:0:0:0:
232,160,50993,1,8,0:0:0:0:
228,91,51570,1,0,0:0:0:0:
228,91,51858,1,8,0:0:0:0:
148,152,52002,1,0,0:0:0:0:
148,152,52147,1,8,0:0:0:0:
169,152,52435,1,8,0:0:0:0:
172,149,52579,1,8,0:0:0:0:
168,149,52723,1,0,0:0:0:0:
168,149,52868,1,8,0:0:0:0:
281,86,53012,1,0,0:0:0:0:
281,86,53300,1,8,0:0:0:0:
140,128,53589,1,8,0:0:0:0:
146,140,53733,1,0,0:0:0:0:
90,165,53805,1,0,0:0:0:0:
90,165,53877,1,0,0:0:0:0:
192,134,54022,1,0,0:0:0:0:
330,130,54310,1,4,0:0:0:0:
212,90,54598,1,0,0:0:0:0:
212,90,54743,1,8,0:0:0:0:
212,90,54887,1,12,0:0:0:0:
110,162,55464,1,4,0:0:0:0:
163,155,55752,1,0,0:0:0:0:
163,155,55897,1,8,0:0:0:0:
163,155,56185,1,8,0:0:0:0:
163,155,56329,1,8,0:0:0:0:
163,155,56473,1,0,0:0:0:0:
163,155,56618,1,12,0:0:0:0:
163,155,56906,1,0,0:0:0:0:
136,140,57050,1,8,0:0:0:0:
161,127,57195,1,0,0:0:0:0:
161,127,57339,1,8,0:0:0:0:
161,127,57627,1,8,0:0:0:0:
161,127,57772,1,4,0:0:0:0:
155,137,58060,1,0,0:0:0:0:
155,137,58204,1,8,0:0:0:0:
154,137,58493,1,8,0:0:0:0:
122,146,58637,1,0,0:0:0:0:
225,68,58781,1,0,0:0:0:0:
122,146,58925,1,12,0:0:0:0:
218,122,59358,1,8,0:0:0:0:
214,105,59502,1,0,0:0:0:0:
236,97,59647,1,8,0:0:0:0:
239,98,59935,1,8,0:0:0:0:
211,122,60079,1,4,0:0:0:0:
228,131,60368,1,0,0:0:0:0:
232,141,60512,1,8,0:0:0:0:
232,141,60800,1,8,0:0:0:0:
232,141,60945,1,8,0:0:0:0:
232,141,61089,1,0,0:0:0:0:
169,95,61233,1,12,0:0:0:0:
174,126,61522,1,0,0:0:0:0:
155,113,61666,1,8,0:0:0:0:
170,127,61954,1,8,0:0:0:0:
135,104,62098,1,0,0:0:0:0:
167,125,62243,1,8,0:0:0:0:
199,89,62387,1,4,0:0:0:0:
143,116,62820,1,8,0:0:0:0:
225,123,62964,1,0,0:0:0:0:
143,116,63108,1,8,0:0:0:0:
143,46,63252,1,0,0:0:0:0:
143,116,63397,1,8,0:0:0:0:
143,116,63685,5,8,0:0:0:0:
143,116,63973,1,8,0:0:0:0:
143,46,64118,1,0,0:0:0:0:
143,116,64262,1,8,0:0:0:0:
143,46,64406,1,0,0:0:0:0:
143,116,64550,1,0,0:0:0:0:
199,92,64695,5,12,0:0:0:0:
265,149,64983,1,8,0:0:0:0:
265,149,65127,1,8,0:0:0:0:
79,171,65272,1,0,0:0:0:0:
132,169,65416,1,8,0:0:0:0:
55,149,65704,5,0,0:0:0:0:
132,177,65848,1,8,0:0:0:0:
132,177,66137,1,8,0:0:0:0:
161,144,66281,1,8,0:0:0:0:
132,177,66425,1,0,0:0:0:0:
161,144,66570,1,8,0:0:0:0:
132,177,66858,1,8,0:0:0:0:
106,148,66930,1,8,0:0:0:0:
132,177,67002,1,8,0:0:0:0:
208,167,67147,5,4,0:0:0:0:
208,167,67723,1,4,0:0:0:0:
208,167,68300,1,4,0:0:0:0:
230,142,68445,1,8,0:0:0:0:
230,142,68589,1,8,0:0:0:0:
119,69,68877,1,0,0:0:0:0:
221,141,69454,1,4,0:0:0:0:
181,111,69743,1,8,0:0:0:0:
181,111,69887,1,8,0:0:0:0:
229,94,70031,1,0,0:0:0:0:
229,94,70175,1,8,0:0:0:0:
229,94,70320,1,0,0:0:0:0:
229,94,70608,1,0,0:0:0:0:
92,134,70897,1,8,0:0:0:0:
92,134,71041,1,0,0:0:0:0:
187,110,71185,1,8,0:0:0:0:
187,110,71329,1,8,0:0:0:0:
187,110,71473,1,0,0:0:0:0:
195,107,71762,1,0,0:0:0:0:
250,138,71906,1,0,0:0:0:0:
91,162,72050,1,8,0:0:0:0:
91,162,72339,1,8,0:0:0:0:
91,162,72483,1,0,0:0:0:0:
97,126,72627,1,8,0:0:0:0:
97,126,72916,1,0,0:0:0:0:
195,107,73204,1,8,0:0:0:0:
195,107,73348,1,8,0:0:0:0:
195,107,73493,1,0,0:0:0:0:
195,107,73637,1,0,0:0:0:0:
195,107,73781,1,8,0:0:0:0:
190,91,74070,1,0,0:0:0:0:
164,107,74647,1,8,0:0:0:0:
164,107,74791,1,8,0:0:0:0:
164,107,74935,1,0,0:0:0:0:
87,133,75223,1,0,0:0:0:0:
129,139,75512,1,0,0:0:0:0:
110,103,75656,1,0,0:0:0:0:
106,167,75800,1,8,0:0:0:0:
1,154,75945,1,0,0:0:0:0:
106,167,76089,1,8,0:0:0:0:
192,57,76377,5,0,0:0:0:0:
66,131,76666,1,8,0:0:0:0:
66,131,76810,1,0,0:0:0:0:
221,67,76954,1,8,0:0:0:0:
226,63,77098,1,8,0:0:0:0:
225,64,77243,1,0,0:0:0:0:
197,131,77531,5,12,0:0:0:0:
122,152,77820,1,8,0:0:0:0:
122,152,77964,1,0,0:0:0:0:
128,149,78108,1,0,0:0:0:0:
166,117,78180,1,0,0:0:0:0:
166,117,78252,1,0,0:0:0:0:
166,117,78397,1,8,0:0:0:0:
75,151,78469,1,8,0:0:0:0:
166,117,78541,1,8,0:0:0:0:
166,117,78685,1,4,0:0:0:0:
267,159,78973,1,8,0:0:0:0:
247,108,79262,1,8,0:0:0:0:
126,158,79406,1,0,0:0:0:0:
247,108,79550,1,8,0:0:0:0:
262,103,79695,1,4,0:0:0:0:
134,157,80127,1,8,0:0:0:0:
227,87,80416,1,8,0:0:0:0:
165,170,80560,1,0,0:0:0:0:
165,170,80704,1,8,0:0:0:0:
241,118,80993,5,12,0:0:0:0:
229,115,81281,1,8,0:0:0:0:
86,123,81570,1,8,0:0:0:0:
86,123,81714,1,0,0:0:0:0:
86,123,81858,1,8,0:0:0:0:
241,118,82002,1,4,0:0:0:0:
191,140,82291,1,0,0:0:0:0:
191,140,82579,1,8,0:0:0:0:
70,169,83012,1,12,0:0:0:0:
214,80,83300,5,4,0:0:0:0:
188,53,83589,1,0,0:0:0:0:
214,80,83733,1,8,0:0:0:0:
92,170,84022,1,0,0:0:0:0:
214,80,84166,1,8,0:0:0:0:
74,140,84310,1,8,0:0:0:0:
183,57,84454,1,0,0:0:0:0:
214,80,84598,1,8,0:0:0:0:
112,122,84887,1,0,0:0:0:0:
214,80,85031,1,8,0:0:0:0:
206,138,85175,1,8,0:0:0:0:
121,118,85320,1,0,0:0:0:0:
192,143,85464,5,8,0:0:0:0:
190,108,85536,1,8,0:0:0:0:
208,48,85608,1,8,0:0:0:0:
257,166,85752,1,0,0:0:0:0:
257,166,85897,1,8,0:0:0:0:
290,134,86041,1,0,0:0:0:0:
25,148,86329,1,0,0:0:0:0:
138,111,86473,1,8,0:0:0:0:
91,135,86618,1,8,0:0:0:0:
226,118,86762,1,0,0:0:0:0:
184,170,86834,1,0,0:0:0:0:
131,135,86906,1,0,0:0:0:0:
133,133,87050,1,8,0:0:0:0:
133,133,87195,1,0,0:0:0:0:
128,148,87339,1,0,0:0:0:0:
235,84,87483,1,8,0:0:0:0:
235,84,87555,1,8,0:0:0:0:
235,84,87627,1,8,0:0:0:0:
235,177,87772,5,0,0:0:0:0:
