osu file format v14

[General]
AudioFilename: audio.mp3
AudioLeadIn: 0
PreviewTime: 36580
Countdown: 0
SampleSet: Soft
StackLeniency: 0.7
Mode: 0
LetterboxInBreaks: 0
EpilepsyWarning: 1
WidescreenStoryboard: 1

[Editor]
DistanceSpacing: 1.9
BeatDivisor: 16
GridSize: 4
TimelineZoom: 2.6

[Metadata]
Title:Utsuroi (Short Ver.)
TitleUnicode:うつろい (Short Ver.)
Artist:TrySail
ArtistUnicode:TrySail
Creator:VINXIS
Version:Insane
Source:マギアレコード 魔法少女まどか☆マギカ外伝
Tags:japanese video game version magia record puella magi madoka magica side story gaiden opening 2 op magireco マギレコ magical girl 麻倉もも Asakura Momo 雨宮天 Amamiya Sora 夏川椎菜 Natsukawa Shiina anime rock jrock j-rock pop jpop j-pop captin1 RLC sakura blossom Apollo Apo11o vvcl 1633 1634 vvcl-1633 vvcl-1634
BeatmapID:2777736
BeatmapSetID:1340905

[Difficulty]
HPDrainRate:6
CircleSize:4
OverallDifficulty:9
ApproachRate:9
SliderMultiplier:1.7
SliderTickRate:1

[Events]
//Background and Video events
0,0,"81003704_p01.jpg",0,0
Video,0,"video.mp4"
//Break Periods
//Storyboard Layer 0 (Background)
//Storyboard Layer 1 (Fail)
//Storyboard Layer 2 (Pass)
//Storyboard Layer 3 (Foreground)
//Storyboard Layer 4 (Overlay)
//Storyboard Sound Samples

[TimingPoints]
221,288.461538461538,4,2,1,60,1,0
18682,-125,4,2,1,60,0,0
27913,-100,4,2,1,60,0,0
36134,-83.3333333333333,4,2,1,80,0,0
37144,-66.6666666666667,4,2,1,80,0,0
55461,-57.1428571428571,4,2,1,80,0,0
64692,-50,4,2,1,80,0,0
69451,-100,4,2,1,60,0,0
78682,-66.6666666666667,4,2,1,80,0,0
86759,-100,4,2,1,80,0,0

[Colours]
Combo1 : 17,254,176
Combo2 : 173,255,95
Combo3 : 255,88,100
Combo4 : 255,94,55

[HitObjects]
23,299,9451,6,0,P|114:299|196:287,1,170,4|8,1:2|0:1,0:0:0:0:
277,322,9884,1,0,0:0:0:0:
339,254,10028,2,0,L|335:156,1,85
433,274,10317,2,0,L|436:358,1,85,8|0,0:1|0:0,0:0:0:0:
512,203,10605,5,2,0:0:0:0:
464,126,10749,1,0,0:0:0:0:
512,50,10894,1,8,0:1:0:0:
512,50,11038,1,0,0:0:0:0:
512,203,11182,2,0,L|403:212,1,85,2|0,0:0|0:0,0:0:0:0:
314,154,11470,1,8,1:0:0:0:
392,89,11614,1,0,1:0:0:0:
345,0,11759,5,0,1:0:0:0:
345,0,12047,2,0,P|353:84|343:168,1,170,8|0,0:1|0:0,0:0:0:0:
243,191,12480,1,0,0:0:0:0:
148,156,12624,2,0,L|35:165,1,85,8|0,0:1|0:0,0:0:0:0:
0,246,12913,5,2,0:0:0:0:
106,253,13057,1,0,0:0:0:0:
67,167,13201,1,8,0:1:0:0:
67,167,13345,1,0,0:0:0:0:
9,95,13490,2,0,L|24:-7,2,85,2|0|8,0:0|0:0|0:1,0:0:0:0:
159,125,13922,1,0,1:0:0:0:
215,220,14067,6,0,P|325:227|434:212,1,170,0|8,1:0|0:1,0:0:0:0:
401,113,14499,1,0,0:0:0:0:
295,111,14644,2,0,P|304:171|321:225,1,85
472,264,14932,2,0,P|463:204|446:150,1,85,8|0,0:1|0:0,0:0:0:0:
507,110,15220,5,2,0:0:0:0:
414,81,15365,1,0,0:0:0:0:
319,98,15509,1,8,0:1:0:0:
227,64,15653,1,0,0:0:0:0:
148,72,15797,2,0,P|131:170|140:264,1,170,2|8,0:0|0:1,0:0:0:0:
201,292,16230,1,0,0:0:0:0:
18,325,16374,6,0,P|14:240|30:157,1,170,0|8,1:0|0:1,0:0:0:0:
62,83,16807,1,0,0:0:0:0:
136,240,16951,2,0,P|93:240|51:239,1,85
142,140,17240,2,0,P|184:140|226:139,1,85,8|0,0:1|0:0,0:0:0:0:
308,242,17528,5,2,0:0:0:0:
348,129,17672,1,0,0:0:0:0:
288,26,17817,1,8,0:1:0:0:
248,139,17961,1,0,0:0:0:0:
213,230,18105,2,0,L|178:235,8,21.25,2|0|0|0|0|0|0|0|8,0:0|0:0|0:0|0:0|0:0|0:0|0:0|0:0|0:1,0:0:0:0:
65,46,18682,6,0,P|68:90|77:127,1,68,4|0,1:2|0:0,0:0:0:0:
156,120,18970,2,0,P|200:123|238:129,1,68,0|0,1:2|0:0,0:0:0:0:
314,86,19259,1,0,1:0:0:0:
260,20,19403,1,0,0:0:0:0:
314,86,19547,2,0,P|311:143|313:167,1,68,0|0,1:0|0:0,0:0:0:0:
320,232,19836,6,0,P|365:238|402:239,1,68,0|0,1:0|0:0,0:0:0:0:
259,288,20124,2,0,P|214:294|178:294,1,68,0|0,1:0|0:0,0:0:0:0:
127,357,20413,1,0,1:0:0:0:
106,263,20557,1,0,0:0:0:0:
136,173,20701,1,0,1:0:0:0:
136,173,20845,1,2,0:3:0:0:
127,357,20990,6,0,P|82:361|47:356,1,68,0|0,1:0|0:0,0:0:0:0:
0,250,21278,2,0,P|42:248|78:252,1,68,0|0,1:0|0:0,0:0:0:0:
171,188,21567,1,0,1:0:0:0:
111,93,21711,1,0,0:0:0:0:
177,4,21855,1,0,1:0:0:0:
321,334,22144,6,0,P|337:243|331:192,1,136,0|0,1:0|1:0,0:0:0:0:
486,97,22576,1,0,0:0:0:0:
486,97,22720,2,0,L|479:174,1,68,0|0,1:0|0:0,0:0:0:0:
447,324,23009,1,0,1:0:0:0:
420,238,23153,1,2,0:3:0:0:
333,243,23297,6,0,P|265:234|197:230,1,136,0|0,1:0|1:0,0:0:0:0:
115,242,23730,1,0,0:0:0:0:
146,323,23874,1,0,1:0:0:0:
99,160,24019,1,0,0:0:0:0:
9,302,24163,1,0,1:0:0:0:
1,211,24307,6,0,P|4:160|9:134,1,68,0|0,0:0|1:0,0:0:0:0:
64,76,24595,1,0,0:0:0:0:
155,51,24740,2,0,P|211:44|233:42,1,68,0|0,1:0|0:0,0:0:0:0:
300,74,25028,1,0,1:0:0:0:
267,161,25172,1,0,0:0:0:0:
319,237,25317,1,0,1:0:0:0:
319,237,25461,1,2,0:3:0:0:
299,74,25605,6,0,P|333:73|367:74,1,68,0|0,1:0|0:3,0:3:0:0:
495,184,25894,2,0,P|452:183|416:181,1,68,0|0,1:0|0:3,0:3:0:0:
326,258,26182,1,0,1:0:0:0:
421,329,26326,1,0,0:0:0:0:
312,384,26470,1,0,1:0:0:0:
195,31,26759,6,0,P|181:109|181:142,2,102,0|0|0,1:0|0:0|0:0,0:0:0:0:
113,0,27336,2,0,P|97:51|91:143,1,136,0|0,1:0|1:0,0:0:0:0:
204,333,27769,1,2,0:3:0:0:
127,290,27913,6,0,L|139:189,1,85,6|0,1:2|0:0,0:0:0:0:
301,155,28201,1,8,0:1:0:0:
301,155,28345,1,0,0:0:0:0:
198,64,28490,1,4,1:3:0:0:
214,173,28634,1,0,1:0:0:0:
300,240,28778,2,0,P|364:232|393:226,1,85,0|0,1:0|0:0,0:0:0:0:
512,299,29067,6,0,P|427:302|347:330,1,170,2|8,1:2|0:1,0:0:0:0:
0,299,29644,2,0,P|84:302|164:330,1,170,0|8,1:2|0:1,0:0:0:0:
256,364,30076,1,0,0:0:0:0:
82,320,30220,6,0,P|87:204|100:137,1,170,6|8,1:2|0:1,0:0:0:0:
11,31,30653,1,0,0:0:0:0:
11,31,30797,2,0,L|15:119,1,85,0|0,1:0|0:0,0:0:0:0:
186,248,31086,2,0,L|189:163,1,85,0|0,1:0|0:0,0:0:0:0:
263,104,31374,6,0,P|325:72|398:66,2,127.5,2|0|0,1:2|0:0|0:0,0:0:0:0:
463,153,31951,2,0,P|379:155|301:187,1,170,0|8,1:0|0:1,0:0:0:0:
23,352,32528,6,6,P|106:349|200:336,1,170,6|8,1:2|0:1,1:2:0:0:
265,275,32961,1,0,0:0:0:0:
166,223,33105,2,0,P|167:265|172:308,1,85,4|0,1:3|1:0,0:0:0:0:
257,186,33394,2,0,P|256:143|251:101,1,85,0|0,1:0|0:0,0:0:0:0:
183,48,33682,5,6,1:2:0:0:
265,275,33970,1,8,0:1:0:0:
316,37,34259,1,0,1:2:0:0:
316,37,34547,1,8,0:1:0:0:
497,262,34836,6,0,P|425:271|394:272,1,85,6|0,1:2|0:0,0:0:0:0:
345,325,35124,1,8,0:1:0:0:
512,347,35269,2,0,P|440:356|409:357,1,85,6|0,1:2|0:0,0:0:0:0:
267,369,35557,1,2,0:3:0:0:
284,259,35701,1,8,0:1:0:0:
184,292,35845,5,6,1:2:0:0:
184,292,36134,2,4,L|185:183,1,101.999996887207,12|12,0:1|0:1,0:0:0:0:
328,92,36422,2,0,L|329:201,1,101.999996887207,8|4,0:1|0:2,0:0:0:0:
329,194,36999,1,0,0:0:0:0:
17,91,37144,6,0,P|11:156|13:232,1,127.500004863739,6|0,1:2|0:0,0:0:0:0:
69,283,37432,1,8,0:1:0:0:
145,242,37576,2,0,P|211:222|284:214,1,127.500004863739,2|2,1:2|0:1,0:0:0:0:
355,253,37865,1,0,1:0:0:0:
245,340,38009,2,0,P|179:360|106:368,1,127.500004863739,0|2,0:0|0:1,0:0:0:0:
55,313,38297,6,0,P|36:230|18:55,1,255.000009727478,0|8,1:2|0:1,0:0:0:0:
97,28,38730,2,0,P|186:18|356:13,1,255.000009727478,0|0,1:2|0:0,0:0:0:0:
365,111,39163,2,0,P|317:119|222:130,1,127.500004863739,8|0,0:1|0:0,0:0:0:0:
160,236,39451,6,0,L|294:224,1,127.500004863739,2|0,1:2|0:0,0:0:0:0:
493,373,39740,1,8,0:1:0:0:
493,373,39884,2,0,L|366:384,1,127.500004863739,2|2,1:2|0:1,0:0:0:0:
43,331,40172,2,0,P|169:319|295:336,1,255.000009727478,0|2,0:1|0:1,0:0:0:0:
388,333,40605,6,8,P|395:258|381:76,1,255.000009727478,0|8,1:0|0:1,0:1:0:0:
474,2,41038,2,0,L|486:135,1,127.500004863739,0|0,1:0|0:0,0:0:0:0:
262,113,41326,2,0,L|274:246,2,127.500004863739,0|8|0,1:0|0:1|0:0,0:0:0:0:
194,269,41759,5,2,1:2:0:0:
511,304,41903,1,0,0:0:0:0:
407,262,42047,1,8,0:1:0:0:
315,323,42192,1,2,1:2:0:0:
232,351,42336,2,0,P|168:356|104:358,1,127.500004863739,2|0,0:1|0:0,0:0:0:0:
14,276,42624,2,0,P|77:270|141:268,1,127.500004863739,8|2,0:1|0:1,0:0:0:0:
330,152,42913,6,0,P|208:188|82:179,1,255.000009727478,0|8,1:0|0:1,0:0:0:0:
26,96,43345,1,0,1:0:0:0:
205,31,43490,2,0,P|199:94|183:156,1,127.500004863739,2|0,0:1|1:0,0:0:0:0:
57,284,43778,2,0,P|62:220|79:159,1,127.500004863739,8|2,0:1|1:0,0:0:0:0:
26,96,44067,5,2,1:2:0:0:
330,152,44355,2,0,P|393:147|456:136,1,127.500004863739,8|2,0:1|1:2,0:0:0:0:
388,248,44644,2,0,L|262:262,1,127.500004863739,2|0,0:1|1:0,0:0:0:0:
85,304,44932,1,8,0:1:0:0:
183,321,45076,1,2,0:1:0:0:
279,290,45220,6,0,P|334:332|518:361,1,255.000009727478,0|8,1:2|0:1,0:0:0:0:
240,384,45653,2,0,P|185:342|1:313,1,255.000009727478,0|0,1:2|1:0,0:0:0:0:
256,192,46086,1,8,0:1:0:0:
256,192,46230,1,8,0:1:0:0:
256,192,46374,6,0,P|276:132|286:64,1,127.500004863739,6|0,1:2|0:0,0:0:0:0:
341,0,46663,1,8,0:1:0:0:
208,34,46807,1,2,1:2:0:0:
127,25,46951,2,0,L|-9:14,1,127.500004863739,2|0,0:1|1:0,0:0:0:0:
60,133,47240,1,8,0:1:0:0:
0,230,47384,1,2,0:1:0:0:
80,312,47528,6,0,P|171:287|324:227,1,255.000009727478,0|8,1:0|0:1,0:0:0:0:
381,275,47961,2,0,P|455:251|509:239,2,127.500004863739,0|0|0,1:0|0:0|0:0,0:0:0:0:
196,231,48394,2,0,P|191:167|189:103,1,127.500004863739,8|0,0:1|0:0,0:0:0:0:
74,134,48682,6,0,P|100:258|90:384,1,255.000009727478,2|8,1:2|0:1,0:0:0:0:
60,292,49115,2,0,P|168:312|205:322,1,127.500004863739,2|2,1:2|0:1,0:0:0:0:
307,230,49403,2,0,P|387:249|459:253,2,127.500004863739,0|8|2,1:0|0:1|0:1,0:0:0:0:
512,381,49836,6,0,L|386:360,1,127.500004863739,0|0,1:0|0:0,0:0:0:0:
180,283,50124,1,8,0:1:0:0:
259,349,50269,2,0,P|277:254|266:93,1,255.000009727478,0|0,1:0|1:0,0:0:0:0:
373,28,50701,2,0,L|379:160,1,127.500004863739,8|0,0:1|0:0,0:0:0:0:
60,292,50990,5,6,1:2:0:0:
462,223,51278,2,0,L|456:355,1,127.500004863739,8|2,0:1|1:2,0:0:0:0:
324,384,51567,2,0,P|352:301|362:244,1,127.500004863739,2|0,0:1|1:0,0:0:0:0:
186,182,51855,1,8,0:1:0:0:
228,372,51999,1,2,0:1:0:0:
134,359,52144,6,0,P|59:356|-7:359,2,127.500004863739,0|0|8,1:2|0:0|0:1,0:0:0:0:
210,282,52576,1,0,1:2:0:0:
80,172,52720,1,2,0:1:0:0:
248,106,52865,1,0,1:0:0:0:
394,200,53009,2,0,P|330:202|266:201,1,127.500004863739,8|2,0:1|0:1,0:0:0:0:
266,201,53225,1,0,0:0:0:0:
266,201,53297,5,2,1:2:0:0:
111,153,53442,1,0,0:0:0:0:
251,18,53586,1,8,0:1:0:0:
166,50,53730,2,0,L|26:33,1,127.500004863739,2|8,0:0|0:1,0:0:0:0:
346,41,54019,1,4,1:2:0:0:
346,41,54307,6,0,P|356:113|347:317,1,255.000009727478,4|0,1:2|0:0,0:0:0:0:
456,365,54740,2,0,L|446:233,1,127.500004863739,8|4,0:1|1:2,0:0:0:0:
446,237,55172,5,0,1:0:0:0:
262,292,55317,1,8,0:1:0:0:
76,240,55461,6,0,P|67:187|72:88,1,148.750001418591,6|0,1:2|0:0,0:0:0:0:
130,32,55749,1,0,1:0:0:0:
222,15,55894,2,0,P|281:10|373:19,2,148.750001418591,8|0|8,0:1|1:0|0:1,0:0:0:0:
141,63,56326,5,0,1:0:0:0:
228,143,56470,1,8,0:1:0:0:
176,256,56615,1,4,1:2:0:0:
176,256,56903,5,0,1:0:0:0:
313,120,57047,2,0,P|309:184|278:273,1,148.750001418591,8|0,0:1|1:0,0:0:0:0:
364,381,57336,2,0,L|396:235,2,148.750001418591,8|0|8,0:1|1:0|0:1,0:1:0:0:
488,233,57769,6,0,P|478:162|484:65,1,148.750001418591,6|0,1:2|0:0,0:0:0:0:
512,6,58057,1,0,1:0:0:0:
407,36,58201,2,0,P|339:27|253:27,2,148.750001418591,8|0|8,0:1|1:0|0:1,0:0:0:0:
480,85,58634,5,0,1:0:0:0:
335,146,58778,1,8,0:1:0:0:
462,247,58922,1,4,1:2:0:0:
462,247,59211,5,0,1:0:0:0:
240,279,59355,2,0,L|394:300,1,148.750001418591,8|0,0:1|1:0,0:0:0:0:
184,354,59644,2,0,P|122:316|49:307,2,148.750001418591,8|0|8,0:1|1:0|0:1,0:0:0:0:
3,241,60076,6,0,L|34:61,1,148.750001418591,6|0,1:2|0:0,0:0:0:0:
107,56,60365,1,0,1:0:0:0:
166,122,60509,2,0,L|346:153,2,148.750001418591,8|0|8,0:1|1:0|0:1,0:0:0:0:
89,27,60942,5,0,1:0:0:0:
151,222,61086,1,8,0:1:0:0:
341,147,61230,1,4,1:2:0:0:
341,147,61519,5,0,1:0:0:0:
454,41,61663,2,0,P|449:144|434:192,1,148.750001418591,8|0,0:1|1:0,0:0:0:0:
311,229,61951,5,8,0:1:0:0:
142,197,62095,1,0,1:0:0:0:
238,342,62240,1,8,0:1:0:0:
152,380,62384,5,4,1:2:0:0:
152,380,62672,1,0,1:0:0:0:
221,241,62817,1,8,0:1:0:0:
140,110,62961,1,0,1:0:0:0:
189,27,63105,2,0,P|248:11|346:7,1,148.750001418591,8|0,0:1|1:0,0:0:0:0:
488,146,63394,2,0,L|329:125,2,148.750001418591,8|0|8,0:1|1:0|0:1,0:0:0:0:
422,381,63826,5,0,1:0:0:0:
341,344,63970,2,0,P|313:220|304:192,1,148.750001418591,8|0,0:1|1:0,0:0:0:0:
338,29,64259,2,0,P|462:57|490:66,2,148.750001418591,8|0|8,0:1|1:0|0:1,0:0:0:0:
3,53,64692,6,0,P|81:78|352:110,1,340,6|0,1:2|1:0,0:0:0:0:
407,230,65124,2,0,L|234:213,1,170,8|0,0:1|0:0,0:0:0:0:
103,299,65413,1,0,1:0:0:0:
0,210,65557,1,0,1:0:0:0:
103,299,65701,1,8,0:1:0:0:
186,301,65845,6,0,P|355:314|518:378,1,340,6|0,1:2|1:0,0:0:0:0:
505,126,66278,2,0,L|332:109,1,170,8|0,0:1|0:0,0:0:0:0:
116,90,66567,1,0,1:0:0:0:
227,57,66711,1,0,1:0:0:0:
327,124,66855,2,0,P|331:188|323:295,1,170,8|0,0:1|0:0,0:0:0:0:
3,331,67144,5,4,1:2:0:0:
3,53,67720,5,4,1:2:0:0:
509,53,68297,5,4,1:2:0:0:
509,331,68874,5,0,0:0:0:0:
256,192,69451,6,0,P|260:148|260:104,1,85,6|0,1:2|0:0,0:0:0:0:
203,40,69740,2,0,P|159:36|115:36,1,85,2|0,0:3|0:0,0:0:0:0:
35,66,70028,1,0,0:0:0:0:
143,116,70172,1,0,0:0:0:0:
60,149,70317,2,0,P|56:199|56:241,1,85,2|0,0:3|0:0,0:0:0:0:
135,272,70605,6,0,P|150:313|169:357,1,85
251,322,70894,2,0,P|294:331|341:336,1,85,2|0,0:3|0:0,0:0:0:0:
417,293,71182,2,0,P|472:301|507:312,2,85,0|0|2,0:0|0:0|0:3,0:0:0:0:
411,103,71615,1,0,0:0:0:0:
357,162,71759,6,0,P|356:209|350:255,1,85,2|0,1:2|0:0,0:0:0:0:
267,254,72047,2,0,L|272:347,1,85,2|0,0:3|0:0,0:0:0:0:
149,328,72336,1,0,0:0:0:0:
168,220,72480,1,0,0:0:0:0:
249,145,72624,2,0,P|294:135|333:130,1,85,2|0,0:3|0:0,0:0:0:0:
399,52,72913,6,0,P|357:43|317:30,1,85
223,21,73201,2,0,P|177:20|131:24,1,85,2|0,0:3|0:0,0:0:0:0:
53,72,73490,2,0,P|33:39|-2:2,2,85,0|0|2,0:0|0:0|0:3,0:0:0:0:
133,253,73922,1,0,0:0:0:0:
86,189,74067,6,0,P|127:119|136:112,1,85,2|0,1:2|0:0,0:0:0:0:
211,142,74355,2,0,P|252:143|303:152,1,85,2|0,0:3|0:0,0:0:0:0:
366,107,74644,1,0,0:0:0:0:
368,200,74788,1,0,0:0:0:0:
451,151,74932,2,0,P|492:152|538:147,1,85,2|0,0:3|0:0,0:0:0:0:
447,256,75220,6,0,P|453:303|454:342,1,85,0|0,1:0|0:0,0:0:0:0:
370,347,75509,2,0,P|318:368|285:372,1,85,2|0,0:3|0:0,0:0:0:0:
207,348,75797,2,0,P|162:355|122:368,2,85,0|0|2,0:0|0:0|0:3,0:0:0:0:
315,130,76230,1,0,0:0:0:0:
265,280,76374,6,0,P|265:244|260:188,1,85,2|0,1:2|0:0,0:0:0:0:
186,145,76663,2,0,P|178:109|161:56,2,85,2|0|0,0:3|0:0|1:0,0:0:0:0:
126,219,77095,1,0,0:0:0:0:
304,122,77240,1,2,0:3:0:0:
86,104,77384,1,0,0:0:0:0:
90,14,77528,5,6,1:2:0:0:
344,237,77817,1,0,1:0:0:0:
56,353,78105,2,0,L|28:356,14,21.25,0|0|0|0|0|0|0|0|0|0|0|0|0|0|0,3:0|3:0|3:0|3:0|3:0|3:0|3:0|3:0|3:0|3:0|3:0|3:0|3:0|3:0|3:0,3:0:0:0:
74,330,78682,6,0,P|144:307|335:316,1,255.000009727478,6|8,1:2|0:1,0:0:0:0:
427,267,79115,1,0,1:0:0:0:
241,340,79259,2,0,P|221:262|217:211,2,127.500004863739,8|0|8,0:1|1:0|0:1,0:0:0:0:
512,318,79692,5,6,1:2:0:0:
21,267,79980,1,0,1:0:0:0:
21,267,80124,2,0,P|86:278|155:279,1,127.500004863739,8|0,0:1|1:0,0:0:0:0:
217,215,80413,2,0,P|225:144|224:87,1,127.500004863739,8|0,0:1|1:0,0:0:0:0:
168,13,80701,1,8,0:1:0:0:
168,13,80990,6,0,P|248:38|430:43,1,255.000009727478,6|8,1:2|0:1,0:0:0:0:
490,159,81422,1,0,1:0:0:0:
490,159,81567,2,0,L|350:153,2,127.500004863739,8|0|8,0:1|1:0|0:1,0:0:0:0:
451,25,81999,5,6,1:2:0:0:
394,361,82288,1,0,1:0:0:0:
394,361,82432,2,0,P|390:285|369:232,1,127.500004863739,8|0,0:1|1:0,0:0:0:0:
318,8,82720,1,8,0:1:0:0:
280,147,82865,1,0,1:0:0:0:
420,166,83009,1,4,1:2:0:0:
92,166,83297,5,8,1:0:0:0:
92,166,83442,1,0,1:0:0:0:
120,330,83586,1,0,0:0:0:0:
120,330,83730,5,8,1:0:0:0:
14,227,83874,1,0,1:0:0:0:
117,121,84019,1,0,0:0:0:0:
187,188,84163,6,0,P|237:196|316:203,2,127.500004863739,8|0|0,1:0|1:0|1:0,1:0:0:0:
28,126,84595,2,0,P|33:63|43:0,2,127.500004863739,8|0|0,1:0|1:0|1:0,1:0:0:0:
99,207,85028,5,8,0:1:0:0:
228,99,85172,1,0,1:0:0:0:
257,268,85317,1,0,1:0:0:0:
347,253,85461,6,0,P|353:208|349:-1,1,255.000009727478,4|0,1:2|1:0,0:0:0:0:
449,214,85894,1,8,1:0:0:0:
449,214,86038,2,0,L|429:342,1,127.500004863739,0|0,1:0|1:0,1:0:0:0:
225,213,86326,1,8,1:0:0:0:
225,213,86470,2,0,L|245:341,1,127.500004863739,0|0,1:0|1:0,1:0:0:0:
33,358,86759,6,8,L|46:309,3,42.5,8|8|8|8,1:0|1:0|1:0|1:0,1:0:0:0:
73,237,87047,2,8,L|87:188,3,42.5,8|8|8|8,1:0|1:0|1:0|1:0,1:0:0:0:
116,121,87336,5,8,1:0:0:0:
124,101,87408,1,8,1:0:0:0:
131,81,87480,1,8,1:0:0:0:
139,61,87552,1,8,1:0:0:0:
146,41,87624,1,8,1:0:0:0:
153,21,87696,1,8,1:0:0:0:
161,1,87768,1,8,1:0:0:0:
