osu file format v14

[General]
AudioFilename: audio.mp3
AudioLeadIn: 0
PreviewTime: 37064
Countdown: 0
SampleSet: Soft
StackLeniency: 0.7
Mode: 3
LetterboxInBreaks: 0
SpecialStyle: 0
WidescreenStoryboard: 0

[Editor]
Bookmarks: 9444,18675,27906,37137,41752,46367,50983,55598
DistanceSpacing: 1.2
BeatDivisor: 4
GridSize: 16
TimelineZoom: 4.699997

[Metadata]
Title:Utsuroi (Short Ver.)
TitleUnicode:うつろい (Short Ver.)
Artist:TrySail
ArtistUnicode:TrySail
Creator:Scotty
Version:Fate
Source:マギアレコード 魔法少女まどか☆マギカ外伝
Tags:[ping] video game japanese anime magia record puella magi madoka magica side story gaiden opening 2 op マギレコ video game magical girl 麻倉もも asakura momo 雨宮天 amamiya sora 夏川椎菜 natsukawa shiina
BeatmapID:2699391
BeatmapSetID:1301440

[Difficulty]
HPDrainRate:8.2
CircleSize:4
OverallDifficulty:7.7
ApproachRate:5
SliderMultiplier:1.4
SliderTickRate:1

[Events]
//Background and Video events
0,0,"a.jpg",0,0
//Break Periods
//Storyboard Layer 0 (Background)
//Storyboard Layer 1 (Fail)
//Storyboard Layer 2 (Pass)
//Storyboard Layer 3 (Foreground)
//Storyboard Layer 4 (Overlay)
//Storyboard Sound Samples

[TimingPoints]
214,288.461538461538,4,2,1,20,1,0
9444,-100,4,2,1,40,0,0
37137,-100,4,2,1,40,0,1
46079,-100,4,2,1,40,0,0
46367,-100,4,2,1,40,0,1
55454,-100,4,2,1,40,0,0

[HitObjects]
64,192,214,128,0,1295:0:0:0:0:
320,192,214,128,0,286:0:0:0:0:
448,192,214,128,0,286:0:0:0:0:
448,192,790,128,0,863:0:0:0:0:
320,192,935,128,0,1007:0:0:0:0:
192,192,1079,128,0,1295:0:0:0:0:
64,192,1367,128,0,2449:0:0:0:0:
448,192,1367,128,0,1439:0:0:0:0:
448,192,1512,128,0,1566:0:0:0:0:
448,192,1656,128,0,1704:0:0:0:0:
320,192,1800,128,0,1848:0:0:0:0:
448,192,1944,128,0,2161:0:0:0:0:
320,192,2088,128,0,2137:0:0:0:0:
192,192,2233,128,0,2449:0:0:0:0:
320,192,2377,128,0,2449:0:0:0:0:
448,192,2521,128,0,3603:0:0:0:0:
64,192,2521,128,0,2593:0:0:0:0:
64,192,2665,128,0,2720:0:0:0:0:
64,192,2810,128,0,2858:0:0:0:0:
64,192,3098,128,0,3170:0:0:0:0:
192,192,3242,128,0,3314:0:0:0:0:
320,192,3387,128,0,3603:0:0:0:0:
64,192,3675,128,0,4757:0:0:0:0:
448,192,3675,1,0,0:0:0:0:
192,192,3747,128,0,3963:0:0:0:0:
320,192,4108,128,0,4156:0:0:0:0:
448,192,4252,128,0,4468:0:0:0:0:
320,192,4396,128,0,4444:0:0:0:0:
192,192,4540,128,0,4757:0:0:0:0:
320,192,4685,128,0,4757:0:0:0:0:
448,192,4829,128,0,5911:0:0:0:40:Ride.wav
64,192,4829,1,0,0:0:0:0:
192,192,4973,128,0,5021:0:0:0:0:
192,192,5262,128,0,5310:0:0:0:0:
64,192,5406,128,0,5478:0:0:0:0:
192,192,5550,128,0,5622:0:0:0:0:
320,192,5694,128,0,5911:0:0:0:0:
64,192,5983,128,0,7064:0:0:0:0:
320,192,5983,128,0,6055:0:0:0:0:
448,192,5983,128,0,6055:0:0:0:0:
192,192,6271,128,0,6488:0:0:0:0:
320,192,6415,1,0,0:0:0:40:Ride.wav
448,192,6560,128,0,6776:0:0:0:40:Ride.wav
192,192,6560,1,0,0:0:0:0:
192,192,6848,128,0,7064:0:0:0:40:Ride.wav
448,192,6848,1,0,0:0:0:0:
64,192,7137,128,0,8218:0:0:0:40:Ride.wav
448,192,7137,1,0,0:0:0:0:
320,192,7425,1,0,0:0:0:40:Ride.wav
192,192,7569,1,0,0:0:0:40:Ride.wav
448,192,7713,128,0,7786:0:0:0:0:
320,192,7858,128,0,7930:0:0:0:40:Ride.wav
192,192,8002,128,0,8218:0:0:0:40:Ride.wav
448,192,8002,1,0,0:0:0:0:
448,192,8290,128,0,9372:0:0:0:0:
320,192,8290,128,0,8363:0:0:0:0:
64,192,8435,128,0,8507:0:0:0:0:
192,192,8579,128,0,8651:0:0:0:0:
320,192,8723,128,0,9084:0:0:0:0:
320,192,9156,128,0,9372:0:0:0:0:
64,192,9444,1,2,0:0:0:0:
448,192,9444,1,4,0:0:0:0:
192,192,9444,1,0,0:0:0:0:
192,192,9588,1,0,0:0:0:0:
64,192,9733,1,8,0:0:0:0:
320,192,9733,1,0,0:0:0:0:
64,192,9877,1,0,0:0:0:0:
448,192,10021,128,0,10093:0:0:0:0:
320,192,10165,128,0,10238:0:0:0:0:
192,192,10310,128,8,10526:0:0:0:0:
448,192,10310,1,0,0:0:0:0:
448,192,10454,1,0,0:0:0:0:
192,192,10598,128,2,10670:0:0:0:0:
64,192,10598,1,0,0:0:0:0:
64,192,10742,128,0,10814:0:0:0:0:
320,192,10887,128,8,10959:0:0:0:0:
448,192,10887,1,0,0:0:0:0:
448,192,11031,128,0,11247:0:0:0:0:
192,192,11175,128,0,11247:0:0:0:0:
192,192,11319,1,0,0:0:0:0:
448,192,11463,1,8,0:0:0:0:
64,192,11463,128,0,11536:0:0:0:0:
448,192,11608,1,2,0:0:0:0:
320,192,11680,1,0,0:0:0:0:
192,192,11752,1,2,0:0:0:0:
64,192,11752,1,0,0:0:0:0:
64,192,11896,1,0,0:0:0:0:
448,192,12040,1,8,0:0:0:0:
192,192,12040,1,0,0:0:0:0:
448,192,12185,1,0,0:0:0:0:
192,192,12329,128,0,12401:0:0:0:0:
320,192,12473,128,0,12545:0:0:0:0:
448,192,12617,128,8,12834:0:0:0:0:
64,192,12617,1,0,0:0:0:0:
64,192,12762,1,0,0:0:0:0:
192,192,12906,128,2,12978:0:0:0:0:
448,192,12906,1,0,0:0:0:0:
64,192,13050,128,0,13122:0:0:0:0:
320,192,13194,128,8,13266:0:0:0:0:
64,192,13194,1,0,0:0:0:0:
448,192,13338,128,0,13555:0:0:0:0:
192,192,13483,128,0,13555:0:0:0:0:
192,192,13627,1,0,0:0:0:0:
320,192,13771,1,0,0:0:0:0:
64,192,13771,128,8,13843:0:0:0:0:
448,192,13915,1,2,0:0:0:0:
320,192,13988,1,0,0:0:0:0:
64,192,14060,1,2,0:0:0:0:
192,192,14060,1,0,0:0:0:0:
64,192,14204,1,0,0:0:0:0:
192,192,14348,1,8,0:0:0:0:
448,192,14348,1,0,0:0:0:0:
448,192,14492,1,0,0:0:0:0:
64,192,14637,128,0,14709:0:0:0:0:
320,192,14781,128,0,14853:0:0:0:0:
192,192,14925,128,8,15141:0:0:0:0:
448,192,14925,1,0,0:0:0:0:
448,192,15069,1,0,0:0:0:0:
192,192,15213,128,2,15286:0:0:0:0:
320,192,15213,1,0,0:0:0:0:
64,192,15358,128,0,15430:0:0:0:0:
320,192,15502,128,8,15574:0:0:0:0:
64,192,15502,1,0,0:0:0:0:
448,192,15646,128,0,15863:0:0:0:0:
192,192,15790,128,0,15863:0:0:0:0:
192,192,15935,1,0,0:0:0:0:
448,192,16079,1,0,0:0:0:0:
64,192,16079,128,8,16151:0:0:0:0:
64,192,16223,1,2,0:0:0:0:
192,192,16295,1,0,0:0:0:0:
448,192,16367,1,2,0:0:0:0:
320,192,16367,1,0,0:0:0:0:
320,192,16512,1,0,0:0:0:0:
448,192,16656,1,8,0:0:0:0:
64,192,16656,1,0,0:0:0:0:
64,192,16800,1,0,0:0:0:0:
448,192,16944,128,0,17016:0:0:0:0:
320,192,17088,128,0,17161:0:0:0:0:
192,192,17233,128,8,17449:0:0:0:0:
448,192,17233,1,0,0:0:0:0:
448,192,17377,1,0,0:0:0:0:
192,192,17521,128,0,17593:0:0:0:0:
320,192,17593,1,0,0:0:0:0:
64,192,17665,128,0,17738:0:0:0:0:
448,192,17738,1,0,0:0:0:0:
320,192,17810,128,8,17882:0:0:0:0:
64,192,17810,1,0,0:0:0:0:
192,192,17882,1,0,0:0:0:0:
448,192,17954,128,0,18170:0:0:0:0:
320,192,18026,1,0,0:0:0:0:
64,192,18098,128,0,18170:0:0:0:0:
192,192,18170,128,0,18242:0:0:0:0:
320,192,18242,128,2,18314:0:0:0:0:
448,192,18314,128,0,18387:0:0:0:0:
64,192,18387,128,8,18435:0:0:0:0:
192,192,18459,128,0,18507:0:0:0:0:
320,192,18531,128,0,18579:0:0:0:0:
448,192,18603,128,0,18651:0:0:0:0:
320,192,18675,1,4,0:0:0:0:
192,192,18675,1,2,0:0:0:0:
64,192,18675,128,0,19108:0:0:0:0:
448,192,18963,1,2,0:0:0:0:
64,192,19252,128,2,19396:0:0:0:0:
192,192,19252,1,0,0:0:0:0:
320,192,19396,128,0,19685:0:0:0:0:
64,192,19540,1,2,0:0:0:0:
448,192,19685,128,0,19973:0:0:0:0:
192,192,19829,1,2,0:0:0:0:
320,192,20117,1,2,0:0:0:0:
448,192,20406,128,2,20550:0:0:0:0:
192,192,20406,1,0,0:0:0:0:
64,192,20550,128,0,20694:0:0:0:0:
320,192,20694,128,2,20983:0:0:0:0:
448,192,20694,1,0,0:0:0:0:
192,192,20838,1,0,0:0:0:0:
64,192,20983,1,2,0:0:0:0:
448,192,21271,1,2,0:0:0:0:
64,192,21560,128,2,21704:0:0:0:0:
320,192,21560,1,0,0:0:0:0:
448,192,21704,128,0,21848:0:0:0:0:
192,192,21848,128,2,22137:0:0:0:0:
64,192,21848,1,0,0:0:0:0:
320,192,22137,128,2,22353:0:0:0:0:
448,192,22137,1,0,0:0:0:0:
320,192,22425,128,2,22569:0:0:0:0:
448,192,22425,1,0,0:0:0:0:
64,192,22569,128,0,22713:0:0:0:0:
192,192,22713,128,2,22930:0:0:0:0:
320,192,22713,1,0,0:0:0:0:
320,192,23002,128,2,23218:0:0:0:0:
64,192,23002,1,0,0:0:0:0:
192,192,23146,1,0,0:0:0:0:
448,192,23290,128,2,23723:0:0:0:0:
320,192,23290,1,0,0:0:0:0:
192,192,23579,1,2,0:0:0:0:
320,192,23867,128,2,24012:0:0:0:0:
448,192,23867,1,0,0:0:0:0:
64,192,24012,128,0,24156:0:0:0:0:
320,192,24156,1,2,0:0:0:0:
192,192,24300,128,0,24588:0:0:0:0:
448,192,24444,1,2,0:0:0:0:
64,192,24733,1,2,0:0:0:0:
448,192,25021,128,2,25165:0:0:0:0:
320,192,25021,1,0,0:0:0:0:
192,192,25165,128,0,25310:0:0:0:0:
64,192,25310,128,2,25598:0:0:0:0:
448,192,25310,1,0,0:0:0:0:
320,192,25454,1,0,0:0:0:0:
192,192,25598,1,2,0:0:0:0:
448,192,25742,1,0,0:0:0:0:
64,192,25887,1,2,0:0:0:0:
448,192,26175,128,2,26319:0:0:0:0:
320,192,26175,1,0,0:0:0:0:
192,192,26319,128,0,26463:0:0:0:0:
320,192,26463,128,2,26752:0:0:0:0:
64,192,26463,1,0,0:0:0:0:
64,192,26752,128,2,26896:0:0:0:0:
448,192,26752,1,0,0:0:0:0:
192,192,26968,128,0,27113:0:0:0:0:
448,192,27040,1,2,0:0:0:0:
320,192,27185,128,0,27329:0:0:0:0:
448,192,27329,128,2,27545:0:0:0:0:
64,192,27329,1,0,0:0:0:0:
64,192,27617,128,2,27834:0:0:0:0:
320,192,27617,1,0,0:0:0:0:
192,192,27762,128,0,27834:0:0:0:0:
320,192,27906,128,4,27954:0:0:0:0:
448,192,27906,128,2,27954:0:0:0:0:
64,192,27906,1,0,0:0:0:0:
448,192,28194,1,8,0:0:0:0:
64,192,28194,1,0,0:0:0:0:
320,192,28338,1,2,0:0:0:0:
192,192,28483,128,2,28915:0:0:0:0:
448,192,28627,1,2,0:0:0:0:
320,192,28771,1,2,0:0:0:0:
64,192,28915,128,0,29060:0:0:0:0:
320,192,29060,1,2,0:0:0:0:
448,192,29060,1,0,0:0:0:0:
64,192,29348,1,8,0:0:0:0:
448,192,29348,1,0,0:0:0:0:
320,192,29637,128,2,29925:0:0:0:0:
192,192,29637,1,0,0:0:0:0:
448,192,29925,128,2,30069:0:0:0:0:
64,192,29925,1,0,0:0:0:0:
192,192,30069,1,0,0:0:0:0:
320,192,30141,1,0,0:0:0:0:
64,192,30213,1,4,0:0:0:0:
192,192,30213,1,2,0:0:0:0:
448,192,30213,1,0,0:0:0:0:
64,192,30502,1,8,0:0:0:0:
448,192,30502,1,0,0:0:0:0:
192,192,30646,1,2,0:0:0:0:
320,192,30790,128,2,31079:0:0:0:0:
192,192,30935,1,2,0:0:0:0:
64,192,31079,128,2,31367:0:0:0:0:
448,192,31223,1,0,0:0:0:0:
320,192,31295,1,0,0:0:0:0:
448,192,31367,128,2,31512:0:0:0:0:
192,192,31367,1,0,0:0:0:0:
320,192,31584,128,0,31728:0:0:0:0:
64,192,31656,1,8,0:0:0:0:
448,192,31656,1,0,0:0:0:0:
192,192,31800,128,0,31944:0:0:0:0:
64,192,31944,128,2,32161:0:0:0:0:
448,192,31944,1,0,0:0:0:0:
448,192,32233,128,2,32449:0:0:0:0:
64,192,32233,1,0,0:0:0:0:
64,192,32521,128,4,32569:0:0:0:0:
192,192,32521,128,2,32569:0:0:0:0:
448,192,32521,128,0,32954:0:0:0:0:
64,192,32810,1,8,0:0:0:0:
320,192,32810,1,0,0:0:0:0:
192,192,32954,128,2,33459:0:0:0:0:
320,192,33098,1,2,0:0:0:0:
64,192,33242,1,2,0:0:0:0:
448,192,33387,1,2,0:0:0:0:
192,192,33531,128,0,33675:0:0:0:0:
448,192,33675,1,2,0:0:0:0:
64,192,33675,1,0,0:0:0:0:
448,192,33963,1,8,0:0:0:0:
320,192,33963,1,0,0:0:0:0:
64,192,34252,128,2,34468:0:0:0:0:
192,192,34252,1,0,0:0:0:0:
192,192,34540,128,2,34757:0:0:0:0:
448,192,34540,1,0,0:0:0:0:
448,192,34829,128,4,35045:0:0:0:0:
320,192,34829,128,8,35045:0:0:0:0:
64,192,34829,128,0,35189:0:0:0:0:
320,192,35117,1,2,0:0:0:0:
448,192,35117,1,0,0:0:0:0:
192,192,35262,128,8,35478:0:0:0:0:
448,192,35262,128,4,35766:0:0:0:0:
64,192,35262,128,0,35478:0:0:0:0:
320,192,35550,128,0,35766:0:0:0:0:
64,192,35694,1,8,0:0:0:0:
192,192,35694,1,0,0:0:0:0:
64,192,35838,128,4,36560:0:0:0:0:
448,192,35838,128,2,35911:0:0:0:0:
448,192,36127,128,8,36199:0:0:0:0:
192,192,36271,128,0,36560:0:0:0:0:
448,192,36271,128,8,36343:0:0:0:0:
448,192,36415,128,8,36488:0:0:0:0:
448,192,36560,128,2,36704:0:0:0:0:
320,192,36560,128,0,36632:0:0:0:0:
192,192,36704,128,0,36992:0:0:0:0:
192,192,37064,128,0,37137:0:0:0:0:
320,192,37137,128,4,37353:0:0:0:0:
448,192,37137,128,2,37497:0:0:0:0:
64,192,37137,1,0,0:0:0:0:
192,192,37425,128,8,37497:0:0:0:0:
64,192,37425,1,0,0:0:0:0:
64,192,37569,128,2,37641:0:0:0:0:
448,192,37569,128,0,37786:0:0:0:0:
192,192,37713,128,0,37786:0:0:0:0:
320,192,37858,128,2,37930:0:0:0:0:
64,192,37858,1,0,0:0:0:0:
448,192,38002,128,8,38074:0:0:0:0:
192,192,38002,1,0,0:0:0:0:
448,192,38146,128,0,38651:0:0:0:0:
64,192,38290,128,2,38651:0:0:0:0:
192,192,38290,128,0,38507:0:0:0:0:
192,192,38579,128,8,38651:0:0:0:0:
320,192,38579,1,0,0:0:0:0:
192,192,38723,128,2,38939:0:0:0:0:
64,192,38723,128,0,39084:0:0:0:0:
448,192,39012,128,2,39084:0:0:0:0:
320,192,39012,1,0,0:0:0:0:
64,192,39156,128,8,39444:0:0:0:0:
192,192,39156,1,0,0:0:0:0:
448,192,39444,128,2,39661:0:0:0:0:
320,192,39444,128,0,39661:0:0:0:0:
64,192,39733,128,8,39805:0:0:0:0:
448,192,39733,1,0,0:0:0:0:
320,192,39877,128,2,40093:0:0:0:0:
448,192,39877,128,0,40093:0:0:0:0:
192,192,40165,128,2,40454:0:0:0:0:
64,192,40165,1,0,0:0:0:0:
320,192,40310,1,8,0:0:0:0:
448,192,40310,1,0,0:0:0:0:
448,192,40454,128,0,40526:0:0:0:0:
64,192,40598,128,2,40959:0:0:0:0:
192,192,40598,128,0,40814:0:0:0:0:
320,192,40887,128,8,40959:0:0:0:0:
448,192,40887,1,0,0:0:0:0:
448,192,41031,128,2,41463:0:0:0:0:
64,192,41031,128,0,41247:0:0:0:0:
320,192,41175,128,0,41463:0:0:0:0:
192,192,41319,128,2,41391:0:0:0:0:
64,192,41463,128,8,41680:0:0:0:0:
192,192,41463,1,0,0:0:0:0:
64,192,41752,128,2,41824:0:0:0:0:
448,192,41752,128,0,41968:0:0:0:0:
192,192,41896,128,0,41968:0:0:0:0:
320,192,42040,128,8,42113:0:0:0:0:
448,192,42040,128,0,42834:0:0:0:0:
320,192,42185,128,2,42834:0:0:0:0:
64,192,42185,1,0,0:0:0:0:
64,192,42329,128,0,42545:0:0:0:0:
192,192,42473,1,2,0:0:0:0:
192,192,42617,128,8,42834:0:0:0:0:
64,192,42617,1,0,0:0:0:0:
320,192,42906,128,2,43122:0:0:0:0:
448,192,42906,128,0,43338:0:0:0:0:
64,192,43194,1,8,0:0:0:0:
192,192,43194,1,0,0:0:0:0:
320,192,43338,128,2,43411:0:0:0:0:
64,192,43338,1,0,0:0:0:0:
192,192,43411,128,0,43483:0:0:0:0:
64,192,43483,128,0,43988:0:0:0:0:
448,192,43483,128,0,43699:0:0:0:0:
192,192,43627,1,2,0:0:0:0:
320,192,43771,128,8,43988:0:0:0:0:
448,192,43771,1,0,0:0:0:0:
192,192,44060,128,2,44276:0:0:0:0:
448,192,44060,128,0,44132:0:0:0:0:
320,192,44204,128,0,44276:0:0:0:0:
64,192,44348,128,8,44637:0:0:0:0:
192,192,44348,128,0,44420:0:0:0:0:
192,192,44492,128,2,44637:0:0:0:0:
448,192,44492,1,0,0:0:0:0:
448,192,44637,128,0,44925:0:0:0:0:
64,192,44781,1,2,0:0:0:0:
320,192,44781,128,0,44925:0:0:0:0:
192,192,44925,128,8,45213:0:0:0:0:
64,192,44925,1,0,0:0:0:0:
448,192,45213,128,2,45502:0:0:0:0:
320,192,45213,128,0,45286:0:0:0:0:
192,192,45358,128,0,45430:0:0:0:0:
320,192,45502,1,8,0:0:0:0:
64,192,45502,128,0,45574:0:0:0:0:
448,192,45646,128,2,46295:0:0:0:0:
192,192,45646,128,0,45718:0:0:0:0:
320,192,45790,128,0,45863:0:0:0:0:
320,192,45935,128,2,46295:0:0:0:0:
192,192,45935,1,0,0:0:0:0:
64,192,46079,1,8,0:0:0:0:
64,192,46223,1,8,0:0:0:0:
192,192,46367,128,4,46584:0:0:0:0:
448,192,46367,1,2,0:0:0:0:
64,192,46367,128,0,46728:0:0:0:0:
192,192,46656,128,8,46728:0:0:0:0:
448,192,46656,1,0,0:0:0:0:
64,192,46800,128,2,47016:0:0:0:0:
448,192,46800,128,0,46872:0:0:0:0:
320,192,46944,128,0,47016:0:0:0:0:
448,192,47088,1,2,0:0:0:0:
192,192,47233,128,8,47305:0:0:0:0:
64,192,47233,1,0,0:0:0:0:
192,192,47377,128,0,47449:0:0:0:0:
320,192,47521,128,2,47738:0:0:0:0:
448,192,47521,128,0,47882:0:0:0:0:
320,192,47810,128,8,47882:0:0:0:0:
64,192,47810,1,0,0:0:0:0:
448,192,47954,128,2,48170:0:0:0:0:
320,192,47954,128,0,48170:0:0:0:0:
192,192,48242,128,2,48314:0:0:0:0:
64,192,48242,1,0,0:0:0:0:
64,192,48387,128,8,48603:0:0:0:0:
448,192,48387,1,0,0:0:0:0:
320,192,48675,128,2,48891:0:0:0:0:
448,192,48675,128,0,48963:0:0:0:0:
64,192,48675,128,0,48747:0:0:0:0:
192,192,48819,128,0,48891:0:0:0:0:
320,192,48963,128,8,49036:0:0:0:0:
64,192,48963,1,0,0:0:0:0:
64,192,49108,128,2,49396:0:0:0:0:
192,192,49108,128,0,49324:0:0:0:0:
448,192,49108,128,0,49180:0:0:0:0:
320,192,49252,128,0,49324:0:0:0:0:
448,192,49396,128,2,49613:0:0:0:0:
192,192,49396,128,0,49468:0:0:0:0:
64,192,49540,128,8,49613:0:0:0:0:
320,192,49540,1,0,0:0:0:0:
448,192,49685,128,0,49757:0:0:0:0:
64,192,49829,128,2,50117:0:0:0:0:
192,192,49829,128,0,50045:0:0:0:0:
192,192,50117,128,8,50189:0:0:0:0:
448,192,50117,1,0,0:0:0:0:
448,192,50262,128,2,50550:0:0:0:0:
320,192,50262,128,0,50478:0:0:0:0:
64,192,50550,128,2,50622:0:0:0:0:
320,192,50550,1,0,0:0:0:0:
192,192,50694,128,8,50983:0:0:0:0:
448,192,50694,1,0,0:0:0:0:
320,192,50983,128,2,51199:0:0:0:0:
448,192,50983,128,4,51199:0:0:0:0:
64,192,50983,128,0,51488:0:0:0:0:
192,192,51271,1,8,0:0:0:0:
448,192,51271,1,0,0:0:0:0:
320,192,51415,128,2,51632:0:0:0:0:
448,192,51415,128,0,51632:0:0:0:0:
64,192,51560,128,0,51848:0:0:0:0:
320,192,51704,1,2,0:0:0:0:
192,192,51848,128,8,52137:0:0:0:0:
448,192,51848,1,0,0:0:0:0:
320,192,52137,128,2,52353:0:0:0:0:
448,192,52137,128,0,52569:0:0:0:0:
64,192,52425,1,8,0:0:0:0:
320,192,52425,1,0,0:0:0:0:
64,192,52569,128,2,52786:0:0:0:0:
192,192,52569,128,0,52786:0:0:0:0:
320,192,52713,128,0,52786:0:0:0:0:
448,192,52858,1,2,0:0:0:0:
64,192,53002,128,8,53579:0:0:0:0:
192,192,53002,1,0,0:0:0:0:
448,192,53146,128,0,53218:0:0:0:0:
320,192,53218,128,0,53290:0:0:0:0:
192,192,53290,128,2,53579:0:0:0:0:
448,192,53579,1,8,0:0:0:0:
320,192,53579,1,0,0:0:0:0:
64,192,53723,1,8,0:0:0:0:
448,192,53723,1,0,0:0:0:0:
320,192,53795,1,8,0:0:0:0:
192,192,53867,1,8,0:0:0:0:
320,192,54012,128,2,54084:0:0:0:0:
448,192,54012,128,0,54084:0:0:0:0:
64,192,54300,128,4,54372:0:0:0:0:
192,192,54300,128,2,54372:0:0:0:0:
448,192,54300,128,0,54661:0:0:0:0:
320,192,54588,128,2,54661:0:0:0:0:
64,192,54588,128,0,54661:0:0:0:0:
192,192,54733,128,8,54805:0:0:0:0:
448,192,54733,128,0,54805:0:0:0:0:
448,192,54877,128,4,54949:0:0:0:0:
320,192,54877,128,2,54949:0:0:0:0:
64,192,54877,128,0,55310:0:0:0:0:
320,192,55165,1,2,0:0:0:0:
448,192,55310,1,8,0:0:0:0:
192,192,55310,1,0,0:0:0:0:
320,192,55454,1,2,0:0:0:0:
64,192,55454,1,4,0:0:0:0:
448,192,55454,128,0,55742:0:0:0:0:
192,192,55742,128,2,55814:0:0:0:0:
64,192,55742,1,0,0:0:0:0:
320,192,55887,1,8,0:0:0:0:
64,192,55887,128,0,55959:0:0:0:0:
320,192,56031,1,2,0:0:0:0:
192,192,56175,128,8,56247:0:0:0:0:
64,192,56175,1,0,0:0:0:0:
192,192,56319,128,2,56391:0:0:0:0:
320,192,56319,1,0,0:0:0:0:
64,192,56463,1,8,0:0:0:0:
448,192,56463,1,0,0:0:0:0:
320,192,56608,1,2,0:0:0:0:
64,192,56608,1,4,0:0:0:0:
448,192,56608,128,0,57473:0:0:0:0:
192,192,56896,1,2,0:0:0:0:
320,192,57040,1,8,0:0:0:0:
64,192,57040,1,0,0:0:0:0:
320,192,57185,1,2,0:0:0:0:
192,192,57329,1,8,0:0:0:0:
64,192,57329,1,0,0:0:0:0:
320,192,57473,128,2,57545:0:0:0:0:
64,192,57473,1,0,0:0:0:0:
192,192,57617,128,8,57689:0:0:0:0:
448,192,57617,1,0,0:0:0:0:
64,192,57762,128,4,58050:0:0:0:0:
320,192,57762,1,2,0:0:0:0:
448,192,57762,1,0,0:0:0:0:
448,192,58050,128,2,58122:0:0:0:0:
192,192,58050,1,0,0:0:0:0:
64,192,58194,1,8,0:0:0:0:
448,192,58194,128,0,58266:0:0:0:0:
64,192,58338,1,2,0:0:0:0:
320,192,58483,1,8,0:0:0:0:
448,192,58483,128,0,58555:0:0:0:0:
320,192,58627,1,2,0:0:0:0:
192,192,58627,128,0,58699:0:0:0:0:
448,192,58771,1,8,0:0:0:0:
64,192,58771,1,0,0:0:0:0:
64,192,58915,128,2,59781:0:0:0:0:
192,192,58915,1,4,0:0:0:0:
448,192,58915,1,0,0:0:0:0:
320,192,59204,128,2,59276:0:0:0:0:
192,192,59348,1,0,0:0:0:0:
448,192,59348,128,8,59420:0:0:0:0:
192,192,59492,128,2,59564:0:0:0:0:
320,192,59637,1,8,0:0:0:0:
448,192,59637,128,0,59853:0:0:0:0:
320,192,59781,128,2,59853:0:0:0:0:
64,192,59925,1,8,0:0:0:0:
192,192,59925,1,0,0:0:0:0:
64,192,60069,1,2,0:0:0:0:
448,192,60069,1,4,0:0:0:0:
320,192,60069,128,0,60358:0:0:0:0:
192,192,60358,128,2,60430:0:0:0:0:
448,192,60358,1,0,0:0:0:0:
448,192,60502,128,8,60574:0:0:0:0:
64,192,60502,1,0,0:0:0:0:
64,192,60646,1,2,0:0:0:0:
192,192,60790,128,8,60863:0:0:0:0:
320,192,60790,1,0,0:0:0:0:
64,192,60935,128,2,61007:0:0:0:0:
320,192,60935,1,0,0:0:0:0:
448,192,61079,1,8,0:0:0:0:
192,192,61079,1,0,0:0:0:0:
192,192,61223,128,4,61656:0:0:0:0:
448,192,61223,1,2,0:0:0:0:
64,192,61223,1,0,0:0:0:0:
320,192,61512,1,2,0:0:0:0:
448,192,61656,1,8,0:0:0:0:
64,192,61656,1,0,0:0:0:0:
64,192,61800,1,2,0:0:0:0:
64,192,61944,128,8,62305:0:0:0:0:
320,192,61944,1,0,0:0:0:0:
320,192,62088,1,8,0:0:0:0:
320,192,62233,1,8,0:0:0:0:
64,192,62377,1,2,0:0:0:0:
192,192,62377,1,4,0:0:0:0:
448,192,62377,128,0,62665:0:0:0:0:
192,192,62665,128,2,62810:0:0:0:0:
320,192,62665,1,0,0:0:0:0:
320,192,62810,128,8,62882:0:0:0:0:
448,192,62810,128,4,62882:0:0:0:0:
64,192,62810,1,0,0:0:0:0:
64,192,62954,128,2,63098:0:0:0:0:
192,192,62954,1,0,0:0:0:0:
448,192,63098,128,8,63170:0:0:0:0:
320,192,63098,128,0,63170:0:0:0:0:
192,192,63242,1,2,0:0:0:0:
448,192,63387,128,8,63459:0:0:0:0:
320,192,63387,128,4,63459:0:0:0:0:
64,192,63531,1,2,0:0:0:0:
64,192,63675,128,8,63747:0:0:0:0:
192,192,63675,128,0,63747:0:0:0:0:
320,192,63819,1,2,0:0:0:0:
192,192,63963,128,8,64036:0:0:0:0:
64,192,63963,128,4,64036:0:0:0:0:
448,192,63963,1,0,0:0:0:0:
448,192,64108,1,2,0:0:0:0:
64,192,64252,128,8,64324:0:0:0:0:
320,192,64252,128,0,64324:0:0:0:0:
192,192,64396,1,2,0:0:0:0:
448,192,64540,128,8,64613:0:0:0:0:
320,192,64540,128,0,64613:0:0:0:0:
64,192,64540,1,0,0:0:0:0:
64,192,64685,1,2,0:0:0:0:
192,192,64685,1,4,0:0:0:0:
448,192,64685,128,0,64973:0:0:0:0:
192,192,64973,128,2,65045:0:0:0:0:
64,192,64973,1,0,0:0:0:0:
64,192,65117,128,8,65334:0:0:0:0:
448,192,65117,1,0,0:0:0:0:
64,192,65406,128,2,65478:0:0:0:0:
192,192,65406,1,0,0:0:0:0:
320,192,65550,1,2,0:0:0:0:
64,192,65694,1,8,0:0:0:0:
448,192,65694,1,0,0:0:0:0:
448,192,65838,128,2,66127:0:0:0:0:
320,192,65838,1,0,0:0:0:0:
64,192,65983,1,0,0:0:0:0:
192,192,66127,128,2,66199:0:0:0:0:
320,192,66127,1,0,0:0:0:0:
64,192,66271,128,8,66488:0:0:0:0:
448,192,66271,1,0,0:0:0:0:
64,192,66560,128,2,66632:0:0:0:0:
192,192,66560,1,0,0:0:0:0:
320,192,66704,1,2,0:0:0:0:
64,192,66848,1,8,0:0:0:0:
448,192,66848,1,0,0:0:0:0:
448,192,67137,128,4,67569:0:0:0:0:
64,192,67137,128,2,67497:0:0:0:0:
192,192,67137,128,0,67425:0:0:0:0:
64,192,67713,128,2,68146:0:0:0:0:
448,192,67713,128,0,68074:0:0:0:0:
320,192,67713,128,0,68002:0:0:0:0:
64,192,68290,128,2,68363:0:0:0:0:
320,192,68290,128,0,68435:0:0:0:0:
448,192,68290,128,0,68507:0:0:0:0:
64,192,68435,1,8,0:0:0:0:
192,192,68435,1,0,0:0:0:0:
320,192,68579,1,8,0:0:0:0:
448,192,68579,1,0,0:0:0:0:
192,192,68867,128,0,69156:0:0:0:0:
320,192,69156,128,0,69444:0:0:0:0:
64,192,69444,1,2,0:0:0:0:
192,192,69444,1,4,0:0:0:0:
448,192,69444,1,0,0:0:0:0:
192,192,69588,1,0,0:0:0:25:soft-hitclap.wav
448,192,69733,1,8,0:0:0:0:
64,192,69733,1,0,0:0:0:0:
320,192,69781,1,0,0:0:0:0:
192,192,69829,1,0,0:0:0:0:
64,192,69877,1,0,0:0:0:25:soft-hitclap.wav
320,192,70021,128,0,70238:0:0:0:25:soft-hitclap.wav
192,192,70165,1,0,0:0:0:25:soft-hitclap.wav
64,192,70310,128,8,70526:0:0:0:0:
448,192,70310,1,0,0:0:0:0:
192,192,70454,1,0,0:0:0:25:soft-hitclap.wav
448,192,70598,1,2,0:0:0:0:
320,192,70598,1,0,0:0:0:0:
320,192,70742,1,0,0:0:0:25:soft-hitclap.wav
64,192,70887,1,8,0:0:0:0:
448,192,70887,1,0,0:0:0:0:
192,192,71031,1,0,0:0:0:25:soft-hitclap.wav
64,192,71175,1,0,0:0:0:25:soft-hitclap.wav
448,192,71319,1,0,0:0:0:25:soft-hitclap.wav
320,192,71367,1,0,0:0:0:0:
192,192,71415,1,0,0:0:0:0:
64,192,71463,1,8,0:0:0:0:
448,192,71463,1,0,0:0:0:0:
320,192,71608,1,0,0:0:0:25:soft-hitclap.wav
64,192,71752,1,2,0:0:0:0:
192,192,71752,1,0,0:0:0:0:
192,192,71896,1,0,0:0:0:25:soft-hitclap.wav
448,192,72040,128,8,72185:0:0:0:0:
64,192,72040,1,0,0:0:0:0:
320,192,72185,128,0,72329:0:0:0:25:soft-hitclap.wav
64,192,72329,128,0,72377:0:0:0:25:soft-hitclap.wav
448,192,72329,1,0,0:0:0:0:
192,192,72473,128,0,72521:0:0:0:25:soft-hitclap.wav
448,192,72473,1,0,0:0:0:0:
320,192,72617,128,8,72665:0:0:0:0:
64,192,72617,1,0,0:0:0:0:
192,192,72762,1,0,0:0:0:25:soft-hitclap.wav
320,192,72906,1,2,0:0:0:0:
448,192,72906,1,0,0:0:0:0:
320,192,73050,1,0,0:0:0:25:soft-hitclap.wav
448,192,73194,1,8,0:0:0:0:
64,192,73194,1,0,0:0:0:0:
192,192,73242,1,0,0:0:0:0:
320,192,73290,1,0,0:0:0:0:
448,192,73338,1,0,0:0:0:25:soft-hitclap.wav
192,192,73483,1,0,0:0:0:25:soft-hitclap.wav
320,192,73627,1,0,0:0:0:25:soft-hitclap.wav
448,192,73771,1,8,0:0:0:0:
64,192,73771,1,0,0:0:0:0:
320,192,73915,1,0,0:0:0:25:soft-hitclap.wav
192,192,74060,1,2,0:0:0:0:
64,192,74060,1,0,0:0:0:0:
192,192,74204,1,0,0:0:0:25:soft-hitclap.wav
448,192,74348,128,8,74492:0:0:0:0:
64,192,74348,1,0,0:0:0:0:
320,192,74492,128,0,74637:0:0:0:25:soft-hitclap.wav
448,192,74637,1,0,0:0:0:25:soft-hitclap.wav
64,192,74781,1,0,0:0:0:25:soft-hitclap.wav
192,192,74829,1,0,0:0:0:0:
320,192,74877,1,0,0:0:0:0:
64,192,74925,1,8,0:0:0:0:
448,192,74925,1,0,0:0:0:0:
192,192,75069,1,0,0:0:0:25:soft-hitclap.wav
320,192,75213,1,2,0:0:0:0:
448,192,75213,1,0,0:0:0:0:
320,192,75358,1,0,0:0:0:25:soft-hitclap.wav
448,192,75502,128,8,75646:0:0:0:0:
64,192,75502,1,0,0:0:0:0:
192,192,75646,128,0,75790:0:0:0:25:soft-hitclap.wav
320,192,75790,1,0,0:0:0:25:soft-hitclap.wav
192,192,75935,1,0,0:0:0:25:soft-hitclap.wav
448,192,76079,1,8,0:0:0:0:
64,192,76079,1,0,0:0:0:0:
320,192,76223,1,0,0:0:0:25:soft-hitclap.wav
192,192,76367,1,2,0:0:0:0:
64,192,76367,1,0,0:0:0:0:
192,192,76512,1,0,0:0:0:25:soft-hitclap.wav
448,192,76656,128,8,76800:0:0:0:0:
64,192,76656,1,0,0:0:0:0:
320,192,76800,128,0,76944:0:0:0:25:soft-hitclap.wav
192,192,76944,1,2,0:0:0:0:
64,192,76944,1,0,0:0:0:0:
448,192,77088,1,0,0:0:0:25:soft-hitclap.wav
320,192,77137,1,0,0:0:0:0:
192,192,77185,1,0,0:0:0:0:
64,192,77233,1,8,0:0:0:0:
448,192,77233,1,0,0:0:0:0:
320,192,77377,1,0,0:0:0:25:soft-hitclap.wav
64,192,77521,128,8,78242:0:0:0:0:
192,192,77521,128,4,77738:0:0:0:0:
448,192,77521,128,0,78459:0:0:0:0:
192,192,77810,128,0,78170:0:0:0:0:
192,192,78242,128,0,78314:0:0:0:0:
64,192,78314,128,0,78387:0:0:0:0:
320,192,78387,128,0,78459:0:0:0:0:
192,192,78459,128,0,78531:0:0:0:0:
448,192,78531,128,0,78675:0:0:0:0:
320,192,78603,128,0,78675:0:0:0:0:
64,192,78675,128,2,79468:0:0:0:0:
192,192,78675,1,4,0:0:0:0:
320,192,78963,1,8,0:0:0:0:
448,192,78963,1,0,0:0:0:0:
320,192,79108,1,2,0:0:0:0:
448,192,79252,1,8,0:0:0:0:
192,192,79252,1,0,0:0:0:0:
192,192,79396,1,2,0:0:0:0:
64,192,79540,128,8,79613:0:0:0:0:
448,192,79540,1,0,0:0:0:0:
320,192,79685,128,2,80983:0:0:0:0:
64,192,79685,1,4,0:0:0:0:
448,192,79685,1,0,0:0:0:0:
192,192,79973,1,2,0:0:0:0:
64,192,80117,1,8,0:0:0:0:
448,192,80117,1,0,0:0:0:0:
448,192,80262,1,2,0:0:0:0:
192,192,80406,1,8,0:0:0:0:
64,192,80406,1,0,0:0:0:0:
192,192,80550,1,2,0:0:0:0:
448,192,80694,1,8,0:0:0:0:
64,192,80694,1,0,0:0:0:0:
448,192,80983,128,2,81271:0:0:0:0:
192,192,80983,1,4,0:0:0:0:
64,192,80983,1,0,0:0:0:0:
64,192,81271,128,8,81560:0:0:0:0:
320,192,81271,1,0,0:0:0:0:
320,192,81415,1,2,0:0:0:0:
192,192,81560,128,8,81632:0:0:0:0:
448,192,81560,1,0,0:0:0:0:
64,192,81704,128,2,81776:0:0:0:0:
448,192,81704,1,0,0:0:0:0:
320,192,81848,128,8,81920:0:0:0:0:
64,192,81848,1,0,0:0:0:0:
64,192,81992,1,4,0:0:0:0:
192,192,81992,1,2,0:0:0:0:
448,192,81992,128,0,82209:0:0:0:0:
192,192,82281,128,2,82353:0:0:0:0:
448,192,82281,1,0,0:0:0:0:
320,192,82425,1,8,0:0:0:0:
64,192,82425,1,0,0:0:0:0:
64,192,82569,128,2,82786:0:0:0:0:
192,192,82569,1,0,0:0:0:0:
448,192,82713,1,8,0:0:0:0:
320,192,82713,1,0,0:0:0:0:
192,192,82858,128,2,82930:0:0:0:0:
448,192,82858,1,0,0:0:0:0:
64,192,83002,128,8,83218:0:0:0:0:
448,192,83002,128,4,83218:0:0:0:0:
320,192,83002,128,0,83218:0:0:0:0:
192,192,83290,128,2,83363:0:0:0:0:
448,192,83290,128,4,83435:0:0:0:0:
64,192,83435,128,2,83507:0:0:0:0:
320,192,83435,128,0,83651:0:0:0:0:
448,192,83579,128,2,83651:0:0:0:0:
64,192,83723,128,8,83867:0:0:0:0:
320,192,83723,128,4,83795:0:0:0:0:
192,192,83867,128,2,84084:0:0:0:0:
448,192,83867,128,0,83939:0:0:0:0:
64,192,84012,128,2,84084:0:0:0:0:
320,192,84156,128,8,84300:0:0:0:0:
192,192,84156,128,4,84228:0:0:0:0:
448,192,84300,128,2,84516:0:0:0:0:
64,192,84300,128,0,84372:0:0:0:0:
320,192,84444,128,2,84516:0:0:0:0:
192,192,84588,128,8,84733:0:0:0:0:
448,192,84588,128,4,84661:0:0:0:0:
64,192,84733,128,2,84949:0:0:0:0:
320,192,84733,128,0,84805:0:0:0:0:
192,192,84877,128,2,84949:0:0:0:0:
320,192,85021,128,4,85165:0:0:0:0:
64,192,85021,128,0,85093:0:0:0:0:
448,192,85165,128,2,85382:0:0:0:0:
192,192,85165,128,0,85238:0:0:0:0:
320,192,85310,128,2,85382:0:0:0:0:
448,192,85454,128,2,85742:0:0:0:0:
64,192,85454,1,0,0:0:0:0:
192,192,85526,1,0,0:0:0:0:
320,192,85598,128,0,85742:0:0:0:0:
64,192,85742,128,2,85814:0:0:0:0:
192,192,85887,128,2,85959:0:0:0:0:
448,192,85887,1,0,0:0:0:0:
320,192,85959,1,0,0:0:0:0:
64,192,86031,128,2,86319:0:0:0:0:
192,192,86175,128,2,86319:0:0:0:0:
448,192,86319,128,0,86391:0:0:0:0:
320,192,86319,1,0,0:0:0:0:
64,192,86391,1,0,0:0:0:0:
192,192,86463,128,0,86752:0:0:0:0:
320,192,86608,1,2,0:0:0:0:
448,192,86752,1,8,0:0:0:0:
192,192,86824,1,8,0:0:0:0:
320,192,86896,1,8,0:0:0:0:
64,192,86968,1,8,0:0:0:0:
448,192,87040,1,8,0:0:0:0:
192,192,87113,1,8,0:0:0:0:
320,192,87185,1,8,0:0:0:0:
64,192,87257,1,8,0:0:0:0:
448,192,87329,1,8,0:0:0:0:
192,192,87401,1,8,0:0:0:0:
320,192,87473,1,8,0:0:0:0:
64,192,87545,1,8,0:0:0:0:
448,192,87617,128,8,87906:0:0:0:0:
320,192,87762,128,2,87906:0:0:0:0:
