osu file format v14

[General]
AudioFilename: audio.mp3
AudioLeadIn: 0
PreviewTime: 37064
Countdown: 0
SampleSet: Soft
StackLeniency: 0.7
Mode: 3
LetterboxInBreaks: 0
SpecialStyle: 0
WidescreenStoryboard: 1

[Editor]
Bookmarks: 9444,18675,27906,37137,41752,46367,50983,55598
DistanceSpacing: 1.2
BeatDivisor: 4
GridSize: 16
TimelineZoom: 4.699997

[Metadata]
Title:Utsuroi (Short Ver.)
TitleUnicode:うつろい (Short Ver.)
Artist:TrySail
ArtistUnicode:TrySail
Creator:Scotty
Version:Easy
Source:マギアレコード 魔法少女まどか☆マギカ外伝
Tags:[ping] video game japanese anime magia record puella magi madoka magica side story gaiden opening 2 op マギレコ video game magical girl 麻倉もも asakura momo 雨宮天 amamiya sora 夏川椎菜 natsukawa shiina
BeatmapID:2699390
BeatmapSetID:1301440

[Difficulty]
HPDrainRate:7
CircleSize:4
OverallDifficulty:7
ApproachRate:5
SliderMultiplier:1.4
SliderTickRate:1

[Events]
//Background and Video events
0,0,"a.jpg",0,0
//Break Periods
//Storyboard Layer 0 (Background)
//Storyboard Layer 1 (Fail)
//Storyboard Layer 2 (Pass)
//Storyboard Layer 3 (Foreground)
//Storyboard Layer 4 (Overlay)
//Storyboard Sound Samples

[TimingPoints]
214,288.461538461538,4,2,1,20,1,0
9444,-100,4,2,1,40,0,0
37137,-100,4,2,1,40,0,1
46079,-100,4,2,1,40,0,0
46367,-100,4,2,1,40,0,1
55454,-100,4,2,1,40,0,0

[HitObjects]
320,192,214,128,0,1367:0:0:0:0:
448,192,214,1,0,0:0:0:0:
192,192,1367,128,0,2521:0:0:0:0:
64,192,2521,128,0,3675:0:0:0:0:
448,192,3675,128,0,4829:0:0:0:0:
192,192,4829,128,0,5983:0:0:0:40:Ride.wav
320,192,5983,128,0,7137:0:0:0:0:
64,192,7137,128,0,8290:0:0:0:40:Ride.wav
448,192,8290,128,0,9444:0:0:0:0:
192,192,9444,1,2,0:0:0:0:
64,192,9444,1,4,0:0:0:0:
320,192,9733,1,8,0:0:0:0:
320,192,10310,1,8,0:0:0:0:
192,192,10598,1,2,0:0:0:0:
448,192,10887,1,8,0:0:0:0:
448,192,11463,1,8,0:0:0:0:
320,192,11752,1,2,0:0:0:0:
64,192,12040,1,8,0:0:0:0:
64,192,12617,1,8,0:0:0:0:
320,192,12906,1,2,0:0:0:0:
192,192,13194,1,8,0:0:0:0:
192,192,13771,1,8,0:0:0:0:
64,192,14060,1,2,0:0:0:0:
448,192,14348,1,8,0:0:0:0:
448,192,14925,1,8,0:0:0:0:
320,192,15213,1,2,0:0:0:0:
192,192,15502,1,8,0:0:0:0:
192,192,16079,1,8,0:0:0:0:
64,192,16367,1,2,0:0:0:0:
320,192,16656,1,8,0:0:0:0:
320,192,17233,1,8,0:0:0:0:
192,192,17521,128,0,17810:0:0:0:0:
320,192,17810,128,8,18098:0:0:0:0:
64,192,18098,128,0,18387:0:0:0:0:
448,192,18387,128,8,18675:0:0:0:0:
192,192,18675,1,4,0:0:0:0:
64,192,18675,1,2,0:0:0:0:
448,192,18963,1,2,0:0:0:0:
64,192,19108,1,0,0:0:0:0:
448,192,19829,1,2,0:0:0:0:
320,192,20117,1,2,0:0:0:0:
192,192,20262,1,0,0:0:0:0:
192,192,20983,1,2,0:0:0:0:
448,192,21271,1,2,0:0:0:0:
64,192,21415,1,0,0:0:0:0:
448,192,22137,1,2,0:0:0:0:
192,192,22281,1,0,0:0:0:0:
320,192,22425,1,2,0:0:0:0:
64,192,22569,1,0,0:0:0:0:
192,192,23290,1,2,0:0:0:0:
448,192,23579,1,2,0:0:0:0:
64,192,23723,1,0,0:0:0:0:
448,192,24444,1,2,0:0:0:0:
320,192,24733,1,2,0:0:0:0:
192,192,24877,1,0,0:0:0:0:
320,192,25598,1,2,0:0:0:0:
192,192,25887,1,2,0:0:0:0:
64,192,26031,1,0,0:0:0:0:
192,192,26752,1,2,0:0:0:0:
448,192,27040,1,2,0:0:0:0:
320,192,27185,1,0,0:0:0:0:
192,192,27617,128,2,27906:0:0:0:0:
448,192,27906,1,4,0:0:0:0:
64,192,27906,1,2,0:0:0:0:
320,192,28194,1,8,0:0:0:0:
192,192,28338,1,2,0:0:0:0:
64,192,28483,1,2,0:0:0:0:
320,192,28771,1,2,0:0:0:0:
448,192,29060,1,2,0:0:0:0:
192,192,29348,1,8,0:0:0:0:
320,192,29637,1,2,0:0:0:0:
64,192,29925,1,2,0:0:0:0:
448,192,30213,1,4,0:0:0:0:
320,192,30213,1,2,0:0:0:0:
192,192,30502,1,8,0:0:0:0:
320,192,30646,1,2,0:0:0:0:
448,192,30790,1,2,0:0:0:0:
64,192,31079,1,2,0:0:0:0:
192,192,31367,1,2,0:0:0:0:
320,192,31656,1,8,0:0:0:0:
64,192,31944,1,2,0:0:0:0:
448,192,32233,1,2,0:0:0:0:
192,192,32521,1,4,0:0:0:0:
64,192,32521,1,2,0:0:0:0:
320,192,32810,1,8,0:0:0:0:
192,192,32954,1,2,0:0:0:0:
448,192,33098,1,2,0:0:0:0:
64,192,33387,1,2,0:0:0:0:
320,192,33675,1,2,0:0:0:0:
192,192,33963,1,8,0:0:0:0:
448,192,34252,128,2,34540:0:0:0:0:
64,192,34540,128,2,34829:0:0:0:0:
320,192,34829,1,4,0:0:0:0:
448,192,34829,1,8,0:0:0:0:
192,192,35117,1,2,0:0:0:0:
448,192,35262,1,8,0:0:0:0:
64,192,35262,1,4,0:0:0:0:
320,192,35550,1,0,0:0:0:0:
192,192,35694,1,8,0:0:0:0:
448,192,35838,1,4,0:0:0:0:
64,192,35838,128,2,36560:0:0:0:0:
320,192,36560,1,2,0:0:0:0:
64,192,37137,1,4,0:0:0:0:
448,192,37137,128,2,37425:0:0:0:0:
192,192,37425,1,8,0:0:0:0:
320,192,37569,1,2,0:0:0:0:
320,192,37858,1,2,0:0:0:0:
192,192,38002,1,8,0:0:0:0:
64,192,38290,128,2,38579:0:0:0:0:
448,192,38579,1,8,0:0:0:0:
192,192,38723,1,2,0:0:0:0:
192,192,39012,1,2,0:0:0:0:
448,192,39156,1,8,0:0:0:0:
320,192,39444,1,2,0:0:0:0:
192,192,39733,1,8,0:0:0:0:
448,192,39877,1,2,0:0:0:0:
448,192,40165,1,2,0:0:0:0:
192,192,40310,1,8,0:0:0:0:
64,192,40598,128,2,40887:0:0:0:0:
448,192,40887,1,8,0:0:0:0:
192,192,41031,128,2,41319:0:0:0:0:
320,192,41319,1,2,0:0:0:0:
448,192,41463,128,8,41752:0:0:0:0:
192,192,41752,1,2,0:0:0:0:
448,192,42040,1,8,0:0:0:0:
64,192,42185,1,2,0:0:0:0:
64,192,42473,1,2,0:0:0:0:
448,192,42617,1,8,0:0:0:0:
192,192,42906,1,2,0:0:0:0:
64,192,43194,1,8,0:0:0:0:
448,192,43338,1,2,0:0:0:0:
448,192,43627,1,2,0:0:0:0:
64,192,43771,1,8,0:0:0:0:
320,192,44060,1,2,0:0:0:0:
448,192,44348,1,8,0:0:0:0:
64,192,44492,1,2,0:0:0:0:
64,192,44781,1,2,0:0:0:0:
448,192,44925,1,8,0:0:0:0:
192,192,45213,1,2,0:0:0:0:
64,192,45502,1,8,0:0:0:0:
448,192,45646,1,2,0:0:0:0:
448,192,45935,1,2,0:0:0:0:
64,192,46079,1,8,0:0:0:0:
320,192,46223,1,8,0:0:0:0:
192,192,46367,1,4,0:0:0:0:
64,192,46367,128,2,46656:0:0:0:0:
320,192,46656,1,8,0:0:0:0:
192,192,46800,1,2,0:0:0:0:
192,192,47088,1,2,0:0:0:0:
320,192,47233,1,8,0:0:0:0:
448,192,47521,128,2,47810:0:0:0:0:
64,192,47810,1,8,0:0:0:0:
320,192,47954,1,2,0:0:0:0:
320,192,48242,1,2,0:0:0:0:
64,192,48387,1,8,0:0:0:0:
448,192,48675,1,2,0:0:0:0:
320,192,48963,1,8,0:0:0:0:
64,192,49108,1,2,0:0:0:0:
64,192,49396,1,2,0:0:0:0:
320,192,49540,1,8,0:0:0:0:
448,192,49829,1,2,0:0:0:0:
192,192,50117,1,8,0:0:0:0:
320,192,50262,1,2,0:0:0:0:
320,192,50550,1,2,0:0:0:0:
192,192,50694,1,8,0:0:0:0:
448,192,50983,1,2,0:0:0:0:
64,192,50983,1,4,0:0:0:0:
320,192,51271,1,8,0:0:0:0:
192,192,51415,1,2,0:0:0:0:
192,192,51704,1,2,0:0:0:0:
320,192,51848,1,8,0:0:0:0:
448,192,52137,1,2,0:0:0:0:
64,192,52425,1,8,0:0:0:0:
320,192,52569,1,2,0:0:0:0:
320,192,52858,1,2,0:0:0:0:
64,192,53002,1,8,0:0:0:0:
448,192,53290,128,2,54012:0:0:0:0:
192,192,54012,1,2,0:0:0:0:
64,192,54300,128,4,54588:0:0:0:0:
320,192,54300,1,2,0:0:0:0:
448,192,54588,1,2,0:0:0:0:
320,192,54733,1,8,0:0:0:0:
192,192,54877,128,4,55165:0:0:0:0:
64,192,54877,1,2,0:0:0:0:
320,192,55165,1,2,0:0:0:0:
64,192,55310,1,8,0:0:0:0:
448,192,55454,1,2,0:0:0:0:
320,192,55454,1,4,0:0:0:0:
192,192,55887,1,8,0:0:0:0:
192,192,56175,1,8,0:0:0:0:
448,192,56463,1,8,0:0:0:0:
192,192,56608,1,2,0:0:0:0:
64,192,56608,1,4,0:0:0:0:
320,192,57040,1,8,0:0:0:0:
320,192,57329,1,8,0:0:0:0:
192,192,57617,1,8,0:0:0:0:
320,192,57762,1,4,0:0:0:0:
448,192,57762,1,2,0:0:0:0:
64,192,58194,1,8,0:0:0:0:
64,192,58483,1,8,0:0:0:0:
320,192,58771,1,8,0:0:0:0:
64,192,58915,1,2,0:0:0:0:
192,192,58915,1,4,0:0:0:0:
448,192,59348,1,8,0:0:0:0:
448,192,59637,1,8,0:0:0:0:
192,192,59925,1,8,0:0:0:0:
448,192,60069,1,2,0:0:0:0:
320,192,60069,1,4,0:0:0:0:
64,192,60502,1,8,0:0:0:0:
64,192,60790,1,8,0:0:0:0:
448,192,61079,1,8,0:0:0:0:
192,192,61223,1,4,0:0:0:0:
64,192,61223,1,2,0:0:0:0:
320,192,61656,1,8,0:0:0:0:
320,192,61944,1,8,0:0:0:0:
64,192,62088,1,8,0:0:0:0:
192,192,62233,1,8,0:0:0:0:
448,192,62377,1,2,0:0:0:0:
320,192,62377,1,4,0:0:0:0:
192,192,62810,1,12,0:0:0:0:
192,192,63098,1,8,0:0:0:0:
192,192,63387,1,12,0:0:0:0:
320,192,63675,1,8,0:0:0:0:
320,192,63963,1,12,0:0:0:0:
320,192,64252,1,8,0:0:0:0:
64,192,64540,1,8,0:0:0:0:
448,192,64685,1,2,0:0:0:0:
320,192,64685,1,4,0:0:0:0:
192,192,64973,1,2,0:0:0:0:
64,192,65117,1,8,0:0:0:0:
320,192,65406,1,2,0:0:0:0:
192,192,65550,1,2,0:0:0:0:
448,192,65694,1,8,0:0:0:0:
64,192,65838,1,2,0:0:0:0:
192,192,66127,1,2,0:0:0:0:
320,192,66271,1,8,0:0:0:0:
448,192,66560,1,2,0:0:0:0:
320,192,66704,1,2,0:0:0:0:
64,192,66848,1,8,0:0:0:0:
192,192,67137,1,4,0:0:0:0:
448,192,67137,128,2,67425:0:0:0:0:
64,192,67713,1,2,0:0:0:0:
320,192,67713,128,0,68002:0:0:0:0:
64,192,68290,1,2,0:0:0:0:
192,192,68290,128,0,68579:0:0:0:0:
64,192,69444,1,2,0:0:0:0:
448,192,69444,1,4,0:0:0:0:
320,192,69733,1,8,0:0:0:0:
320,192,70310,1,8,0:0:0:0:
64,192,70598,1,2,0:0:0:0:
192,192,70887,1,8,0:0:0:0:
448,192,71031,1,0,0:0:0:25:soft-hitclap.wav
192,192,71463,1,8,0:0:0:0:
320,192,71752,1,2,0:0:0:0:
448,192,72040,1,8,0:0:0:0:
64,192,72185,1,0,0:0:0:25:soft-hitclap.wav
448,192,72617,1,8,0:0:0:0:
320,192,72906,1,2,0:0:0:0:
192,192,73194,1,8,0:0:0:0:
448,192,73338,1,0,0:0:0:25:soft-hitclap.wav
192,192,73771,1,8,0:0:0:0:
64,192,74060,1,2,0:0:0:0:
320,192,74348,1,8,0:0:0:0:
192,192,74492,1,0,0:0:0:25:soft-hitclap.wav
320,192,74925,1,8,0:0:0:0:
448,192,75213,1,2,0:0:0:0:
64,192,75502,1,8,0:0:0:0:
320,192,75646,1,0,0:0:0:25:soft-hitclap.wav
64,192,76079,1,8,0:0:0:0:
192,192,76367,1,2,0:0:0:0:
448,192,76656,1,8,0:0:0:0:
64,192,76800,1,0,0:0:0:25:soft-hitclap.wav
192,192,76944,1,2,0:0:0:0:
448,192,77233,1,8,0:0:0:0:
192,192,77521,5,8,0:0:0:0:
64,192,77521,128,4,78675:0:0:0:0:
320,192,78675,5,2,0:0:0:0:
448,192,78675,128,4,79540:0:0:0:0:
192,192,79540,1,8,0:0:0:0:
64,192,79685,128,2,80694:0:0:0:0:
320,192,79685,1,4,0:0:0:0:
320,192,80694,1,8,0:0:0:0:
448,192,80983,128,2,81271:0:0:0:0:
64,192,80983,1,4,0:0:0:0:
192,192,81271,128,8,81560:0:0:0:0:
320,192,81560,1,8,0:0:0:0:
64,192,81704,1,2,0:0:0:0:
448,192,81848,1,8,0:0:0:0:
64,192,81992,1,4,0:0:0:0:
192,192,81992,128,2,82281:0:0:0:0:
320,192,82281,1,2,0:0:0:0:
64,192,82569,128,2,82858:0:0:0:0:
320,192,82858,1,2,0:0:0:0:
448,192,83002,128,8,83290:0:0:0:0:
192,192,83002,1,4,0:0:0:0:
64,192,83290,1,2,0:0:0:0:
320,192,83290,1,4,0:0:0:0:
448,192,83579,1,2,0:0:0:0:
192,192,83723,1,8,0:0:0:0:
64,192,83723,1,4,0:0:0:0:
320,192,84012,1,2,0:0:0:0:
64,192,84156,1,8,0:0:0:0:
448,192,84156,1,4,0:0:0:0:
192,192,84444,1,2,0:0:0:0:
320,192,84588,1,8,0:0:0:0:
448,192,84588,1,4,0:0:0:0:
192,192,84877,1,2,0:0:0:0:
64,192,85021,1,4,0:0:0:0:
448,192,85021,1,0,0:0:0:0:
320,192,85310,1,2,0:0:0:0:
192,192,85454,128,2,85742:0:0:0:0:
448,192,85742,1,2,0:0:0:0:
320,192,85887,128,2,86175:0:0:0:0:
64,192,86175,1,2,0:0:0:0:
448,192,86319,128,0,86608:0:0:0:0:
192,192,86608,1,2,0:0:0:0:
64,192,86752,128,8,87906:0:0:0:0:
