osu file format v14

[General]
AudioFilename: audio.mp3
AudioLeadIn: 0
PreviewTime: 37070
Countdown: 0
SampleSet: Soft
StackLeniency: 0.7
Mode: 0
LetterboxInBreaks: 0
WidescreenStoryboard: 1

[Editor]
Bookmarks: 31085,45219
DistanceSpacing: 1.7
BeatDivisor: 4
GridSize: 4
TimelineZoom: 2.3

[Metadata]
Title:Utsuroi (Short Ver.)
TitleUnicode:うつろい (Short Ver.)
Artist:TrySail
ArtistUnicode:TrySail
Creator:Log Off Now
Version:mnyui's Extra
Source:マギアレコード 魔法少女まどか☆マギカ外伝
Tags:japanese video game version magia record puella magi madoka magica side story gaiden opening 2 op magireco マギレコ magical girl 麻倉もも Asakura Momo 雨宮天 Amamiya Sora 夏川椎菜 Natsukawa Shiina anime rock jrock j-rock pop jpop j-pop browiec nexusqi nexus mnyui kowari
BeatmapID:2410949
BeatmapSetID:1155295

[Difficulty]
HPDrainRate:5
CircleSize:3.6
OverallDifficulty:9
ApproachRate:9.2
SliderMultiplier:1.6
SliderTickRate:1

[Events]
//Background and Video events
0,0,"trysailutsuroi.jpg",0,0
//Break Periods
//Storyboard Layer 0 (Background)
//Storyboard Layer 1 (Fail)
//Storyboard Layer 2 (Pass)
//Storyboard Layer 3 (Foreground)
//Storyboard Layer 4 (Overlay)
//Storyboard Sound Samples

[TimingPoints]
225,288.461538461538,4,2,1,35,1,0
225,-125,4,2,1,35,0,0
8734,-142.857142857143,4,2,1,35,0,0
9455,-111.111111111111,4,2,1,45,0,0
18686,-105.263157894737,4,2,1,45,0,0
20849,-105.263157894737,4,2,2,45,0,0
20994,-105.263157894737,4,2,1,45,0,0
22941,-105.263157894737,4,2,2,45,0,0
23013,-105.263157894737,4,2,1,45,0,0
23157,-105.263157894737,4,2,2,45,0,0
23301,-105.263157894737,4,2,1,45,0,0
25465,-105.263157894737,4,2,2,45,0,0
25609,-105.263157894737,4,2,1,45,0,0
25753,-105.263157894737,4,2,2,45,0,0
25898,-105.263157894737,4,2,1,45,0,0
27773,-105.263157894737,4,2,2,45,0,0
27917,-100,4,2,1,55,0,0
34840,-100,4,2,1,65,0,0
36138,-100,4,2,1,55,0,0
36282,-100,4,2,1,60,0,0
36426,-100,4,2,1,65,0,0
36571,-100,4,2,1,70,0,0
37003,-100,4,2,1,10,0,0
37148,-83.3333333333333,4,2,1,75,0,1
67148,-83.3333333333333,4,2,1,75,0,0
69455,-111.111111111111,4,2,1,55,0,0
77532,-111.111111111111,4,2,1,65,0,0
78109,-111.111111111111,4,2,1,70,0,0
78686,-83.3333333333333,4,2,1,75,0,1
86763,-83.3333333333333,4,2,1,65,0,1
87340,-83.3333333333333,4,2,1,70,0,1
87917,-83.3333333333333,4,2,1,75,0,0

[Colours]
Combo1 : 251,211,94
Combo2 : 162,148,226
Combo3 : 0,66,147
Combo4 : 157,40,28

[HitObjects]
56,157,225,6,0,P|110:86|219:119,1,192,0|0,3:0|0:0,0:0:0:0:
131,229,801,2,0,P|139:184|144:152,1,64,2|2,0:0|0:0,0:0:0:0:
286,109,1090,1,2,0:0:0:0:
487,243,1378,6,0,B|385:211|413:302|307:281,1,192,0|0,3:0|0:0,0:0:0:0:
286,109,1955,2,0,P|334:137|312:222,1,128,2|2,0:0|0:0,0:0:0:0:
60,322,2532,2,0,B|128:311|202:296|202:296|254:348,1,192,0|0,3:0|0:0,0:0:0:0:
233,199,3108,1,2,0:0:0:0:
344,306,3253,1,2,0:0:0:0:
382,123,3397,1,2,0:0:0:0:
142,264,3686,6,0,P|136:186|121:62,1,192,0|0,3:0|0:0,0:0:0:0:
264,0,4263,2,0,P|225:43|242:125,1,128,2|2,0:0|0:0,0:0:0:0:
441,85,4840,2,0,P|352:77|310:74,1,128,2|0,3:3|0:0,0:0:0:0:
337,219,5417,2,0,P|345:180|355:140,1,64,2|2,0:0|0:0,0:0:0:0:
216,46,5705,2,0,P|223:77|229:108,1,64,2|0,0:0|0:0,0:0:0:0:
190,262,5994,2,0,P|175:225|92:218,1,128,0|0,3:0|0:0,0:0:0:0:
59,298,6426,1,2,3:3:0:0:
183,362,6571,2,0,P|222:353|254:349,1,64,2|0,0:3|0:0,0:0:0:0:
347,262,6859,2,0,P|308:253|276:249,1,64,2|0,3:3|0:0,0:0:0:0:
83,87,7148,6,0,P|89:149|96:224,1,128,2|0,3:3|0:0,0:0:0:0:
262,148,7580,1,2,3:3:0:0:
262,148,7724,2,0,P|209:137|185:132,1,64,0|2,0:0|0:0,0:0:0:0:
92,238,8013,2,0,P|145:227|169:222,1,64,2|0,3:3|0:0,0:0:0:0:
347,262,8301,5,2,0:0:0:0:
154,224,8446,1,2,0:0:0:0:
253,357,8590,1,2,0:0:0:0:
422,192,8734,6,0,P|358:109|260:146,1,223.999993164063,2|0,0:0|0:0,0:0:0:0:
24,327,9455,6,0,P|79:322|177:312,1,143.999995605469,4|8,1:2|0:0,0:0:0:0:
225,236,9888,1,0,3:0:0:0:
115,165,10032,2,0,P|127:215|140:260,1,71.9999978027344,0|0,3:0|3:0,0:0:0:0:
306,269,10321,2,0,P|315:234|323:199,1,71.9999978027344,8|0,0:0|3:0,0:0:0:0:
487,62,10609,6,0,P|434:73|400:78,2,71.9999978027344,0|0|8,3:0|3:0|0:0,0:0:0:0:
344,7,11042,1,0,3:0:0:0:
278,125,11186,2,0,P|271:89|264:54,1,71.9999978027344,0|0,3:0|3:0,0:0:0:0:
408,163,11474,2,0,P|400:198|394:233,1,71.9999978027344,8|0,0:0|1:0,0:0:0:0:
183,289,11763,6,0,P|225:232|317:239,1,143.999995605469,0|8,1:0|0:0,0:0:0:0:
342,303,12196,1,0,3:0:0:0:
198,382,12340,2,0,P|158:376|102:364,1,71.9999978027344,0|0,3:0|3:0,0:0:0:0:
33,251,12628,2,0,P|68:245|103:238,1,71.9999978027344,8|0,0:0|3:0,0:0:0:0:
234,140,12917,2,0,P|225:189|222:219,1,71.9999978027344,0|0,3:0|3:0,0:0:0:0:
56,168,13205,1,8,0:0:0:0:
126,2,13349,2,0,P|142:90|147:144,1,143.999995605469,0|0,3:0|3:0,0:0:0:0:
314,211,13782,2,0,P|319:164|328:118,1,71.9999978027344,8|0,0:0|1:0,0:0:0:0:
442,22,14071,5,0,1:0:0:0:
417,110,14215,1,0,3:0:0:0:
282,59,14359,2,0,P|328:49|357:43,1,71.9999978027344,8|0,0:0|3:0,0:0:0:0:
497,135,14648,2,0,P|451:125|422:119,1,71.9999978027344,0|0,3:0|3:0,0:0:0:0:
314,211,14936,2,0,P|360:201|389:195,1,71.9999978027344,8|0,0:0|3:0,0:0:0:0:
484,373,15224,6,0,P|491:322|499:282,1,71.9999978027344,0|0,3:0|3:0,0:0:0:0:
384,195,15513,1,8,0:0:0:0:
307,349,15657,2,0,P|226:340|136:332,1,143.999995605469,0|0,3:0|3:0,0:0:0:0:
231,187,16090,2,0,P|242:230|250:280,1,71.9999978027344,8|0,0:0|1:0,0:0:0:0:
58,381,16378,6,0,P|64:345|73:310,1,71.9999978027344,0|0,1:0|3:0,0:0:0:0:
158,232,16667,1,8,0:0:0:0:
163,334,16811,1,0,3:0:0:0:
31,225,16955,2,0,P|24:189|15:154,1,71.9999978027344,0|0,3:0|3:0,0:0:0:0:
171,73,17244,2,0,P|161:107|155:143,1,71.9999978027344,8|0,0:0|3:0,0:0:0:0:
264,278,17532,6,0,P|302:269|349:260,1,71.9999978027344,0|0,3:0|3:0,0:0:0:0:
444,193,17821,1,8,0:0:0:0:
477,344,17965,2,0,P|439:335|392:326,1,71.9999978027344,0|0,3:0|3:0,0:0:0:0:
351,180,18253,1,8,0:3:0:0:
257,294,18398,2,0,P|295:285|342:276,1,71.9999978027344,8|4,0:0|0:3,0:0:0:0:
484,115,18686,6,0,P|436:171|363:168,1,151.999995941162,6|0,1:2|1:0,0:0:0:0:
409,9,19119,1,0,0:0:0:0:
409,9,19263,2,0,P|405:42|398:95,1,75.9999979705811,2|2,1:2|0:0,0:0:0:0:
275,181,19551,1,0,1:0:0:0:
317,89,19696,1,2,0:0:0:0:
387,255,19840,6,0,B|288:235|330:306|222:282,1,151.999995941162,0|0,1:2|1:0,0:0:0:0:
152,147,20273,1,2,0:0:0:0:
152,147,20417,2,0,P|161:199|164:240,1,75.9999979705811,2|2,1:2|0:0,0:0:0:0:
32,280,20705,2,0,P|36:240|43:200,1,75.9999979705811,2|2,1:2|0:3,0:0:0:0:
112,379,20994,6,0,P|132:333|245:321,1,151.999995941162,0|0,1:0|1:0,0:0:0:0:
389,374,21426,1,2,0:0:0:0:
307,237,21571,2,0,P|316:293|319:335,1,75.9999979705811,2|2,1:2|0:0,0:0:0:0:
437,235,21859,2,0,P|441:195|448:155,1,75.9999979705811,2|0,1:2|0:0,0:0:0:0:
287,59,22148,6,0,P|300:123|320:235,1,151.999995941162,2|0,1:2|1:0,0:0:0:0:
389,97,22580,1,2,0:0:0:0:
199,208,22724,2,0,P|209:158|213:127,1,75.9999979705811,2|0,1:2|0:0,0:0:0:0:
78,41,23013,2,0,P|83:80|91:119,1,75.9999979705811,2|2,1:2|0:3,0:0:0:0:
86,286,23301,6,0,B|153:268|195:258|195:258|248:288,1,151.999995941162,2|0,1:2|1:0,0:0:0:0:
316,216,23734,1,0,0:0:0:0:
335,375,23878,2,0,P|280:369|238:363,1,75.9999979705811,2|2,1:2|0:0,0:0:0:0:
326,226,24167,1,0,1:0:0:0:
404,309,24311,1,2,0:0:0:0:
455,140,24455,6,0,P|445:187|433:299,1,151.999995941162,0|0,1:2|1:0,0:0:0:0:
302,123,24888,1,2,0:0:0:0:
259,260,25032,2,0,P|305:245|343:233,1,75.9999979705811,2|2,1:2|0:0,0:0:0:0:
465,130,25321,2,0,P|419:115|381:103,1,75.9999979705811,2|2,1:2|0:3,0:0:0:0:
232,56,25609,6,0,P|226:33|222:13,2,37.9999989852906,0|0|2,1:0|0:0|0:3,0:0:0:0:
133,185,25898,2,0,P|141:145|155:90,1,75.9999979705811,0|0,1:0|0:0,0:0:0:0:
241,181,26186,2,0,P|250:219|258:259,1,75.9999979705811,2|2,1:2|0:0,0:0:0:0:
92,345,26474,2,0,P|131:337|170:327,1,75.9999979705811,2|0,1:2|0:0,0:0:0:0:
380,242,26763,6,0,P|370:294|361:358,2,113.999996955872,0|2|2,1:0|0:0|0:0,0:0:0:0:
495,175,27340,2,0,P|488:238|485:274,1,75.9999979705811,2|0,1:2|0:0,0:0:0:0:
359,152,27628,2,0,P|356:112|351:72,1,75.9999979705811,2|2,1:2|0:3,0:0:0:0:
267,223,27917,6,0,P|249:250|122:242,1,160,6|8,1:2|0:0,0:0:0:0:
82,199,28349,1,8,0:3:0:0:
209,113,28494,2,0,P|198:160|193:194,1,80,2|4,0:0|0:3,0:0:0:0:
76,280,28782,1,0,1:0:0:0:
82,199,28926,1,0,3:0:0:0:
161,347,29071,2,0,P|255:339|343:334,1,160,0|8,1:0|0:0,0:0:0:0:
471,263,29503,1,2,0:0:0:0:
363,208,29648,2,0,P|382:262|408:371,1,160,2|2,1:2|1:2,0:0:0:0:
502,107,30224,6,0,P|422:94|343:82,1,160,4|8,1:2|0:0,0:0:0:0:
255,13,30657,1,8,0:3:0:0:
200,182,30801,2,0,P|246:174|294:167,1,80,2|4,0:0|0:3,0:0:0:0:
176,76,31090,2,0,P|138:69|95:63,1,80,2|0,1:2|3:0,0:0:0:0:
0,18,31378,6,0,P|6:77|24:158,2,120,2|2|2,1:2|0:0|0:0,0:0:0:0:
104,193,31955,2,0,P|159:179|192:171,1,80,2|0,1:2|0:0,0:0:0:0:
259,317,32244,2,0,P|207:304|176:297,1,80,2|0,1:2|0:0,0:0:0:0:
289,106,32532,6,0,P|321:131|295:242,1,160,6|8,1:2|0:0,0:0:0:0:
259,317,32965,1,8,0:3:0:0:
431,341,33109,2,0,P|386:328|352:325,1,80,2|4,0:0|0:3,0:0:0:0:
250,190,33398,1,0,1:0:0:0:
178,364,33542,2,0,P|223:351|257:348,2,80,2|2|0,0:0|1:2|0:0,0:0:0:0:
78,214,33974,6,0,P|94:251|103:289,1,80,8|0,0:0|0:0,0:0:0:0:
250,190,34263,2,0,P|258:159|277:100,1,80,2|0,1:2|0:0,0:0:0:0:
68,224,34551,2,0,P|84:261|93:299,1,80,2|0,1:2|0:0,0:0:0:0:
351,100,34840,6,0,P|289:30|218:54,1,160,12|0,0:0|1:0,0:0:0:0:
314,249,35273,2,0,P|387:239|488:226,1,160,12|2,0:0|0:0,0:0:0:0:
354,132,35705,1,8,0:0:0:0:
330,340,35849,2,0,P|296:335|233:328,1,80,4|0,1:2|0:0,0:0:0:0:
31,110,36138,5,8,0:0:0:0:
223,244,36282,1,8,0:0:0:0:
1,316,36426,1,8,0:0:0:0:
192,74,36571,1,10,0:0:0:0:
406,353,37148,6,0,P|412:307|419:251,1,95.9999970703126,6|0,1:2|0:0,0:0:0:0:
271,94,37436,2,0,P|276:141|283:189,1,95.9999970703126,8|2,0:0|1:2,0:0:0:0:
477,182,37724,1,2,0:0:0:0:
356,56,37869,1,2,1:2:0:0:
305,283,38013,1,8,0:0:0:0:
398,140,38157,1,2,0:0:0:0:
512,349,38301,6,0,P|461:338|411:330,1,95.9999970703126,2|0,1:2|0:0,0:0:0:0:
317,189,38590,1,10,0:0:0:0:
218,384,38734,2,0,P|321:361|422:345,1,191.999994140625,2|2,1:2|1:2,0:0:0:0:
188,211,39167,2,0,P|207:263|217:314,1,95.9999970703126,10|0,0:0|0:0,0:0:0:0:
406,177,39455,6,0,P|345:108|255:126,1,191.999994140625,2|8,1:2|0:0,0:0:0:0:
404,2,39888,2,0,P|386:47|373:93,1,95.9999970703126,2|0,1:2|0:0,0:0:0:0:
188,211,40176,2,0,P|174:164|157:120,1,95.9999970703126,2|8,1:2|0:0,0:0:0:0:
317,189,40465,1,2,0:0:0:0:
136,329,40609,6,0,B|252:296|198:389|339:359,1,191.999994140625,2|8,1:2|0:0,0:0:0:0:
455,221,41042,2,0,P|467:278|472:328,1,95.9999970703126,2|0,1:2|0:0,0:0:0:0:
391,144,41330,1,2,1:2:0:0:
286,278,41474,2,0,P|343:266|393:261,1,95.9999970703126,10|0,0:0|0:0,0:0:0:0:
501,147,41763,6,0,P|444:135|394:130,1,95.9999970703126,2|2,1:2|0:0,0:0:0:0:
199,185,42051,1,8,0:0:0:0:
359,64,42196,1,2,1:2:0:0:
126,104,42340,2,0,P|183:92|233:87,1,95.9999970703126,2|0,0:0|1:0,0:0:0:0:
126,263,42628,2,0,P|69:251|19:246,1,95.9999970703126,10|0,0:0|0:0,0:0:0:0:
295,154,42917,6,0,P|283:226|265:360,1,191.999994140625,2|8,1:2|0:0,0:0:0:0:
392,152,43349,1,2,1:2:0:0:
460,273,43494,2,0,P|424:267|357:258,1,95.9999970703126,2|0,0:0|1:0,0:0:0:0:
279,142,43782,2,0,P|314:136|381:127,1,95.9999970703126,10|0,0:0|0:0,0:0:0:0:
202,20,44071,5,2,1:2:0:0:
107,200,44215,1,2,0:0:0:0:
279,142,44359,1,8,0:0:0:0:
95,64,44503,1,2,1:2:0:0:
178,274,44648,2,0,P|249:259|290:248,1,95.9999970703126,2|0,0:0|1:0,0:0:0:0:
479,139,44936,2,0,P|408:124|367:113,1,95.9999970703126,10|0,0:0|0:0,0:0:0:0:
314,331,45224,6,0,P|355:284|308:169,1,191.999994140625,2|8,1:2|0:0,0:0:0:0:
95,64,45657,2,0,P|110:115|117:158,1,95.9999970703126,2|0,1:2|0:0,0:0:0:0:
271,253,45946,1,0,1:0:0:0:
83,316,46090,1,8,0:0:0:0:
209,123,46234,1,8,0:0:0:0:
328,344,46378,6,0,B|384:327|462:309|462:309|516:358,1,191.999994140625,6|8,1:2|0:0,0:0:0:0:
481,174,46811,1,2,1:2:0:0:
380,294,46955,2,0,P|371:246|361:199,1,95.9999970703126,2|0,0:0|1:0,0:0:0:0:
467,62,47244,1,8,0:0:0:0:
472,184,47388,1,2,0:0:0:0:
329,33,47532,6,0,P|319:80|310:127,1,95.9999970703126,2|0,1:2|0:0,0:0:0:0:
463,193,47821,1,8,0:0:0:0:
272,218,47965,2,0,P|217:208|165:198,1,95.9999970703126,2|0,1:2|0:0,0:0:0:0:
99,109,48253,1,2,1:2:0:0:
10,299,48398,2,0,P|64:289|116:279,1,95.9999970703126,10|0,0:0|0:0,0:0:0:0:
365,226,48686,6,0,P|346:153|212:151,1,191.999994140625,2|8,1:2|0:2,0:0:0:0:
338,328,49119,2,0,P|408:316|467:310,1,95.9999970703126,2|0,1:2|0:0,0:0:0:0:
272,218,49407,2,0,P|202:206|143:200,1,95.9999970703126,2|8,1:2|0:0,0:0:0:0:
42,154,49696,1,2,0:0:0:0:
227,34,49840,6,0,P|233:81|241:128,1,95.9999970703126,2|0,1:2|0:0,0:0:0:0:
132,1,50128,1,8,0:2:0:0:
55,141,50273,2,0,P|102:134|149:126,1,95.9999970703126,2|0,1:2|0:0,0:0:0:0:
314,52,50561,1,2,1:2:0:0:
360,236,50705,2,0,P|312:229|265:221,1,95.9999970703126,10|0,0:2|0:0,0:0:0:0:
5,321,50994,6,0,B|79:304|147:290|147:290|189:328,1,191.999994140625,4|8,1:2|0:0,0:0:0:0:
335,144,51426,1,0,1:0:0:0:
269,325,51571,2,0,P|257:261|246:211,1,95.9999970703126,2|0,0:0|1:0,0:0:0:0:
470,119,51859,2,0,P|460:166|452:213,1,95.9999970703126,10|0,0:0|0:0,0:0:0:0:
244,129,52148,6,0,P|283:61|403:78,1,191.999994140625,2|8,1:2|0:0,0:0:0:0:
470,119,52580,1,0,1:0:0:0:
327,239,52724,2,0,P|331:180|336:133,1,95.9999970703126,2|0,0:0|1:0,0:0:0:0:
144,27,53013,2,0,P|148:74|151:122,1,95.9999970703126,10|2,0:0|0:0,0:0:0:0:
23,258,53301,6,0,P|111:247|238:230,1,191.999994140625,2|8,1:2|0:0,0:0:0:0:
340,357,53734,2,0,P|343:334|346:310,1,47.9999985351563,8|8,0:0|0:0,0:0:0:0:
337,134,53878,1,8,0:0:0:0:
495,203,54023,1,4,1:2:0:0:
485,193,54311,6,0,B|371:156|431:258|280:207,1,191.999994140625,6|0,1:2|1:0,0:0:0:0:
186,142,54744,1,10,0:0:0:0:
267,8,54888,2,0,P|348:45|311:153,1,191.999994140625,6|0,1:2|1:0,0:0:0:0:
187,257,55321,1,8,0:0:0:0:
274,88,55465,6,0,P|282:176|295:305,1,191.999994140625,6|2,1:2|1:2,0:0:0:0:
471,374,55898,2,0,P|476:316|481:259,1,95.9999970703126,8|0,0:0|1:0,0:0:0:0:
337,134,56186,1,10,0:0:0:0:
379,320,56330,1,2,1:2:0:0:
492,138,56474,1,8,0:0:0:0:
292,279,56619,6,0,B|180:246|224:336|102:301,1,191.999994140625,6|0,1:2|1:0,0:0:0:0:
120,133,57051,2,0,P|137:198|142:241,1,95.9999970703126,8|0,0:0|1:0,0:0:0:0:
365,219,57340,1,8,0:0:0:0:
210,123,57484,1,0,1:0:0:0:
246,348,57628,1,8,0:0:0:0:
451,190,57773,6,0,P|411:138|284:179,1,191.999994140625,6|2,1:2|1:2,0:0:0:0:
440,5,58205,2,0,P|413:76|401:111,1,95.9999970703126,10|0,0:0|1:0,0:0:0:0:
241,222,58494,1,10,0:0:0:0:
321,54,58638,1,2,1:2:0:0:
377,245,58782,1,8,0:0:0:0:
120,97,58926,6,0,P|214:80|310:68,1,191.999994140625,6|0,1:2|1:0,0:0:0:0:
230,237,59359,2,0,P|183:228|135:222,1,95.9999970703126,8|0,0:0|1:0,0:0:0:0:
372,147,59648,1,8,0:0:0:0:
356,341,59792,1,0,1:0:0:0:
278,156,59936,1,8,0:0:0:0:
136,303,60080,6,0,P|69:290|67:169,1,191.999994140625,6|2,1:2|1:2,0:0:0:0:
238,265,60513,2,0,P|224:319|209:377,1,95.9999970703126,10|0,0:0|1:0,0:0:0:0:
160,105,60801,1,10,0:0:0:0:
334,227,60946,1,2,1:2:0:0:
129,220,61090,1,8,0:0:0:0:
321,40,61234,6,0,P|332:106|349:238,1,191.999994140625,6|0,1:2|1:0,0:0:0:0:
507,100,61667,2,0,P|448:90|396:83,1,95.9999970703126,8|0,0:0|1:0,0:0:0:0:
247,195,61955,1,8,0:0:0:0:
448,195,62099,1,8,0:0:0:0:
335,116,62244,1,8,0:0:0:0:
280,332,62388,6,0,B|162:295|207:394|52:352,1,191.999994140625,6|0,1:2|1:0,0:0:0:0:
61,116,62821,1,12,0:0:0:0:
128,280,62965,1,0,1:0:0:0:
0,215,63109,2,0,P|58:205|98:198,1,95.9999970703126,12|0,0:0|1:0,0:0:0:0:
246,102,63398,2,0,P|188:92|148:85,1,95.9999970703126,12|0,0:0|1:0,0:0:0:0:
10,225,63686,2,0,P|68:215|108:208,1,95.9999970703126,12|0,0:0|1:0,0:0:0:0:
297,333,63974,6,0,P|303:276|314:219,1,95.9999970703126,12|0,0:0|1:0,0:0:0:0:
445,116,64263,2,0,P|453:163|457:211,1,95.9999970703126,12|0,0:0|1:0,0:0:0:0:
304,47,64551,1,12,0:0:0:0:
222,231,64696,6,0,P|249:173|375:187,1,191.999994140625,6|0,1:2|1:0,0:0:0:0:
150,322,65128,2,0,P|137:256|129:185,1,95.9999970703126,10|0,0:0|0:0,0:0:0:0:
182,40,65417,1,2,1:2:0:0:
309,237,65561,1,0,1:0:0:0:
95,152,65705,1,8,0:0:0:0:
304,47,65849,6,0,P|294:103|286:148,1,95.9999970703126,2|0,1:2|0:0,0:0:0:0:
402,261,66138,1,2,1:2:0:0:
205,162,66282,2,0,P|213:209|221:256,1,95.9999970703126,10|0,0:0|0:0,0:0:0:0:
489,260,66571,2,0,P|456:192|339:196,1,191.999994140625,2|10,1:2|0:0,0:0:0:0:
83,368,67148,5,6,1:2:0:0:
78,358,67724,5,6,1:2:0:0:
73,348,68301,5,6,1:2:0:0:
127,273,68446,1,8,0:0:0:0:
167,354,68590,1,8,0:0:0:0:
483,151,69455,6,0,P|444:96|347:103,1,143.999995605469,4|8,1:2|0:2,0:0:0:0:
293,146,69888,1,0,3:0:0:0:
388,248,70032,2,0,P|394:212|399:176,1,71.9999978027344,2|0,0:2|3:0,0:0:0:0:
250,81,70321,2,0,P|255:116|261:152,1,71.9999978027344,10|0,0:2|0:0,0:0:0:0:
159,287,70609,2,0,P|92:274|65:269,2,71.9999978027344,0|0|8,3:2|3:0|0:2,0:0:0:0:
193,209,71042,1,0,3:0:0:0:
244,356,71186,2,0,P|279:349|314:342,1,71.9999978027344,2|0,0:0|3:0,0:0:0:0:
453,377,71474,2,0,P|458:319|458:296,1,71.9999978027344,10|0,0:2|3:0,0:0:0:0:
482,143,71763,6,0,B|394:127|442:182|338:165,1,143.999995605469,0|8,1:0|0:0,0:0:0:0:
250,123,72196,1,0,3:0:0:0:
380,15,72340,2,0,P|369:70|363:97,1,71.9999978027344,2|2,0:0|0:0,0:0:0:0:
259,208,72628,2,0,P|204:197|177:191,1,71.9999978027344,10|0,0:2|3:0,0:0:0:0:
152,43,72917,2,0,P|163:98|169:125,1,71.9999978027344,0|0,3:2|3:0,0:0:0:0:
182,206,73205,1,8,0:2:0:0:
52,228,73349,2,0,P|59:192|66:157,2,71.9999978027344,0|2|0,3:0|0:0|3:0,0:0:0:0:
146,311,73782,2,0,P|198:300|246:291,1,71.9999978027344,10|0,0:2|3:0,0:0:0:0:
385,312,74071,5,0,1:0:0:0:
260,212,74215,1,0,0:0:0:0:
292,366,74359,2,0,P|301:316|307:274,1,71.9999978027344,8|0,0:0|3:0,0:0:0:0:
353,150,74648,2,0,P|358:185|365:220,1,71.9999978027344,2|0,0:0|3:0,0:0:0:0:
482,254,74936,2,0,P|489:218|494:183,1,71.9999978027344,10|0,0:0|3:0,0:0:0:0:
436,82,75224,6,0,P|400:76|365:69,1,71.9999978027344,0|0,1:0|0:0,0:0:0:0:
232,135,75513,1,8,0:0:0:0:
290,39,75657,1,0,3:0:0:0:
310,183,75801,2,0,P|299:226|291:276,1,71.9999978027344,2|0,0:0|3:0,0:0:0:0:
148,161,76090,2,0,P|141:125|132:90,1,71.9999978027344,10|0,0:0|3:0,0:0:0:0:
88,315,76378,6,0,P|112:267|199:258,1,143.999995605469,0|10,1:0|0:2,0:0:0:0:
256,336,76811,1,0,3:0:0:0:
359,206,76955,2,0,P|363:251|366:297,1,71.9999978027344,0|0,1:0|3:0,0:0:0:0:
459,354,77244,2,0,P|461:318|464:282,1,71.9999978027344,10|0,0:2|3:0,0:0:0:0:
264,194,77532,1,12,0:0:0:0:
487,39,77821,6,0,L|492:75,3,35.9999989013672,0|0|0|0,3:0|3:0|3:0|3:0,0:0:0:0:
382,178,78109,2,0,L|418:183,3,35.9999989013672,0|0|0|0,3:0|3:0|3:0|3:0,0:0:0:0:
309,18,78398,2,0,L|273:23,3,35.9999989013672,0|0|0|0,3:0|3:0|3:0|3:0,0:0:0:0:
79,44,78686,6,0,P|96:116|104:152,1,95.9999970703126,6|0,1:2|0:0,0:0:0:0:
204,293,78974,2,0,P|214:246|225:199,1,95.9999970703126,8|2,0:0|0:0,0:0:0:0:
29,341,79263,1,8,0:0:0:0:
100,137,79407,1,0,1:0:0:0:
211,308,79551,1,8,0:0:0:0:
9,222,79696,6,0,P|20:131|38:14,1,191.999994140625,6|0,1:2|1:0,0:0:0:0:
222,144,80128,1,8,0:0:0:0:
91,238,80273,1,0,1:0:0:0:
158,49,80417,1,8,0:0:0:0:
254,230,80561,1,0,1:0:0:0:
100,137,80705,1,8,0:0:0:0:
30,318,80849,1,8,0:0:0:0:
267,247,80994,6,0,P|206:237|165:233,1,95.9999970703126,6|0,1:2|0:0,0:0:0:0:
276,380,81282,2,0,P|323:374|370:366,1,95.9999970703126,8|0,0:0|1:0,0:0:0:0:
355,166,81571,1,10,0:0:0:0:
217,318,81715,1,2,1:2:0:0:
424,274,81859,1,10,0:0:0:0:
174,122,82003,6,0,P|188:196|202:323,1,191.999994140625,6|0,1:2|1:0,0:0:0:0:
370,192,82436,2,0,P|317:187|273:181,1,95.9999970703126,8|2,0:0|1:2,0:0:0:0:
108,47,82724,2,0,P|161:42|205:36,1,95.9999970703126,8|2,0:0|1:2,0:0:0:0:
386,0,83013,2,0,P|379:47|375:95,1,95.9999970703126,14|0,0:0|0:0,0:0:0:0:
371,294,83301,5,12,0:0:0:0:
176,219,83446,2,0,P|191:270|202:319,1,95.9999970703126,0|0,1:0|1:0,0:0:0:0:
320,168,83734,1,12,0:0:0:0:
103,80,83879,2,0,P|88:131|77:180,1,95.9999970703126,0|0,1:0|1:0,0:0:0:0:
292,254,84167,5,12,0:0:0:0:
184,125,84312,1,0,1:0:0:0:
118,307,84456,1,0,1:0:0:0:
320,168,84599,5,12,0:0:0:0:
70,208,84744,1,0,1:0:0:0:
270,339,84888,1,0,1:0:0:0:
280,78,85032,5,12,0:0:0:0:
202,277,85176,1,0,1:0:0:0:
419,232,85321,1,0,1:0:0:0:
198,140,85465,6,0,P|166:148|142:153,5,47.9999985351563,12|8|8|8|0|0,0:0|0:3|0:3|0:3|1:0|1:0,0:0:0:0:
371,98,85898,2,0,P|394:103|417:109,5,47.9999985351563,8|8|4|4|0|0,0:3|0:3|0:3|0:3|1:0|1:0,0:0:0:0:
311,187,86330,1,8,0:0:0:0:
311,187,86402,1,8,0:3:0:0:
311,187,86474,2,0,P|309:211|305:235,3,47.9999985351563,4|4|0|0,0:3|0:3|1:0|1:0,0:0:0:0:
196,361,86763,6,0,P|191:337|186:313,3,47.9999985351563,8|8|8|8,0:0|0:0|0:0|0:0,0:0:0:0:
67,267,87051,6,0,P|74:236|79:203,1,47.9999985351563,8|8,0:0|0:0,0:0:0:0:
182,154,87196,2,0,P|187:177|192:200,1,47.9999985351563,8|8,0:0|0:0,0:0:0:0:
63,115,87340,6,0,P|56:84|51:51,1,47.9999985351563,8|8,0:0|0:0,0:0:0:0:
291,107,87484,2,0,P|286:130|281:153,1,47.9999985351563,8|8,0:0|0:0,0:0:0:0:
144,67,87628,6,0,P|137:36|132:3,1,47.9999985351563,8|8,0:0|0:0,0:0:0:0:
285,239,87773,2,0,P|280:262|275:285,1,47.9999985351563,8|8,0:0|0:0,0:0:0:0:
