osu file format v14

[General]
AudioFilename: audio.mp3
AudioLeadIn: 0
PreviewTime: 37070
Countdown: 0
SampleSet: Soft
StackLeniency: 0.7
Mode: 0
LetterboxInBreaks: 0
WidescreenStoryboard: 1

[Editor]
DistanceSpacing: 1
BeatDivisor: 4
GridSize: 4
TimelineZoom: 2.1

[Metadata]
Title:Utsuroi (Short Ver.)
TitleUnicode:うつろい (Short Ver.)
Artist:TrySail
ArtistUnicode:TrySail
Creator:Log Off Now
Version:browiec's Wisdom
Source:マギアレコード 魔法少女まどか☆マギカ外伝
Tags:japanese video game version magia record puella magi madoka magica side story gaiden opening 2 op magireco マギレコ magical girl 麻倉もも Asakura Momo 雨宮天 Amamiya Sora 夏川椎菜 Natsukawa Shiina anime rock jrock j-rock pop jpop j-pop browiec nexusqi nexus mnyui kowari
BeatmapID:2410945
BeatmapSetID:1155295

[Difficulty]
HPDrainRate:5.8
CircleSize:4
OverallDifficulty:9.2
ApproachRate:9.4
SliderMultiplier:1.8
SliderTickRate:1

[Events]
//Background and Video events
0,0,"trysailutsuroi.jpg",0,0
//Break Periods
//Storyboard Layer 0 (Background)
//Storyboard Layer 1 (Fail)
//Storyboard Layer 2 (Pass)
//Storyboard Layer 3 (Foreground)
//Storyboard Layer 4 (Overlay)
//Storyboard Sound Samples

[TimingPoints]
225,288.461538461538,4,2,1,35,1,0
225,-250,4,2,1,35,0,0
9455,-133.333333333333,4,2,1,45,0,0
20849,-133.333333333333,4,2,2,45,0,0
20994,-133.333333333333,4,2,1,45,0,0
22941,-133.333333333333,4,2,2,45,0,0
23013,-133.333333333333,4,2,1,45,0,0
23157,-133.333333333333,4,2,2,45,0,0
23301,-133.333333333333,4,2,1,45,0,0
25465,-133.333333333333,4,2,2,45,0,0
25609,-133.333333333333,4,2,1,45,0,0
25753,-133.333333333333,4,2,2,45,0,0
25898,-133.333333333333,4,2,1,45,0,0
27773,-133.333333333333,4,2,2,45,0,0
27917,-125,4,2,1,55,0,0
34840,-111.111111111111,4,2,1,65,0,0
36138,-111.111111111111,4,2,1,55,0,0
36282,-111.111111111111,4,2,1,60,0,0
36426,-111.111111111111,4,2,1,65,0,0
36571,-250,4,2,1,70,0,0
37003,-250,4,2,1,10,0,0
37148,-100,4,2,1,75,0,1
67148,-125,4,2,1,75,0,0
68590,-200,4,2,1,75,0,0
69455,-133.333333333333,4,2,1,55,0,0
77532,-133.333333333333,4,2,1,65,0,0
78109,-133.333333333333,4,2,1,70,0,0
78686,-100,4,2,1,75,0,1
86763,-100,4,2,1,65,0,1
87340,-100,4,2,1,70,0,1
87917,-100,4,2,1,75,0,0

[Colours]
Combo1 : 251,211,94
Combo2 : 162,148,226
Combo3 : 0,66,147
Combo4 : 157,40,28

[HitObjects]
256,192,4840,12,0,8157,0:0:0:0:
349,239,8301,6,0,P|336:325|429:265,1,252,2|0,0:0|0:0,0:0:0:0:
384,152,9455,6,0,L|307:145,1,67.5000025749208,4|0,1:2|0:0,0:0:0:0:
224,54,9744,2,0,L|292:48,1,67.5000025749208,8|0,0:0|3:0,0:0:0:0:
196,180,10032,1,0,3:0:0:0:
120,68,10176,1,0,3:0:0:0:
36,180,10321,2,0,L|32:264,1,67.5000025749208,8|0,0:0|3:0,0:0:0:0:
164,352,10609,6,0,B|237:369|224:316|293:329,1,135.000005149842,0|8,3:0|0:0,0:0:0:0:
392,368,11042,1,0,3:0:0:0:
336,232,11186,2,0,B|308:188|308:188|332:84,1,135.000005149842,0|8,3:0|0:0,0:0:0:0:
376,16,11619,1,0,1:0:0:0:
232,64,11763,6,0,L|148:56,1,67.5000025749208,0|0,1:0|3:0,0:0:0:0:
64,160,12051,2,0,L|148:152,1,67.5000025749208,8|0,0:0|3:0,0:0:0:0:
236,272,12340,1,0,3:0:0:0:
304,144,12484,1,0,3:0:0:0:
360,276,12628,2,0,P|404:280|440:268,1,67.5000025749208,8|0,0:0|3:0,0:0:0:0:
512,96,12917,6,0,B|464:92|464:92|428:104|428:104|368:100,1,135.000005149842,0|8,3:0|0:0,0:0:0:0:
300,16,13349,1,0,3:0:0:0:
225,137,13494,2,0,L|237:285,1,135.000005149842,0|8,3:0|0:0,0:0:0:0:
180,364,13926,1,0,1:0:0:0:
60,264,14071,6,0,L|132:272,1,67.5000025749208,0|0,1:0|3:0,0:0:0:0:
216,160,14359,2,0,L|144:168,1,67.5000025749208,8|0,0:0|3:0,0:0:0:0:
72,52,14648,1,0,3:0:0:0:
24,164,14792,1,0,3:0:0:0:
92,32,14936,2,0,L|164:40,1,67.5000025749208,8|0,0:0|3:0,0:0:0:0:
296,96,15224,6,0,P|288:60|296:12,2,67.5000025749208,0|0|8,3:0|3:0|0:0,0:0:0:0:
332,196,15657,1,0,3:0:0:0:
472,108,15801,2,0,P|464:68|380:56,1,135.000005149842,0|8,3:0|0:0,0:0:0:0:
296,96,16234,1,0,1:0:0:0:
424,192,16378,6,0,L|420:260,1,67.5000025749208,0|0,1:0|3:0,0:0:0:0:
336,356,16667,2,0,L|332:288,1,67.5000025749208,8|0,0:0|3:0,0:0:0:0:
256,184,16955,1,0,3:0:0:0:
212,304,17099,1,0,3:0:0:0:
144,192,17244,2,0,P|148:152|148:116,1,67.5000025749208,8|0,0:0|3:0,0:0:0:0:
324,32,17532,6,0,B|360:64|360:64|336:160,1,135.000005149842,0|8,3:0|0:0,0:0:0:0:
312,256,17965,1,0,3:0:0:0:
216,120,18109,2,0,L|164:116,3,33.7500012874604,0|0|8|0,3:0|0:0|0:3|0:0,0:0:0:0:
96,204,18398,2,0,L|148:200,3,33.7500012874604,8|0|4|0,0:0|0:0|0:3|0:0,0:0:0:0:
224,236,18686,6,0,B|216:280|216:280|224:316|224:316|212:376,2,135.000005149842,6|0|2,1:2|1:0|1:2,0:0:0:0:
300,160,19407,2,0,P|344:156|392:172,1,67.5000025749208,2|0,0:0|1:0,0:0:0:0:
452,232,19696,1,2,0:0:0:0:
452,232,19840,2,0,B|472:164|472:164|452:92,1,135.000005149842,0|0,1:2|1:0,0:0:0:0:
392,24,20273,1,2,0:0:0:0:
300,160,20417,1,2,1:2:0:0:
260,28,20561,1,2,0:0:0:0:
316,180,20705,2,0,P|320:220|312:256,1,67.5000025749208,2|2,1:2|0:3,0:0:0:0:
340,344,20994,6,0,L|256:336,1,67.5000025749208,0|0,1:0|0:0,0:0:0:0:
136,272,21282,2,0,L|220:264,1,67.5000025749208,0|2,1:0|0:0,0:0:0:0:
272,128,21571,1,2,1:2:0:0:
328,260,21715,1,2,0:0:0:0:
364,112,21859,2,0,P|368:64|364:24,1,67.5000025749208,2|0,1:2|0:0,0:0:0:0:
192,32,22148,6,0,B|168:76|168:76|196:168,1,135.000005149842,2|0,1:2|1:0,0:0:0:0:
228,260,22580,1,2,0:0:0:0:
100,184,22724,2,0,P|68:176|20:192,1,67.5000025749208,2|0,1:2|0:0,0:0:0:0:
104,328,23013,2,0,P|81:303|72:270,1,67.5000025749208,2|2,1:2|0:3,0:0:0:0:
212,244,23301,6,0,L|200:384,2,135.000005149842,2|0|2,1:2|1:0|1:2,0:0:0:0:
128,172,24023,2,0,L|120:92,1,67.5000025749208,2|0,0:0|1:0,0:0:0:0:
184,16,24311,1,2,0:0:0:0:
184,16,24455,2,0,P|240:8|304:68,1,135.000005149842,0|0,1:2|1:0,0:0:0:0:
320,164,24888,1,2,0:0:0:0:
220,100,25032,1,2,1:2:0:0:
240,228,25176,1,2,0:0:0:0:
312,72,25321,2,0,P|352:76|384:96,1,67.5000025749208,2|2,1:2|0:3,0:0:0:0:
484,168,25609,6,0,L|416:176,1,67.5000025749208,0|2,1:0|0:3,0:0:0:0:
328,260,25898,2,0,L|396:268,1,67.5000025749208,0|0,1:0|0:0,0:0:0:0:
268,340,26186,2,0,P|244:316|232:272,1,67.5000025749208,2|2,1:2|0:0,0:0:0:0:
288,132,26474,2,0,P|279:164|247:197,1,67.5000025749208,2|0,1:2|0:0,0:0:0:0:
108,124,26763,6,0,B|140:100|140:100|224:120,2,101.250003862381,0|2|2,1:0|0:0|0:0,0:0:0:0:
32,224,27340,2,0,P|72:216|108:228,1,67.5000025749208,2|0,1:2|0:0,0:0:0:0:
68,376,27628,2,0,P|60:336|72:300,1,67.5000025749208,2|2,1:2|0:3,0:0:0:0:
192,196,27917,6,0,B|272:184|256:240|344:228,1,144,6|8,1:2|0:0,0:0:0:0:
432,148,28349,1,8,0:3:0:0:
316,64,28494,2,0,P|316:108|324:148,1,72,2|4,0:0|0:3,0:0:0:0:
396,280,28782,1,0,1:0:0:0:
448,132,28926,1,0,3:0:0:0:
300,240,29071,6,0,L|224:232,1,72,0|0,1:0|0:0,0:0:0:0:
124,144,29359,2,0,L|200:136,1,72,8|2,0:0|0:0,0:0:0:0:
60,68,29648,2,0,P|36:96|28:152,1,72,2|0,1:2|0:0,0:0:0:0:
92,284,29936,2,0,P|68:256|60:200,1,72,2|0,1:2|0:0,0:0:0:0:
156,44,30224,6,0,B|252:28|252:28|308:52,1,144,4|8,1:2|0:0,0:0:0:0:
352,180,30657,1,8,0:3:0:0:
388,16,30801,2,0,P|392:68|380:100,1,72,2|4,0:0|0:3,0:0:0:0:
264,216,31090,2,0,P|260:164|272:132,1,72,2|0,1:2|3:0,0:0:0:0:
459,191,31378,6,0,L|346:179,2,108,2|2|2,1:2|0:0|0:0,0:0:0:0:
512,284,31955,2,0,P|468:296|436:324,1,72,2|0,1:2|0:0,0:0:0:0:
344,344,32244,2,0,P|355:299|347:258,1,72,2|0,1:2|0:0,0:0:0:0:
280,116,32532,6,0,B|228:108|228:108|192:120|192:120|132:112,1,144,6|8,1:2|0:0,0:0:0:0:
84,248,32965,1,8,0:3:0:0:
44,80,33109,2,0,L|52:168,1,72,2|4,0:0|0:3,0:0:0:0:
96,276,33398,1,0,1:0:0:0:
172,144,33542,1,2,0:0:0:0:
212,296,33686,6,0,P|256:304|292:296,1,72,2|0,1:2|0:0,0:0:0:0:
360,200,33974,2,0,P|316:208|280:200,1,72,8|0,0:0|0:0,0:0:0:0:
328,44,34263,2,0,L|320:120,1,72,2|0,1:2|0:0,0:0:0:0:
456,228,34551,2,0,L|448:152,1,72,2|0,1:2|0:0,0:0:0:0:
312,24,34840,6,0,B|224:4|248:72|152:52,1,161.999995056153,12|0,0:0|1:0,0:0:0:0:
12,148,35273,2,0,P|64:140|108:152,1,80.9999975280763,12|0,0:0|0:0,0:0:0:0:
56,328,35561,2,0,P|48:276|60:232,1,80.9999975280763,2|8,0:0|0:0,0:0:0:0:
188,84,35849,6,0,L|196:176,1,80.9999975280763,4|0,1:2|0:0,0:0:0:0:
328,356,36138,1,8,0:0:0:0:
372,88,36282,1,8,0:0:0:0:
152,264,36426,1,8,0:0:0:0:
456,204,36571,2,0,P|500:208|456:220,1,126,10|0,0:0|0:0,0:0:0:0:
496,96,37148,6,0,P|452:96|400:120,1,90,6|0,1:2|0:0,0:0:0:0:
296,336,37436,1,8,0:0:0:0:
204,88,37580,1,2,1:2:0:0:
160,368,37724,1,2,0:0:0:0:
304,132,37869,1,2,1:2:0:0:
380,368,38013,1,8,0:0:0:0:
140,208,38157,1,2,0:0:0:0:
416,120,38301,6,0,P|372:108|316:116,1,90,2|0,1:2|0:0,0:0:0:0:
180,340,38590,1,10,0:0:0:0:
264,32,38734,2,0,P|231:64|210:116,1,90,2|0,1:2|0:0,0:0:0:0:
288,336,39023,1,2,1:2:0:0:
116,140,39167,2,0,L|12:132,1,90,10|0,0:0|0:0,0:0:0:0:
0,352,39455,6,0,B|68:344|68:344|108:368|108:368|184:360,1,180,2|8,1:2|0:0,0:0:0:0:
352,248,39888,2,0,P|304:240|264:196,1,90,2|0,1:2|0:0,0:0:0:0:
456,76,40176,2,0,P|473:121|454:178,1,90,2|8,1:2|0:0,0:0:0:0:
380,352,40465,1,2,0:0:0:0:
292,88,40609,6,0,B|200:64|220:148|104:120,1,180,2|8,1:2|0:0,0:0:0:0:
251,297,41042,2,0,P|275:241|263:189,1,90,2|0,1:2|0:0,0:0:0:0:
144,16,41330,1,2,1:2:0:0:
128,280,41474,1,10,0:0:0:0:
292,88,41619,1,0,0:0:0:0:
0,152,41763,6,0,B|56:188|56:188|168:156,1,180,2|8,1:2|0:0,0:0:0:0:
312,0,42196,1,2,1:2:0:0:
272,224,42340,2,0,L|280:336,1,90,2|0,0:0|1:0,0:0:0:0:
464,240,42628,2,0,L|472:128,1,90,10|0,0:0|0:0,0:0:0:0:
296,24,42917,6,0,P|228:12|168:108,1,180,2|8,1:2|0:0,0:0:0:0:
248,328,43349,1,2,1:2:0:0:
344,108,43494,1,2,0:0:0:0:
112,200,43638,1,0,1:0:0:0:
356,296,43782,2,0,P|364:248|360:196,1,90,10|0,0:0|0:0,0:0:0:0:
156,28,44071,6,0,B|108:68|108:68|144:192,1,180,2|8,1:2|0:0,0:0:0:0:
200,352,44503,1,2,1:2:0:0:
304,136,44648,2,0,L|400:128,1,90,2|0,0:0|1:0,0:0:0:0:
492,328,44936,2,0,L|402:320,1,90,10|0,0:0|0:0,0:0:0:0:
208,112,45224,6,0,P|212:180|244:220,1,90,2|0,1:2|0:0,0:0:0:0:
320,384,45513,1,8,0:0:0:0:
435,165,45657,2,0,P|411:117|295:157,1,180,2|0,1:2|1:0,0:0:0:0:
216,368,46090,1,8,0:0:0:0:
464,280,46234,1,8,0:0:0:0:
200,128,46378,6,0,L|92:136,1,90,6|0,1:2|0:0,0:0:0:0:
216,368,46667,1,8,0:0:0:0:
300,112,46811,1,2,1:2:0:0:
140,300,46955,1,2,0:0:0:0:
100,40,47099,1,0,1:0:0:0:
240,272,47244,1,8,0:0:0:0:
312,12,47388,1,2,0:0:0:0:
80,224,47532,6,0,P|128:204|180:212,1,90,2|0,1:2|0:0,0:0:0:0:
340,352,47821,1,8,0:0:0:0:
240,72,47965,2,0,P|260:120|252:172,1,90,2|0,1:2|0:0,0:0:0:0:
152,376,48253,1,2,1:2:0:0:
356,180,48398,2,0,L|464:172,1,90,10|0,0:0|0:0,0:0:0:0:
319,367,48686,6,0,B|267:387|219:351|219:351|191:379|147:375,1,180,2|8,1:2|0:2,0:0:0:0:
72,152,49119,2,0,L|84:256,1,90,2|0,1:2|0:0,0:0:0:0:
288,276,49407,2,0,L|300:172,1,90,2|8,1:2|0:0,0:0:0:0:
72,268,49696,1,2,0:0:0:0:
260,64,49840,6,0,B|332:60|332:60|372:84|372:84|459:77,1,180,2|8,1:2|0:2,0:0:0:0:
300,304,50273,2,0,P|255:296|213:259,1,90,2|0,1:2|0:0,0:0:0:0:
160,80,50561,1,2,1:2:0:0:
44,292,50705,2,0,P|88:284|130:247,1,90,10|0,0:2|0:0,0:0:0:0:
300,44,50994,6,0,B|340:96|340:96|300:216,1,180,4|8,1:2|0:0,0:0:0:0:
412,368,51426,1,0,1:0:0:0:
504,144,51571,2,0,P|448:136|404:160,1,90,2|0,0:0|1:0,0:0:0:0:
260,288,51859,2,0,P|302:301|345:292,1,90,10|0,0:0|0:0,0:0:0:0:
204,32,52148,6,0,B|112:16|136:92|28:76,1,180,2|8,1:2|0:0,0:0:0:0:
116,336,52580,1,0,1:0:0:0:
192,128,52724,1,2,0:0:0:0:
0,236,52869,1,0,1:0:0:0:
224,312,53013,2,0,L|328:304,1,90,10|2,0:0|0:0,0:0:0:0:
392,72,53301,6,0,B|424:32|480:40|480:40|516:96|492:152,1,180,2|8,1:2|0:0,0:0:0:0:
408,348,53734,1,8,0:0:0:0:
408,348,53806,1,8,0:0:0:0:
408,348,53878,1,8,0:0:0:0:
308,128,54023,1,4,1:2:0:0:
296,112,54311,6,0,B|232:80|232:80|116:108,1,180,6|0,1:2|1:0,0:0:0:0:
80,312,54744,1,10,0:0:0:0:
48,56,54888,2,0,P|36:128|132:196,1,180,6|0,1:2|1:0,0:0:0:0:
312,92,55321,1,8,0:0:0:0:
208,320,55465,6,0,P|200:268|204:224,1,90,6|0,1:2|0:0,0:0:0:0:
376,24,55753,1,2,1:2:0:0:
316,264,55898,1,8,0:0:0:0:
224,40,56042,1,0,1:0:0:0:
412,232,56186,1,10,0:0:0:0:
140,172,56330,1,2,1:2:0:0:
384,40,56474,1,8,0:0:0:0:
168,272,56619,6,0,P|112:272|64:240,1,90,6|0,1:2|0:0,0:0:0:0:
204,20,56907,1,0,1:0:0:0:
260,264,57051,1,8,0:0:0:0:
380,64,57196,1,0,1:0:0:0:
328,328,57340,1,8,0:0:0:0:
236,96,57484,1,0,1:0:0:0:
168,364,57628,1,8,0:0:0:0:
400,188,57773,6,0,L|500:196,1,90,6|0,1:2|0:0,0:0:0:0:
316,360,58061,1,2,1:2:0:0:
236,96,58205,1,10,0:0:0:0:
144,340,58349,1,0,1:0:0:0:
392,168,58494,1,10,0:0:0:0:
128,100,58638,1,2,1:2:0:0:
376,268,58782,1,8,0:0:0:0:
124,360,58926,6,0,L|24:352,1,90,6|0,1:2|0:0,0:0:0:0:
144,116,59215,1,0,1:0:0:0:
228,356,59359,1,8,0:0:0:0:
272,116,59503,1,0,1:0:0:0:
340,368,59647,1,8,0:0:0:0:
396,88,59792,1,0,1:0:0:0:
184,256,59936,1,8,0:0:0:0:
476,204,60080,6,0,L|376:192,1,90,6|0,1:2|0:0,0:0:0:0:
152,100,60369,1,2,1:2:0:0:
420,64,60513,1,10,0:0:0:0:
216,244,60657,1,0,1:0:0:0:
328,8,60801,1,10,0:0:0:0:
356,280,60946,1,2,1:2:0:0:
236,48,61090,1,8,0:0:0:0:
188,316,61234,6,0,P|200:268|200:220,1,90,6|0,1:2|0:0,0:0:0:0:
96,24,61523,1,0,1:0:0:0:
40,248,61667,1,8,0:0:0:0:
192,72,61811,1,0,1:0:0:0:
288,304,61955,1,8,0:0:0:0:
104,128,62099,1,8,0:0:0:0:
372,80,62244,1,8,0:0:0:0:
188,316,62388,6,0,B|128:308|128:308|84:328|84:328|8:316,1,180,6|0,1:2|1:0,0:0:0:0:
224,84,62821,5,12,0:0:0:0:
280,332,62965,1,0,1:0:0:0:
344,40,63109,5,12,0:0:0:0:
248,244,63253,1,0,1:0:0:0:
160,0,63398,5,12,0:0:0:0:
336,208,63542,1,0,1:0:0:0:
96,80,63686,5,12,0:0:0:0:
368,20,63830,1,0,1:0:0:0:
112,180,63974,5,12,0:0:0:0:
404,268,64119,1,0,1:0:0:0:
196,92,64263,5,12,0:0:0:0:
280,356,64407,1,0,1:0:0:0:
396,112,64551,1,12,0:0:0:0:
132,284,64696,6,0,B|236:308|212:236|312:260,1,180,6|0,1:2|1:0,0:0:0:0:
480,364,65128,2,0,P|420:372|372:356,1,90,10|0,0:0|0:0,0:0:0:0:
312,136,65417,1,2,1:2:0:0:
280,356,65561,1,0,1:0:0:0:
460,228,65705,1,8,0:0:0:0:
208,144,65849,6,0,L|220:248,1,90,2|0,1:2|0:0,0:0:0:0:
412,128,66138,1,2,1:2:0:0:
168,60,66282,2,0,P|216:52|272:80,1,90,10|0,0:0|0:0,0:0:0:0:
460,208,66571,2,0,P|417:221|373:213,1,90,2|0,1:2|1:0,0:0:0:0:
320,0,66859,2,0,P|343:42|336:104,1,90,10|0,0:0|0:0,0:0:0:0:
209,275,67148,6,0,B|181:235|181:235|209:139,1,144,6|0,1:2|0:0,0:0:0:0:
432,24,67724,6,0,P|480:36|472:140,1,144,6|0,1:2|0:0,0:0:0:0:
332,324,68301,6,0,L|324:240,1,72,6|8,1:2|0:0,0:0:0:0:
360,160,68590,2,0,B|248:128|272:228|148:200,1,225,8|0,0:0|0:0,0:0:0:0:
180,40,69455,6,0,L|188:124,1,67.5000025749208,4|0,1:2|3:0,0:0:0:0:
56,148,69744,2,0,L|48:232,1,67.5000025749208,8|0,0:2|3:0,0:0:0:0:
168,320,70032,1,2,0:2:0:0:
148,200,70176,1,0,3:0:0:0:
16,296,70321,2,0,P|56:304|100:288,1,67.5000025749208,10|0,0:2|0:0,0:0:0:0:
236,240,70609,6,0,B|292:220|292:220|376:248,1,135.000005149842,0|8,3:2|0:2,0:0:0:0:
416,332,71042,1,0,3:0:0:0:
452,200,71186,2,0,L|468:64,1,135.000005149842,2|10,0:0|0:2,0:0:0:0:
396,0,71619,1,0,3:0:0:0:
304,100,71763,6,0,L|380:92,1,67.5000025749208,0|0,1:0|0:0,0:0:0:0:
288,196,72051,2,0,L|212:188,1,67.5000025749208,8|0,0:0|3:0,0:0:0:0:
164,92,72340,1,2,0:0:0:0:
112,192,72484,1,2,0:0:0:0:
28,96,72628,2,0,P|20:144|28:188,1,67.5000025749208,10|0,0:2|3:0,0:0:0:0:
96,288,72917,6,0,L|20:296,2,67.5000025749208,0|0|8,3:2|3:0|0:2,0:0:0:0:
176,356,73349,1,0,3:0:0:0:
268,260,73494,2,0,L|344:268,2,67.5000025749208,2|0|10,0:0|3:0|0:2,0:0:0:0:
188,328,73926,1,0,3:0:0:0:
224,172,74071,6,0,P|228:136|216:100,1,67.5000025749208,0|0,1:0|0:0,0:0:0:0:
244,8,74359,2,0,P|273:29|310:37,1,67.5000025749208,8|0,0:0|3:0,0:0:0:0:
432,24,74648,1,2,0:0:0:0:
352,112,74792,1,0,3:0:0:0:
452,12,74936,2,0,L|444:92,1,67.5000025749208,10|0,0:0|3:0,0:0:0:0:
496,204,75224,6,0,P|452:192|392:248,1,135.000005149842,0|8,1:0|0:0,0:0:0:0:
384,344,75657,1,0,3:0:0:0:
304,220,75801,2,0,B|236:204|248:260|164:244,1,135.000005149842,2|10,0:0|0:0,0:0:0:0:
92,184,76234,1,0,3:0:0:0:
200,84,76378,6,0,L|192:164,1,67.5000025749208,0|0,1:0|3:0,0:0:0:0:
292,36,76667,2,0,L|300:116,1,67.5000025749208,10|0,0:2|3:0,0:0:0:0:
364,216,76955,1,0,1:0:0:0:
400,104,77099,1,0,3:0:0:0:
272,200,77244,2,0,P|272:244|288:276,1,67.5000025749208,10|0,0:2|3:0,0:0:0:0:
336,348,77532,6,0,P|296:320|208:344,1,135.000005149842,12|0,0:0|3:0,0:0:0:0:
136,380,77965,1,0,3:0:0:0:
64,268,78109,2,0,L|68:320,3,33.7500012874604,0|0|0|0,3:0|3:0|3:0|3:0,0:0:0:0:
176,208,78398,2,0,L|172:260,3,33.7500012874604,0|0|0|0,3:0|3:0|3:0|3:0,0:0:0:0:
68,96,78686,6,0,L|164:108,1,90,6|0,1:2|0:0,0:0:0:0:
311,315,78974,1,8,0:0:0:0:
248,68,79119,1,2,0:0:0:0:
168,332,79263,1,8,0:0:0:0:
328,112,79407,1,0,1:0:0:0:
384,376,79551,1,8,0:0:0:0:
122,225,79696,6,0,B|198:221|198:221|230:237|230:237|298:233,1,180,6|0,1:2|1:0,0:0:0:0:
464,48,80128,1,8,0:0:0:0:
248,148,80273,1,0,1:0:0:0:
480,32,80417,1,8,0:0:0:0:
396,268,80561,1,0,1:0:0:0:
308,8,80705,2,0,P|320:56|324:112,1,90,8|8,0:0|0:0,0:0:0:0:
488,296,80994,6,0,L|392:288,1,90,6|0,1:2|0:0,0:0:0:0:
128,168,81282,1,8,0:0:0:0:
400,104,81426,1,0,1:0:0:0:
216,336,81571,1,10,0:0:0:0:
228,68,81715,1,2,1:2:0:0:
328,356,81859,1,10,0:0:0:0:
412,80,82003,6,0,B|468:52|528:80|528:80|524:116|504:148,1,180,6|0,1:2|1:0,0:0:0:0:
352,336,82436,1,8,0:0:0:0:
292,88,82580,1,2,1:2:0:0:
240,368,82725,1,8,0:0:0:0:
360,152,82869,1,2,1:2:0:0:
160,296,83013,2,0,P|112:300|64:276,1,90,14|0,0:0|0:0,0:0:0:0:
208,32,83301,5,12,0:0:0:0:
280,268,83446,1,0,1:0:0:0:
376,40,83590,1,0,1:0:0:0:
128,200,83734,5,12,0:0:0:0:
400,240,83879,1,0,1:0:0:0:
192,50,84023,1,0,1:0:0:0:
264,344,84167,5,12,0:0:0:0:
356,74,84312,1,0,1:0:0:0:
111,222,84456,1,0,1:0:0:0:
448,252,84599,5,12,0:0:0:0:
210,74,84744,1,0,1:0:0:0:
277,363,84888,1,0,1:0:0:0:
372,56,85032,5,12,0:0:0:0:
200,304,85176,1,0,1:0:0:0:
136,8,85321,1,0,1:0:0:0:
436,168,85465,6,0,L|492:160,3,45,12|8|8|8,0:0|0:3|0:3|0:3,0:0:0:0:
353,338,85753,1,0,1:0:0:0:
353,338,85825,1,0,1:0:0:0:
353,338,85898,2,0,L|346:293,1,45,8|8,0:3|0:3,0:0:0:0:
276,120,86042,6,0,L|284:64,3,45,4|4|0|0,0:3|0:3|1:0|1:0,0:0:0:0:
206,348,86330,2,0,L|199:303,1,45,8|8,0:0|0:3,0:0:0:0:
120,128,86474,2,0,L|75:134,3,45,4|4|0|0,0:3|0:3|1:0|1:0,0:0:0:0:
368,216,86763,5,8,0:0:0:0:
368,216,86835,1,8,0:0:0:0:
368,216,86907,2,0,L|320:208,1,45,8|8,0:0|0:0,0:0:0:0:
64,272,87051,2,0,L|112:264,1,45,8|8,0:0|0:0,0:0:0:0:
316,16,87196,5,8,0:0:0:0:
369,335,87340,1,8,0:0:0:0:
138,112,87484,1,8,0:0:0:0:
456,155,87628,1,8,0:0:0:0:
184,328,87773,2,0,L|192:284,1,45,8|0,0:0|0:0,0:0:0:0:
