osu file format v14

[General]
AudioFilename: audio.mp3
AudioLeadIn: 0
PreviewTime: 37070
Countdown: 0
SampleSet: Soft
StackLeniency: 0.7
Mode: 0
LetterboxInBreaks: 0
WidescreenStoryboard: 1

[Editor]
Bookmarks: 31085,45219
DistanceSpacing: 1
BeatDivisor: 4
GridSize: 4
TimelineZoom: 1

[Metadata]
Title:Utsuroi (Short Ver.)
TitleUnicode:うつろい (Short Ver.)
Artist:TrySail
ArtistUnicode:TrySail
Creator:Log Off Now
Version:browiec's Normal
Source:マギアレコード 魔法少女まどか☆マギカ外伝
Tags:japanese video game version magia record puella magi madoka magica side story gaiden opening 2 op magireco マギレコ magical girl 麻倉もも Asakura Momo 雨宮天 Amamiya Sora 夏川椎菜 Natsukawa Shiina anime rock jrock j-rock pop jpop j-pop browiec nexusqi nexus mnyui kowari
BeatmapID:2410944
BeatmapSetID:1155295

[Difficulty]
HPDrainRate:4
CircleSize:3.4
OverallDifficulty:4.5
ApproachRate:5.5
SliderMultiplier:1
SliderTickRate:1

[Events]
//Background and Video events
0,0,"trysailutsuroi.jpg",0,0
//Break Periods
//Storyboard Layer 0 (Background)
//Storyboard Layer 1 (Fail)
//Storyboard Layer 2 (Pass)
//Storyboard Layer 3 (Foreground)
//Storyboard Layer 4 (Overlay)
//Storyboard Sound Samples

[TimingPoints]
225,288.461538461538,4,2,1,35,1,0
8301,-111.111111111111,4,2,1,35,0,0
9455,-100,4,2,1,45,0,0
20849,-100,4,2,2,45,0,0
20994,-100,4,2,1,45,0,0
22941,-100,4,2,2,45,0,0
23013,-100,4,2,1,45,0,0
23157,-100,4,2,2,45,0,0
23301,-100,4,2,1,45,0,0
25465,-100,4,2,2,45,0,0
25609,-100,4,2,1,45,0,0
25753,-100,4,2,2,45,0,0
25898,-100,4,2,1,45,0,0
27773,-100,4,2,2,45,0,0
27917,-100,4,2,1,55,0,0
34840,-100,4,2,1,65,0,0
36138,-100,4,2,1,55,0,0
36282,-100,4,2,1,60,0,0
36426,-100,4,2,1,65,0,0
36571,-100,4,2,1,70,0,0
37003,-100,4,2,1,10,0,0
37148,-100,4,2,1,75,0,1
67148,-100,4,2,1,75,0,0
69455,-100,4,2,1,55,0,0
77532,-100,4,2,1,65,0,0
78109,-100,4,2,1,70,0,0
78686,-100,4,2,1,75,0,1
86763,-100,4,2,1,65,0,1
87340,-100,4,2,1,70,0,1
87917,-100,4,2,1,75,0,0

[Colours]
Combo1 : 251,211,94
Combo2 : 162,148,226
Combo3 : 0,66,147
Combo4 : 157,40,28

[HitObjects]
256,192,4840,12,2,7148,3:3:0:0:
84,193,8301,6,0,P|49:135|174:153,1,269.999991760254,2|0,0:0|0:0,0:0:0:0:
179,236,9455,6,0,L|291:246,1,100,4|8,1:2|0:0,0:0:0:0:
369,287,10032,2,0,L|366:340,2,50,0|0|8,3:0|3:0|0:0,0:0:0:0:
453,233,10609,2,0,P|470:198|450:122,1,100,0|8,3:0|0:0,0:0:0:0:
435,96,11042,1,0,3:0:0:0:
435,96,11186,2,0,L|326:85,1,100,0|8,3:0|0:0,0:0:0:0:
235,74,11763,6,0,L|243:189,1,100,0|8,1:0|0:0,0:0:0:0:
275,268,12340,2,0,L|344:262,2,50,0|0|8,3:0|3:0|0:0,0:0:0:0:
200,334,12917,2,0,P|153:349|88:324,1,100,0|8,3:0|0:0,0:0:0:0:
68,303,13349,1,0,3:0:0:0:
68,303,13494,2,0,L|63:196,1,100,0|8,3:0|0:0,0:0:0:0:
97,108,14071,6,0,L|203:101,1,100,0|8,1:0|0:0,0:0:0:0:
274,164,14648,2,0,L|271:223,2,50,0|0|8,3:0|3:0|0:0,0:0:0:0:
338,87,15224,2,0,P|373:60|447:68,1,100,0|8,3:0|0:0,0:0:0:0:
460,95,15657,1,0,3:0:0:0:
460,95,15801,2,0,L|469:217,1,100,0|8,3:0|0:0,0:0:0:0:
476,294,16378,6,0,B|427:285|427:285|366:301,1,100,0|8,1:0|0:0,0:0:0:0:
281,321,16955,2,0,L|285:382,2,50,0|0|8,3:0|3:0|0:0,0:0:0:0:
311,225,17532,2,0,L|304:108,1,100,0|8,3:0|0:0,0:0:0:0:
298,75,17965,1,0,3:0:0:0:
298,75,18109,1,0,3:0:0:0:
206,34,18398,1,8,0:0:0:0:
135,104,18686,6,0,P|88:97|27:119,2,100,6|0|2,1:2|1:0|1:2,0:0:0:0:
169,140,19407,1,2,0:0:0:0:
226,221,19696,2,0,B|286:211|286:211|319:223|319:223|381:212,1,150,2|0,0:0|1:0,0:0:0:0:
459,163,20417,2,0,L|462:100,2,50,2|2|2,1:2|0:0|1:2,0:0:0:0:
458,263,20994,6,0,P|476:309|466:380,2,100,0|0|2,1:0|1:0|1:2,0:0:0:0:
365,223,21859,1,2,1:2:0:0:
310,307,22148,2,0,P|267:314|208:290,1,100,2|0,1:2|1:0,0:0:0:0:
198,253,22580,1,2,0:0:0:0:
198,253,22724,2,0,L|194:143,1,100,2|2,1:2|1:2,0:0:0:0:
247,65,23301,6,0,B|311:52|311:52|362:66,2,100,2|0|2,1:2|1:0|1:2,0:0:0:0:
199,47,24023,1,2,0:0:0:0:
103,67,24311,2,0,P|39:91|46:180,1,150,2|0,0:0|1:0,0:0:0:0:
90,246,25032,2,0,L|87:310,2,50,2|2|2,1:2|0:0|1:2,0:0:0:0:
162,177,25609,6,0,B|216:167|216:167|274:178,1,100,0|0,1:0|1:0,0:0:0:0:
308,262,26186,2,0,B|362:272|362:272|420:261,1,100,2|2,1:2|1:2,0:0:0:0:
463,181,26763,2,0,L|470:90,2,75,2|2|2,1:2|0:0|0:0,0:0:0:0:
495,219,27340,2,0,L|501:319,1,100,2|2,1:2|1:2,0:0:0:0:
416,373,27917,6,0,P|358:377|316:342,1,100,6|8,1:2|0:0,0:0:0:0:
314,305,28349,1,8,0:3:0:0:
314,305,28494,2,0,L|320:191,1,100,2|0,0:0|1:0,0:0:0:0:
302,158,28926,2,0,B|226:139|246:202|156:189,1,150,0|8,3:0|0:0,0:0:0:0:
61,197,29648,2,0,L|54:302,1,100,2|2,1:2|1:2,0:0:0:0:
128,363,30224,6,0,P|176:374|235:344,1,100,4|8,1:2|0:0,0:0:0:0:
277,273,30801,2,0,L|266:162,1,100,2|2,0:0|1:2,0:0:0:0:
218,85,31378,2,0,P|179:93|131:80,2,75,2|2|2,1:2|0:0|0:0,0:0:0:0:
259,56,31955,2,0,P|308:31|367:44,1,100,2|2,1:2|1:2,0:0:0:0:
435,90,32532,6,0,L|428:195,1,100,6|8,1:2|0:0,0:0:0:0:
396,228,32965,1,8,0:3:0:0:
396,228,33109,2,0,P|359:246|296:232,1,100,2|0,0:0|1:0,0:0:0:0:
264,203,33542,2,0,P|216:195|179:280,1,150,2|8,0:0|0:0,0:0:0:0:
241,350,34263,2,0,L|359:357,1,100,2|2,1:2|1:2,0:0:0:0:
433,317,34840,6,0,P|459:278|446:215,1,100,12|0,0:0|1:0,0:0:0:0:
430,182,35273,1,12,0:0:0:0:
343,132,35561,1,2,0:0:0:0:
248,163,35849,2,0,L|256:270,1,100,4|8,1:2|0:0,0:0:0:0:
239,310,36282,1,8,0:0:0:0:
153,362,36571,2,0,P|87:366|55:347,1,100,10|0,0:0|0:0,0:0:0:0:
29,254,37148,6,0,L|22:151,1,100,6|8,1:2|0:0,0:0:0:0:
32,105,37580,1,2,1:2:0:0:
32,105,37724,2,0,P|80:91|136:116,1,100,2|8,0:0|0:0,0:0:0:0:
186,186,38301,2,0,L|288:177,1,100,2|10,1:2|0:0,0:0:0:0:
320,140,38734,2,0,L|422:149,1,100,2|2,1:2|1:2,0:0:0:0:
458,180,39167,1,10,0:0:0:0:
474,278,39455,6,0,P|447:332|399:340,1,100,2|8,1:2|0:0,0:0:0:0:
362,331,39888,1,2,1:2:0:0:
292,259,40176,1,2,1:2:0:0:
355,181,40465,1,2,0:0:0:0:
355,181,40609,2,0,L|365:79,1,100,2|8,1:2|0:0,0:0:0:0:
336,39,41042,2,0,P|292:17|232:32,1,100,2|2,1:2|1:2,0:0:0:0:
214,65,41474,1,10,0:0:0:0:
154,145,41763,6,0,L|164:253,1,100,2|8,1:2|0:0,0:0:0:0:
192,285,42196,1,2,1:2:0:0:
192,285,42340,2,0,B|241:298|241:298|301:280,1,100,2|10,0:0|0:0,0:0:0:0:
341,199,42917,2,0,L|351:91,1,100,2|8,1:2|0:0,0:0:0:0:
379,59,43350,1,2,1:2:0:0:
379,59,43494,2,0,B|428:46|428:46|488:64,1,100,2|10,0:0|0:0,0:0:0:0:
507,154,44071,6,0,L|495:266,1,100,2|8,1:2|0:0,0:0:0:0:
475,351,44648,1,2,0:0:0:0:
376,364,44936,1,10,0:0:0:0:
306,291,45224,2,0,P|292:238|309:182,1,100,2|8,1:2|0:0,0:0:0:0:
344,167,45657,2,0,P|353:118|339:70,1,100,2|0,1:2|1:0,0:0:0:0:
302,36,46090,1,8,0:0:0:0:
213,82,46378,6,0,L|111:74,1,100,6|8,1:2|0:0,0:0:0:0:
67,95,46811,1,2,1:2:0:0:
67,95,46955,2,0,P|42:138|57:200,1,100,2|8,0:0|0:0,0:0:0:0:
117,258,47532,2,0,P|160:244|218:256,1,100,2|8,1:2|0:0,0:0:0:0:
250,286,47965,2,0,P|293:300|351:288,1,100,2|2,1:2|1:2,0:0:0:0:
380,254,48398,1,10,0:0:0:0:
458,192,48686,6,0,L|465:84,1,100,2|8,1:2|0:2,0:0:0:0:
439,48,49119,1,2,1:2:0:0:
345,12,49407,1,2,1:2:0:0:
282,90,49696,1,2,0:0:0:0:
282,90,49840,2,0,L|288:196,1,100,2|8,1:2|0:2,0:0:0:0:
323,224,50273,2,0,L|317:330,1,100,2|2,1:2|1:2,0:0:0:0:
290,365,50705,1,10,0:2:0:0:
189,361,50994,6,0,P|137:372|81:353,1,100,4|8,1:2|0:0,0:0:0:0:
51,331,51426,1,0,1:0:0:0:
51,331,51571,2,0,L|41:218,1,100,2|10,0:0|0:0,0:0:0:0:
78,138,52148,2,0,L|197:128,1,100,2|8,1:2|0:0,0:0:0:0:
220,154,52580,1,0,1:0:0:0:
220,154,52724,2,0,P|277:171|329:149,1,100,2|10,0:0|0:0,0:0:0:0:
379,83,53301,6,0,P|430:61|481:84,1,100,2|8,1:2|0:0,0:0:0:0:
498,115,53734,2,0,L|491:222,1,100,8|4,0:0|1:2,0:0:0:0:
462,310,54311,2,0,P|417:331|358:318,1,100,6|0,1:2|1:0,0:0:0:0:
332,288,54744,1,10,0:0:0:0:
332,288,54888,2,0,P|283:280|238:301,1,100,6|0,1:2|1:0,0:0:0:0:
152,353,55465,6,0,L|51:346,1,100,6|2,1:2|1:2,0:0:0:0:
12,315,55898,1,8,0:0:0:0:
28,216,56186,1,10,0:0:0:0:
28,216,56330,2,0,L|29:157,1,50,2|8,1:2|0:0,0:0:0:0:
51,120,56619,2,0,P|92:94|159:110,1,100,6|0,1:2|1:0,0:0:0:0:
173,137,57051,1,8,0:0:0:0:
245,205,57340,1,8,0:0:0:0:
341,172,57628,1,8,0:0:0:0:
341,172,57773,6,0,L|345:68,1,100,6|2,1:2|1:2,0:0:0:0:
311,35,58205,1,10,0:0:0:0:
211,22,58494,1,10,0:0:0:0:
211,22,58638,2,0,L|157:26,1,50,2|8,1:2|0:0,0:0:0:0:
126,62,58926,2,0,P|93:101|100:160,1,100,6|0,1:2|1:0,0:0:0:0:
115,192,59359,1,8,0:0:0:0:
74,283,59648,1,8,0:0:0:0:
150,355,59936,1,8,0:0:0:0:
150,355,60080,6,0,L|256:348,1,100,6|2,1:2|1:2,0:0:0:0:
289,318,60513,1,10,0:0:0:0:
313,221,60801,1,10,0:0:0:0:
313,221,60946,2,0,L|309:167,1,50,2|8,1:2|0:0,0:0:0:0:
309,121,61234,2,0,P|350:84|410:89,1,100,6|0,1:2|1:0,0:0:0:0:
435,108,61667,1,8,0:0:0:0:
463,203,61955,2,0,L|517:210,2,50,8|8|8,0:0|0:0|0:0,0:0:0:0:
438,246,62388,6,0,P|397:267|326:252,1,100,6|0,1:2|1:0,0:0:0:0:
312,223,62821,1,12,0:0:0:0:
223,269,63109,1,12,0:0:0:0:
140,212,63398,1,12,0:0:0:0:
154,113,63686,1,12,0:0:0:0:
247,78,63974,2,0,L|357:85,2,100,12|12|12,0:0|0:0|0:0,0:0:0:0:
212,40,64696,6,0,P|166:20|108:32,1,100,6|0,1:2|1:0,0:0:0:0:
85,65,65128,1,10,0:0:0:0:
32,150,65417,2,0,L|43:266,1,100,2|8,1:2|0:0,0:0:0:0:
73,287,65849,2,0,P|134:306|184:285,1,100,2|2,1:2|1:2,0:0:0:0:
206,265,66282,1,10,0:0:0:0:
248,174,66571,2,0,L|252:118,2,50,2|0|10,1:2|1:0|0:0,0:0:0:0:
314,249,67148,6,0,B|434:231|388:308|507:286,1,200,6|6,1:2|1:2,0:0:0:0:
453,92,68301,2,0,L|457:33,2,50,6|8|8,1:2|0:0|0:0,0:0:0:0:
223,285,69455,6,0,L|213:173,1,100,4|8,1:2|0:2,0:0:0:0:
172,95,70032,2,0,L|119:98,2,50,2|0|10,0:2|3:0|0:2,0:0:0:0:
226,11,70609,2,0,P|261:-6|337:14,1,100,0|8,3:2|0:2,0:0:0:0:
411,42,71186,1,2,0:0:0:0:
423,141,71474,1,10,0:0:0:0:
335,190,71763,6,0,L|220:198,1,100,0|8,1:0|0:0,0:0:0:0:
164,267,72340,2,0,L|170:336,2,50,2|2|10,0:0|0:0|0:2,0:0:0:0:
78,214,72917,2,0,P|63:167|88:102,1,100,0|8,3:2|0:2,0:0:0:0:
107,81,73349,1,0,3:0:0:0:
107,81,73494,2,0,L|214:76,1,100,2|10,0:0|0:2,0:0:0:0:
305,93,74071,6,0,L|312:199,1,100,0|8,1:0|0:0,0:0:0:0:
255,275,74648,2,0,L|196:272,2,50,2|0|10,0:0|3:0|0:0,0:0:0:0:
331,339,75224,2,0,P|366:366|440:358,1,100,0|8,1:0|0:0,0:0:0:0:
453,330,75657,1,0,3:0:0:0:
453,330,75801,2,0,L|462:208,1,100,2|10,0:0|0:0,0:0:0:0:
434,133,76378,6,0,B|385:124|385:124|324:140,1,100,0|10,1:0|0:2,0:0:0:0:
295,228,76955,2,0,L|299:289,2,50,0|0|10,1:0|3:0|0:2,0:0:0:0:
208,178,77532,2,0,L|201:61,1,100,12|0,0:0|3:0,0:0:0:0:
127,11,78109,2,0,P|68:3|20:39,1,100,0|0,3:0|3:0,0:0:0:0:
15,120,78686,6,0,L|24:219,1,100,6|8,1:2|0:0,0:0:0:0:
95,290,79263,2,0,L|150:284,1,50,8|0,0:0|1:0,0:0:0:0:
183,252,79551,1,8,0:0:0:0:
183,252,79696,2,0,P|239:238|295:264,1,100,6|0,1:2|1:0,0:0:0:0:
308,290,80128,1,8,0:0:0:0:
391,345,80417,1,8,0:0:0:0:
474,289,80705,1,8,0:0:0:0:
457,190,80994,6,0,P|474:146|465:87,1,100,6|8,1:2|0:0,0:0:0:0:
375,55,81571,2,0,L|381:1,2,50,10|2|10,0:0|1:2|0:0,0:0:0:0:
347,96,82003,2,0,P|306:93|255:126,1,100,6|0,1:2|1:0,0:0:0:0:
233,167,82436,1,8,0:0:0:0:
151,225,82724,1,8,0:0:0:0:
66,171,83013,1,14,0:0:0:0:
85,72,83301,6,0,P|123:35|220:54,2,150,12|12|12,0:0|0:0|0:0,0:0:0:0:
66,171,84455,1,0,1:0:0:0:
66,171,84599,2,0,L|73:279,1,100,12|0,0:0|1:0,0:0:0:0:
111,302,85032,1,12,0:0:0:0:
202,343,85321,1,0,1:0:0:0:
202,343,85465,6,0,P|250:353|306:328,1,100,12|0,0:0|1:0,0:0:0:0:
322,292,85898,1,8,0:3:0:0:
322,292,86042,2,0,L|312:182,1,100,4|8,0:3|0:0,0:0:0:0:
277,156,86474,1,4,0:3:0:0:
327,69,86763,2,0,L|323:12,2,50,8|8|8,0:0|0:0|0:0,0:0:0:0:
402,134,87340,1,8,0:0:0:0:
481,73,87628,1,8,0:0:0:0:
481,73,87773,1,8,0:0:0:0:
