osu file format v14

[General]
AudioFilename: audio.mp3
AudioLeadIn: 0
PreviewTime: 37070
Countdown: 0
SampleSet: Soft
StackLeniency: 0.5
Mode: 0
LetterboxInBreaks: 0
WidescreenStoryboard: 1

[Editor]
Bookmarks: 55460,87335
DistanceSpacing: 1.7
BeatDivisor: 4
GridSize: 4
TimelineZoom: 1.7

[Metadata]
Title:Utsuroi (Short Ver.)
TitleUnicode:うつろい (Short Ver.)
Artist:TrySail
ArtistUnicode:TrySail
Creator:Log Off Now
Version:Nexus' Insane
Source:マギアレコード 魔法少女まどか☆マギカ外伝
Tags:japanese video game version magia record puella magi madoka magica side story gaiden opening 2 op magireco マギレコ magical girl 麻倉もも Asakura Momo 雨宮天 Amamiya Sora 夏川椎菜 Natsukawa Shiina anime rock jrock j-rock pop jpop j-pop browiec nexusqi nexus mnyui kowari
BeatmapID:2410950
BeatmapSetID:1155295

[Difficulty]
HPDrainRate:5
CircleSize:3.7
OverallDifficulty:7
ApproachRate:8.8
SliderMultiplier:1.3
SliderTickRate:1

[Events]
//Background and Video events
0,0,"trysailutsuroi.jpg",0,0
//Break Periods
//Storyboard Layer 0 (Background)
//Storyboard Layer 1 (Fail)
//Storyboard Layer 2 (Pass)
//Storyboard Layer 3 (Foreground)
//Storyboard Layer 4 (Overlay)
//Storyboard Sound Samples

[TimingPoints]
225,288.461538461538,4,2,1,35,1,0
225,-133.333333333333,4,2,1,35,0,0
8734,-111.111111111111,4,2,1,35,0,0
9455,-117.647058823529,4,2,1,45,0,0
20849,-117.647058823529,4,2,2,45,0,0
20994,-117.647058823529,4,2,1,45,0,0
22941,-117.647058823529,4,2,2,45,0,0
23013,-117.647058823529,4,2,1,45,0,0
23157,-117.647058823529,4,2,2,45,0,0
23301,-117.647058823529,4,2,1,45,0,0
25465,-117.647058823529,4,2,2,45,0,0
25609,-117.647058823529,4,2,1,45,0,0
25753,-117.647058823529,4,2,2,45,0,0
25898,-117.647058823529,4,2,1,45,0,0
27773,-117.647058823529,4,2,2,45,0,0
27844,-117.647058823529,4,2,1,45,0,0
27917,-105.263157894737,4,2,1,55,0,0
34840,-105.263157894737,4,2,1,65,0,0
36138,-105.263157894737,4,2,1,55,0,0
36282,-105.263157894737,4,2,1,60,0,0
36426,-105.263157894737,4,2,1,65,0,0
36571,-105.263157894737,4,2,1,70,0,0
37003,-105.263157894737,4,2,1,10,0,0
37148,-95.2380952380952,4,2,1,75,0,1
67148,-95.2380952380952,4,2,1,75,0,0
68878,-153.846153846153,4,2,1,75,0,0
69022,-153.846153846153,4,2,1,55,0,0
69166,-153.846153846153,4,2,1,75,0,0
69455,-117.64705882353,4,2,1,55,0,0
77532,-117.647058823529,4,2,1,65,0,0
78109,-117.647058823529,4,2,1,70,0,0
78686,-90.9090909090909,4,2,1,75,0,1
86763,-90.9090909090909,4,2,1,65,0,1
87340,-90.9090909090909,4,2,1,70,0,1
87917,-90.9090909090909,4,2,1,75,0,0

[Colours]
Combo1 : 251,211,94
Combo2 : 162,148,226
Combo3 : 0,66,147
Combo4 : 157,40,28

[HitObjects]
75,49,225,6,0,B|131:45|131:45|162:64|162:64|223:61,1,146.250005578995,0|0,3:0|0:0,0:0:0:0:
295,38,801,1,2,0:0:0:0:
275,118,946,1,2,0:0:0:0:
354,95,1090,1,2,0:0:0:0:
168,156,1378,6,0,B|139:243|139:243|164:303,1,146.250005578995,0|0,3:0|0:0,0:0:0:0:
217,359,1955,1,2,0:0:0:0:
94,346,2244,1,2,0:0:0:0:
245,239,2532,6,0,B|346:229|346:229|381:236|380:270,1,146.250005578995,0|0,3:0|0:0,0:0:0:0:
354,335,3109,1,2,0:0:0:0:
424,378,3253,1,2,0:0:0:0:
450,299,3398,1,2,0:0:0:0:
336,143,3686,6,0,P|287:114|190:136,1,146.250005578995,0|0,3:0|0:0,0:0:0:0:
209,209,4263,1,2,0:0:0:0:
122,111,4551,1,2,0:0:0:0:
126,327,4840,6,0,P|108:358|84:292,1,146.250005578995,2|0,3:3|0:0,0:0:0:0:
133,243,5417,1,2,0:0:0:0:
209,209,5561,1,2,0:0:0:0:
199,292,5705,1,2,0:0:0:0:
170,95,5994,6,0,B|219:74|219:74|316:105,1,146.250005578995,0|2,3:0|3:3,0:0:0:0:
348,174,6571,1,2,0:3:0:0:
373,54,6859,1,2,3:3:0:0:
451,194,7148,6,0,B|466:225|466:225|450:294,1,97.50000371933,2|0,3:3|0:0,0:0:0:0:
416,360,7580,1,2,3:3:0:0:
355,279,7724,2,0,P|326:265|292:270,1,48.750001859665,0|2,0:0|0:0,0:0:0:0:
289,189,8013,2,0,P|258:199|238:227,1,48.750001859665,2|0,3:3|0:0,0:0:0:0:
193,328,8301,2,0,B|135:228|135:228|201:12,1,341.250013017655,2|0,0:0|0:0,0:0:0:0:
276,80,9455,6,0,P|332:94|394:68,1,110.50000210762,4|8,1:2|0:0,0:0:0:0:
483,161,10032,2,0,L|475:229,1,55.2500010538101,0|0,3:0|3:0,0:0:0:0:
399,279,10321,2,0,L|391:211,1,55.2500010538101,8|0,0:0|3:0,0:0:0:0:
243,268,10609,6,0,P|276:257|306:261,2,55.2500010538101,0|0|8,3:0|3:0|0:0,0:0:0:0:
276,359,11041,1,0,3:0:0:0:
176,328,11186,2,0,P|152:283|159:235,1,82.8750015807152,0|0,3:0|0:0,0:0:0:0:
181,211,11474,2,0,P|187:182|176:137,1,55.2500010538101,8|0,0:0|1:0,0:0:0:0:
113,56,11763,6,0,B|159:50|159:50|183:64|183:64|232:62,1,110.50000210762,0|8,1:0|0:0,0:0:0:0:
110,158,12340,2,0,L|37:151,1,55.2500010538101,0|0,3:0|3:0,0:0:0:0:
0,246,12628,2,0,L|70:239,1,55.2500010538101,8|0,0:0|3:0,0:0:0:0:
186,264,12917,6,0,P|189:232|177:205,2,55.2500010538101,0|0|8,3:0|3:0|0:0,0:0:0:0:
158,350,13349,1,0,3:0:0:0:
158,350,13494,2,0,L|234:344,1,55.2500010538101,0|0,3:0|3:0,0:0:0:0:
332,292,13782,2,0,L|256:286,1,55.2500010538101,8|0,0:0|1:0,0:0:0:0:
393,181,14071,6,0,B|326:162|326:162|270:179,1,110.50000210762,0|8,1:0|0:0,0:0:0:0:
179,64,14648,2,0,L|188:144,1,55.2500010538101,0|0,3:0|3:0,0:0:0:0:
277,54,14936,2,0,L|286:-26,1,55.2500010538101,8|0,0:0|3:0,0:0:0:0:
433,51,15224,6,0,L|359:39,2,55.2500010538101,0|0|8,3:0|3:0|0:0,0:0:0:0:
481,148,15657,1,0,3:0:0:0:
481,148,15801,2,0,L|376:133,1,82.8750015807152,0|0,3:0|0:0,0:0:0:0:
367,157,16090,2,0,P|353:194|359:224,1,55.2500010538101,8|0,0:0|1:0,0:0:0:0:
445,305,16378,6,0,B|420:289|385:292|400:307|368:317|328:300,1,110.50000210762,0|8,1:0|0:0,0:0:0:0:
205,376,16955,2,0,P|238:381|272:370,1,55.2500010538101,0|0,3:0|3:0,0:0:0:0:
181,290,17244,2,0,P|149:282|117:290,1,55.2500010538101,8|0,0:0|3:0,0:0:0:0:
242,157,17532,6,0,L|243:227,1,55.2500010538101,0|0,3:0|3:0,0:0:0:0:
316,114,17821,1,8,0:0:0:0:
211,79,17965,2,0,B|170:65|170:65|101:84,1,110.50000210762,0|8,3:0|0:3,0:0:0:0:
24,22,18398,2,0,L|85:6,1,55.2500010538101,8|4,0:0|0:3,0:0:0:0:
38,148,18686,6,0,L|45:277,1,110.50000210762,6|0,1:2|1:0,0:0:0:0:
55,343,19119,1,0,0:0:0:0:
126,278,19263,2,0,P|153:267|195:274,1,55.2500010538101,2|2,1:2|0:0,0:0:0:0:
240,325,19551,1,0,1:0:0:0:
291,214,19696,6,0,B|308:173|308:173|282:98,1,110.50000210762,2|0,0:0|0:0,0:0:0:0:
223,56,20128,1,0,1:0:0:0:
374,10,20417,2,0,L|367:81,1,55.2500010538101,2|2,1:2|0:0,0:0:0:0:
459,136,20705,2,0,L|448:70,1,55.2500010538101,2|2,1:2|0:3,0:0:0:0:
363,211,20994,6,0,B|405:207|405:207|433:222|433:222|483:219,1,110.50000210762,0|0,1:0|1:0,0:0:0:0:
512,287,21426,1,2,0:0:0:0:
462,360,21571,2,0,L|388:354,1,55.2500010538101,2|2,1:2|0:0,0:0:0:0:
301,299,21859,2,0,L|356:294,1,55.2500010538101,2|0,1:2|0:0,0:0:0:0:
215,359,22148,6,0,B|194:315|194:315|210:235,1,110.50000210762,2|0,1:2|1:0,0:0:0:0:
244,180,22580,1,2,0:0:0:0:
145,133,22724,2,0,L|152:203,1,55.2500010538101,2|0,1:2|0:0,0:0:0:0:
235,86,23013,2,0,L|241:26,1,55.2500010538101,2|2,1:2|0:3,0:0:0:0:
130,11,23301,6,0,P|79:-2|26:29,1,110.50000210762,2|0,1:2|1:0,0:0:0:0:
0,105,23734,1,0,0:0:0:0:
89,137,23878,2,0,L|160:131,1,55.2500010538101,2|2,1:2|0:0,0:0:0:0:
232,163,24167,1,0,1:0:0:0:
168,247,24311,6,0,B|117:243|117:243|96:255|96:255|37:252,1,110.50000210762,2|0,0:0|0:0,0:0:0:0:
6,192,24744,1,0,1:0:0:0:
33,331,25032,2,0,L|102:337,1,55.2500010538101,2|2,1:2|0:0,0:0:0:0:
219,379,25321,2,0,L|153:385,1,55.2500010538101,2|2,1:2|0:3,0:0:0:0:
308,274,25609,6,0,L|317:390,1,110.50000210762,0|0,1:0|1:0,0:0:0:0:
223,293,26042,1,0,0:0:0:0:
257,209,26186,2,0,P|292:193|329:195,1,55.2500010538101,2|2,1:2|0:0,0:0:0:0:
428,158,26474,2,0,P|393:142|356:144,1,55.2500010538101,2|0,1:2|0:0,0:0:0:0:
484,12,26763,6,0,B|495:46|495:46|478:116,2,82.8750015807152,0|2|2,1:0|0:0|0:0,0:0:0:0:
403,50,27340,2,0,L|334:48,1,55.2500010538101,2|0,1:2|0:0,0:0:0:0:
266,12,27628,2,0,B|256:44|256:44|270:98,1,82.8750015807152,2|0,1:2|0:0,0:0:0:0:
290,126,27917,6,0,L|278:212,1,61.7499983510972,6|0,1:2|0:0,0:0:0:0:
272,270,28205,1,8,0:0:0:0:
349,235,28349,1,8,0:3:0:0:
376,337,28494,2,0,B|331:333|331:333|297:352|297:352|249:350,1,123.499996702194,2|0,0:0|1:0,0:0:0:0:
194,301,28926,1,0,3:0:0:0:
101,357,29071,2,0,P|86:314|99:278,1,61.7499983510972,0|0,1:0|0:0,0:0:0:0:
8,276,29359,2,0,P|27:234|62:218,1,61.7499983510972,8|2,0:0|0:0,0:0:0:0:
159,171,29648,1,2,1:2:0:0:
40,226,29936,1,2,1:2:0:0:
225,224,30224,6,0,B|245:183|245:183|228:89,1,123.499996702194,4|8,1:2|0:0,0:0:0:0:
177,31,30656,1,8,0:3:0:0:
301,64,30801,2,0,L|370:57,1,61.7499983510972,2|4,0:0|0:3,0:0:0:0:
464,141,31090,2,0,L|395:134,1,61.7499983510972,2|0,1:2|3:0,0:0:0:0:
512,240,31378,2,0,L|396:226,2,92.6249975266457,2|2|2,1:2|0:0|0:0,0:0:0:0:
455,373,31955,2,0,P|470:344|471:313,1,61.7499983510972,2|0,1:2|0:0,0:0:0:0:
377,325,32244,2,0,L|261:311,1,92.6249975266457,2|0,1:2|0:0,0:0:0:0:
250,293,32532,6,0,P|235:264|234:233,1,61.7499983510972,6|0,1:2|0:0,0:0:0:0:
272,165,32820,1,8,0:0:0:0:
312,236,32964,1,8,0:3:0:0:
325,103,33109,2,0,B|285:81|285:81|200:99,1,123.499996702194,2|0,0:0|1:0,0:0:0:0:
130,59,33541,1,2,0:0:0:0:
53,119,33686,2,0,L|59:205,1,61.7499983510972,2|0,1:2|0:0,0:0:0:0:
142,258,33974,2,0,L|150:176,1,61.7499983510972,8|0,0:0|0:0,0:0:0:0:
199,320,34263,1,2,1:2:0:0:
65,285,34551,1,2,1:2:0:0:
225,241,34839,6,0,B|255:222|295:231|280:246|313:257|354:241,1,123.499996702194,12|0,0:0|1:0,0:0:0:0:
345,93,35273,2,0,P|324:138|327:176,1,61.7499983510972,12|0,0:0|0:0,0:0:0:0:
478,159,35561,2,0,L|409:150,1,61.7499983510972,2|8,0:0|0:0,0:0:0:0:
403,29,35849,2,0,B|355:7|355:7|269:33,1,123.499996702194,4|8,1:2|0:0,0:0:0:0:
178,104,36282,1,8,0:0:0:0:
251,155,36426,1,8,0:0:0:0:
107,57,36571,1,10,0:0:0:0:
107,57,37148,6,0,B|90:87|90:87|105:167,1,102.374996875763,6|0,1:2|0:0,0:0:0:0:
140,180,37436,2,0,B|147:217|147:217|130:263,1,68.2499979171754,8|2,0:0|1:2,0:0:0:0:
77,330,37724,1,2,0:0:0:0:
136,245,37869,1,2,1:2:0:0:
237,343,38013,2,0,B|206:328|206:328|169:336,1,68.2499979171754,8|2,0:0|0:0,0:0:0:0:
338,248,38301,6,0,L|349:412,1,136.499995834351,2|10,1:2|0:0,0:0:0:0:
430,276,38734,2,0,L|436:359,1,68.2499979171754,2|0,1:2|0:0,0:0:0:0:
508,240,39023,1,2,1:2:0:0:
388,180,39167,2,0,P|351:164|293:176,1,68.2499979171754,10|0,0:0|0:0,0:0:0:0:
196,76,39455,6,0,B|248:56|248:56|332:75,1,136.499995834351,2|8,1:2|0:0,0:0:0:0:
421,15,39888,2,0,L|333:-5,1,68.2499979171754,2|0,1:2|0:0,0:0:0:0:
446,104,40176,2,0,L|534:84,1,68.2499979171754,2|8,1:2|0:0,0:0:0:0:
388,180,40465,1,2,0:0:0:0:
483,272,40609,6,0,P|498:232|489:191,1,68.2499979171754,2|0,1:2|0:0,0:0:0:0:
505,359,40898,1,8,0:0:0:0:
397,280,41042,2,0,B|342:277|342:277|310:294|310:294|243:292,1,136.499995834351,2|2,1:2|1:2,0:0:0:0:
142,221,41474,2,0,L|242:213,1,68.2499979171754,10|0,0:0|0:0,0:0:0:0:
49,296,41763,6,0,B|25:251|25:251|47:165,1,136.499995834351,2|8,1:2|0:0,0:0:0:0:
14,82,42196,1,2,1:2:0:0:
115,122,42340,2,0,L|215:110,1,68.2499979171754,2|0,0:0|1:0,0:0:0:0:
293,52,42628,2,0,L|225:43,1,68.2499979171754,10|0,0:0|0:0,0:0:0:0:
381,1,42917,6,0,P|396:61|339:134,1,136.499995834351,2|8,1:2|0:0,0:0:0:0:
246,129,43350,1,2,1:2:0:0:
317,208,43494,2,0,P|358:213|403:196,1,68.2499979171754,2|0,0:0|1:0,0:0:0:0:
246,129,43782,2,0,P|205:124|160:141,1,68.2499979171754,10|0,0:0|0:0,0:0:0:0:
89,241,44071,6,0,B|93:186|93:186|78:156|78:156|85:99,1,136.499995834351,2|8,1:2|0:0,0:0:0:0:
179,130,44504,1,2,1:2:0:0:
196,238,44648,2,0,L|191:310,1,68.2499979171754,2|0,0:0|1:0,0:0:0:0:
294,384,44936,2,0,L|288:310,1,68.2499979171754,10|0,0:0|0:0,0:0:0:0:
403,228,45224,6,0,B|353:207|300:220|300:220|324:224|351:247,1,136.499995834351,2|8,1:2|0:0,0:0:0:0:
475,294,45657,2,0,B|501:247|501:247|484:142,1,136.499995834351,2|0,1:2|1:0,0:0:0:0:
389,101,46090,1,8,0:0:0:0:
487,165,46234,1,8,0:0:0:0:
441,27,46378,6,0,P|398:9|325:29,1,102.374996875763,6|0,1:2|0:0,0:0:0:0:
314,46,46667,2,0,L|299:122,1,68.2499979171754,8|2,0:0|1:2,0:0:0:0:
229,215,46955,2,0,L|215:142,1,68.2499979171754,2|0,0:0|1:0,0:0:0:0:
167,45,47244,1,8,0:0:0:0:
117,143,47388,1,2,0:0:0:0:
17,71,47532,6,0,B|-2:116|-2:116|25:211,1,136.499995834351,2|8,1:2|0:0,0:0:0:0:
111,293,47965,2,0,L|124:209,1,68.2499979171754,2|0,1:2|0:0,0:0:0:0:
56,368,48253,1,2,1:2:0:0:
192,329,48398,2,0,P|230:316|265:320,1,68.2499979171754,10|0,0:0|0:0,0:0:0:0:
359,379,48686,6,0,B|375:328|375:328|352:225,1,136.499995834351,2|8,1:2|0:2,0:0:0:0:
274,175,49119,2,0,P|237:157|187:165,1,68.2499979171754,2|0,1:2|0:0,0:0:0:0:
356,105,49407,2,0,P|393:87|443:95,1,68.2499979171754,2|8,1:2|0:0,0:0:0:0:
282,47,49696,1,2,0:0:0:0:
462,12,49840,6,0,P|504:62|491:127,1,136.499995834351,2|8,1:2|0:2,0:0:0:0:
508,216,50273,2,0,B|465:237|426:205|426:205|356:200,1,136.499995834351,2|2,1:2|1:2,0:0:0:0:
305,310,50705,2,0,L|405:302,1,68.2499979171754,10|0,0:2|0:0,0:0:0:0:
234,230,50994,6,0,B|151:207|151:207|76:237,1,136.499995834351,4|8,1:2|0:0,0:0:0:0:
155,304,51427,1,0,1:0:0:0:
39,277,51571,2,0,P|19:236|27:189,1,68.2499979171754,2|0,0:0|1:0,0:0:0:0:
91,81,51859,2,0,P|93:113|82:149,1,68.2499979171754,10|0,0:0|0:0,0:0:0:0:
198,110,52148,6,0,B|254:103|254:103|289:117|289:117|342:112,1,136.499995834351,2|8,1:2|0:0,0:0:0:0:
306,14,52580,1,0,1:0:0:0:
412,78,52724,2,0,P|420:114|406:157,1,68.2499979171754,2|0,0:0|1:0,0:0:0:0:
452,0,53013,2,0,P|483:19|503:60,1,68.2499979171754,10|2,0:0|0:0,0:0:0:0:
511,194,53301,6,0,L|502:339,1,136.499995834351,2|8,1:2|0:0,0:0:0:0:
424,259,53734,1,8,0:0:0:0:
424,259,53806,1,8,0:0:0:0:
424,259,53878,1,8,0:0:0:0:
344,347,54023,5,4,1:2:0:0:
286,211,54311,5,6,1:2:0:0:
155,327,54599,6,0,L|228:322,1,68.2499979171754,0|10,1:0|0:0,0:0:0:0:
177,245,54888,2,0,B|120:248|120:248|97:264|97:264|29:270,1,136.499995834351,6|0,1:2|1:0,0:0:0:0:
177,245,55321,1,8,0:0:0:0:
40,172,55465,6,0,P|30:105|71:50,1,136.499995834351,6|2,1:2|1:2,0:0:0:0:
194,133,55898,2,0,L|105:126,1,68.2499979171754,8|0,0:0|1:0,0:0:0:0:
236,46,56186,2,0,L|322:40,1,68.2499979171754,10|2,0:0|1:2,0:0:0:0:
405,0,56474,1,8,0:0:0:0:
402,131,56619,6,0,B|420:34|420:34|394:-26,1,136.499995834351,6|0,1:2|1:0,0:0:0:0:
299,130,57051,2,0,L|309:229,1,68.2499979171754,8|0,0:0|1:0,0:0:0:0:
406,242,57340,1,8,0:0:0:0:
406,242,57484,1,0,1:0:0:0:
319,293,57628,1,8,0:0:0:0:
467,175,57773,6,0,P|496:224|471:302,1,136.499995834351,6|2,1:2|1:2,0:0:0:0:
428,382,58205,2,0,L|342:377,1,68.2499979171754,10|0,0:0|1:0,0:0:0:0:
250,296,58494,2,0,L|336:291,1,68.2499979171754,10|2,0:0|1:2,0:0:0:0:
175,353,58782,1,8,0:0:0:0:
203,212,58926,6,0,L|358:202,1,136.499995834351,6|0,1:2|1:0,0:0:0:0:
405,118,59359,2,0,L|320:113,1,68.2499979171754,8|0,0:0|1:0,0:0:0:0:
246,66,59648,1,8,0:0:0:0:
246,66,59792,1,0,1:0:0:0:
333,15,59936,1,8,0:0:0:0:
167,18,60080,6,0,B|146:55|146:55|170:160,1,136.499995834351,6|2,1:2|1:2,0:0:0:0:
90,220,60513,2,0,L|71:140,1,68.2499979171754,10|0,0:0|1:0,0:0:0:0:
197,232,60801,2,0,L|181:298,1,68.2499979171754,10|2,0:0|1:2,0:0:0:0:
142,384,61090,1,8,0:0:0:0:
266,301,61234,6,0,B|300:287|347:290|324:312|365:321|411:305,1,136.499995834351,6|0,1:2|1:0,0:0:0:0:
493,233,61667,2,0,P|459:214|405:224,1,68.2499979171754,8|0,0:0|1:0,0:0:0:0:
291,122,61955,1,8,0:0:0:0:
331,210,62099,1,8,0:0:0:0:
393,133,62244,1,8,0:0:0:0:
226,185,62388,6,0,B|194:138|194:138|219:39,1,136.499995834351,6|0,1:2|1:0,0:0:0:0:
141,7,62821,2,0,L|114:99,1,68.2499979171754,12|0,0:0|1:0,0:0:0:0:
29,87,63109,2,0,L|74:171,1,68.2499979171754,12|0,0:0|1:0,0:0:0:0:
6,222,63398,2,0,L|97:249,1,68.2499979171754,12|0,0:0|1:0,0:0:0:0:
50,384,63686,6,0,P|27:343|32:306,1,68.2499979171754,12|0,0:0|1:0,0:0:0:0:
183,325,63974,2,0,L|113:334,1,68.2499979171754,12|0,0:0|1:0,0:0:0:0:
271,294,64263,2,0,P|276:324|258:374,1,68.2499979171754,12|0,0:0|1:0,0:0:0:0:
203,235,64551,1,12,0:0:0:0:
346,247,64696,6,0,B|396:240|396:240|428:255|428:255|489:249,1,136.499995834351,6|0,1:2|1:0,0:0:0:0:
512,156,65128,2,0,L|427:150,1,68.2499979171754,10|0,0:0|0:0,0:0:0:0:
332,83,65417,2,0,L|400:78,1,68.2499979171754,2|0,1:2|1:0,0:0:0:0:
358,0,65705,1,8,0:0:0:0:
246,51,65849,6,0,B|236:84|236:84|258:148,1,102.374996875763,2|0,1:2|0:0,0:0:0:0:
287,178,66138,1,2,1:2:0:0:
203,243,66282,2,0,L|118:237,1,68.2499979171754,10|0,0:0|0:0,0:0:0:0:
332,272,66571,2,0,L|417:266,1,68.2499979171754,2|0,1:2|1:0,0:0:0:0:
273,360,66859,2,0,L|381:353,1,102.374996875763,10|0,0:0|0:0,0:0:0:0:
409,339,67148,5,6,1:2:0:0:
428,313,67724,5,6,1:2:0:0:
432,282,68301,5,6,1:2:0:0:
352,293,68446,1,8,0:0:0:0:
379,217,68590,1,8,0:0:0:0:
258,152,68878,2,0,B|246:176|246:176|251:207,2,42.2499980659486,2|0|2,0:0|0:0|0:0,0:0:0:0:
390,62,69455,6,0,L|317:58,3,55.2500010538101,4|0|8|0,1:2|3:0|0:2|3:0,0:0:0:0:
469,30,70032,2,0,P|475:56|469:92,1,55.2500010538101,2|0,0:2|3:0,0:0:0:0:
419,140,70321,2,0,P|413:166|419:202,1,55.2500010538101,10|0,0:2|0:0,0:0:0:0:
461,300,70609,6,0,L|389:294,3,55.2500010538101,0|0|8|0,3:2|3:0|0:2|3:0,0:0:0:0:
486,381,71186,2,0,L|380:375,1,82.8750015807152,2|0,0:0|0:0,0:0:0:0:
363,364,71474,2,0,P|330:352|291:358,1,55.2500010538101,10|0,0:2|3:0,0:0:0:0:
201,384,71763,6,0,L|205:320,3,55.2500010538101,0|0|8|0,1:0|0:0|0:0|3:0,0:0:0:0:
129,286,72340,2,0,L|124:352,1,55.2500010538101,2|2,0:0|0:0,0:0:0:0:
52,243,72629,2,0,L|45:312,1,55.2500010538101,10|0,0:2|3:0,0:0:0:0:
11,158,72917,6,0,P|34:146|86:157,3,55.2500010538101,0|0|8|0,3:2|3:0|0:2|3:0,0:0:0:0:
55,70,73494,2,0,P|98:75|136:120,1,82.8750015807152,2|0,0:0|0:0,0:0:0:0:
147,140,73782,2,0,L|145:207,1,55.2500010538101,10|0,0:2|3:0,0:0:0:0:
277,97,74071,6,0,P|243:86|204:96,3,55.2500010538101,0|0|8|0,1:0|0:0|0:0|3:0,0:0:0:0:
241,169,74648,2,0,L|243:234,1,55.2500010538101,2|0,0:0|3:0,0:0:0:0:
322,228,74937,2,0,L|315:302,1,55.2500010538101,10|0,0:0|3:0,0:0:0:0:
245,380,75225,6,0,P|278:371|317:380,3,55.2500010538101,0|0|8|0,1:0|0:0|0:0|3:0,0:0:0:0:
378,344,75802,2,0,B|410:330|410:330|461:341,1,82.8750015807152,2|0,0:0|0:0,0:0:0:0:
492,317,76090,2,0,P|481:289|497:250,1,55.2500010538101,10|0,0:0|3:0,0:0:0:0:
451,169,76378,6,0,P|426:159|385:162,3,55.2500010538101,0|0|10|0,1:0|3:0|0:2|3:0,0:0:0:0:
512,110,76955,2,0,P|487:91|445:88,1,55.2500010538101,0|0,1:0|3:0,0:0:0:0:
438,62,77172,1,0,0:0:0:0:
438,62,77244,2,0,L|373:51,1,55.2500010538101,10|0,0:2|3:0,0:0:0:0:
276,32,77532,6,0,B|259:58|259:58|269:125,1,82.8750015807152,12|0,0:0|0:0,0:0:0:0:
285,148,77821,2,0,L|281:198,3,27.6250005269051,0|0|0|0,3:0|3:0|3:0|3:0,0:0:0:0:
253,205,78109,2,0,L|261:250,3,27.6250005269051,0|0|0|0,3:0|3:0|3:0|3:0,0:0:0:0:
291,263,78398,2,0,L|288:301,3,27.6250005269051,0|0|0|0,3:0|3:0|3:0|3:0,0:0:0:0:
272,330,78686,6,0,L|179:321,1,71.5000021820069,6|0,1:2|0:0,0:0:0:0:
88,247,78974,2,0,L|182:239,1,71.5000021820069,8|2,0:0|0:0,0:0:0:0:
6,204,79263,1,8,0:0:0:0:
83,163,79407,1,0,1:0:0:0:
7,291,79551,1,8,0:0:0:0:
13,112,79696,6,0,P|76:77|156:117,1,143.000004364014,6|0,1:2|1:0,0:0:0:0:
265,103,80128,2,0,L|255:192,1,71.5000021820069,8|0,0:0|1:0,0:0:0:0:
168,269,80417,2,0,L|153:174,1,71.5000021820069,8|0,0:0|1:0,0:0:0:0:
135,368,80705,2,0,B|174:385|174:385|241:365,1,107.25000327301,8|0,0:0|0:0,0:0:0:0:
259,322,80994,6,0,P|292:305|349:312,1,71.5000021820069,6|0,1:2|0:0,0:0:0:0:
480,267,81282,2,0,P|447:250|390:257,1,71.5000021820069,8|0,0:0|1:0,0:0:0:0:
332,180,81571,1,10,0:0:0:0:
416,124,81715,1,2,1:2:0:0:
327,82,81859,1,10,0:0:0:0:
493,178,82003,6,0,B|512:131|512:131|488:22,1,143.000004364014,6|0,1:2|1:0,0:0:0:0:
416,124,82436,1,8,0:0:0:0:
368,12,82580,2,0,P|331:0|277:15,1,71.5000021820069,2|8,1:2|0:0,0:0:0:0:
163,102,82869,1,2,1:2:0:0:
210,11,83013,1,14,0:0:0:0:
248,152,83157,1,0,0:0:0:0:
97,56,83301,6,0,P|83:87|90:134,2,71.5000021820069,12|0|0,0:0|1:0|1:0,0:0:0:0:
0,189,83734,2,0,P|12:220|50:249,2,71.5000021820069,12|0|0,0:0|1:0|1:0,0:0:0:0:
67,337,84167,5,12,0:0:0:0:
151,266,84312,2,0,L|234:262,1,71.5000021820069,0|0,1:0|1:0,0:0:0:0:
40,244,84599,5,12,0:0:0:0:
168,351,84744,2,0,L|254:347,1,71.5000021820069,0|0,1:0|1:0,0:0:0:0:
306,197,85032,5,12,0:0:0:0:
324,286,85176,1,0,1:0:0:0:
341,376,85321,1,0,1:0:0:0:
410,247,85465,6,0,L|413:183,5,35.7500010910034,12|8|8|8|0|0,0:0|0:3|0:3|0:3|1:0|1:0,0:0:0:0:
385,173,85898,2,0,L|380:130,5,35.7500010910034,8|8|4|4|0|0,0:3|0:3|0:3|0:3|1:0|1:0,0:0:0:0:
421,107,86330,1,8,0:0:0:0:
421,107,86402,1,8,0:3:0:0:
421,107,86474,2,0,L|423:61,2,35.7500010910034,4|4|0,0:3|0:3|1:0,0:0:0:0:
300,29,86763,5,8,0:0:0:0:
300,29,86835,1,8,0:0:0:0:
300,29,86908,2,0,P|277:21|254:24,1,35.7500010910034,8|8,0:0|0:0,0:0:0:0:
239,56,87051,2,0,P|221:62|186:55,3,35.7500010910034,8|8|8|8,0:0|0:0|0:0|0:0,0:0:0:0:
159,43,87340,2,0,L|165:107,3,35.7500010910034,8|8|8|8,0:0|0:0|0:0|0:0,0:0:0:0:
123,111,87628,2,0,L|129:175,3,35.7500010910034,8|8|8|8,0:0|0:0|0:0|0:0,0:0:0:0:
