osu file format v14

[General]
AudioFilename: audio.mp3
AudioLeadIn: 0
PreviewTime: 37070
Countdown: 0
SampleSet: Soft
StackLeniency: 0.7
Mode: 0
LetterboxInBreaks: 0
WidescreenStoryboard: 1

[Editor]
DistanceSpacing: 1.7
BeatDivisor: 4
GridSize: 4
TimelineZoom: 1

[Metadata]
Title:Utsuroi (Short Ver.)
TitleUnicode:うつろい (Short Ver.)
Artist:TrySail
ArtistUnicode:TrySail
Creator:Log Off Now
Version:Insane
Source:マギアレコード 魔法少女まどか☆マギカ外伝
Tags:japanese video game version magia record puella magi madoka magica side story gaiden opening 2 op magireco マギレコ magical girl 麻倉もも Asakura Momo 雨宮天 Amamiya Sora 夏川椎菜 Natsukawa Shiina anime rock jrock j-rock pop jpop j-pop browiec nexusqi nexus mnyui kowari
BeatmapID:2410946
BeatmapSetID:1155295

[Difficulty]
HPDrainRate:5
CircleSize:3.6
OverallDifficulty:8
ApproachRate:9
SliderMultiplier:1.3
SliderTickRate:1

[Events]
//Background and Video events
0,0,"trysailutsuroi.jpg",0,0
//Break Periods
//Storyboard Layer 0 (Background)
//Storyboard Layer 1 (Fail)
//Storyboard Layer 2 (Pass)
//Storyboard Layer 3 (Foreground)
//Storyboard Layer 4 (Overlay)
//Storyboard Sound Samples

[TimingPoints]
225,288.461538461538,4,2,1,35,1,0
225,-133.333333333333,4,2,1,35,0,0
8734,-100,4,2,1,35,0,0
9455,-117.647058823529,4,2,1,45,0,0
20849,-117.647058823529,4,2,2,45,0,0
20994,-117.647058823529,4,2,1,45,0,0
22941,-117.647058823529,4,2,2,45,0,0
23013,-117.647058823529,4,2,1,45,0,0
23157,-117.647058823529,4,2,2,45,0,0
23301,-117.647058823529,4,2,1,45,0,0
25465,-117.647058823529,4,2,2,45,0,0
25609,-117.647058823529,4,2,1,45,0,0
25753,-117.647058823529,4,2,2,45,0,0
25898,-117.647058823529,4,2,1,45,0,0
27773,-117.647058823529,4,2,2,45,0,0
27917,-105.263157894737,4,2,1,55,0,0
34840,-90.9090909090909,4,2,1,65,0,0
36138,-83.3333333333333,4,2,1,55,0,0
36282,-83.3333333333333,4,2,1,60,0,0
36426,-83.3333333333333,4,2,1,65,0,0
36571,-83.3333333333333,4,2,1,70,0,0
37003,-83.3333333333333,4,2,1,10,0,0
37148,-83.3333333333333,4,2,1,75,0,1
67148,-100,4,2,1,75,0,0
69455,-117.64705882353,4,2,1,55,0,0
77532,-83.3333333333333,4,2,1,65,0,0
78109,-83.3333333333333,4,2,1,70,0,0
78686,-83.3333333333333,4,2,1,75,0,1
86763,-83.3333333333333,4,2,1,65,0,1
87340,-83.3333333333333,4,2,1,70,0,1
87917,-83.3333333333333,4,2,1,75,0,0

[Colours]
Combo1 : 251,211,94
Combo2 : 162,148,226
Combo3 : 0,66,147
Combo4 : 157,40,28

[HitObjects]
86,300,225,6,0,P|113:276|227:287,1,146.250005578995,0|0,3:0|0:0,0:0:0:0:
280,223,801,2,0,L|272:160,1,48.750001859665,2|2,0:0|0:0,0:0:0:0:
213,117,1090,1,2,0:0:0:0:
392,27,1378,6,0,L|373:187,1,146.250005578995,0|0,3:0|0:0,0:0:0:0:
309,236,1955,1,2,0:0:0:0:
280,223,2244,1,2,0:0:0:0:
162,288,2532,6,0,P|186:261|175:147,1,146.250005578995,0|0,3:0|0:0,0:0:0:0:
239,94,3108,2,0,L|302:102,1,48.750001859665,2|2,0:0|0:0,0:0:0:0:
345,161,3397,1,2,0:0:0:0:
496,17,3686,6,0,L|336:36,1,146.250005578995,0|0,3:0|0:0,0:0:0:0:
287,100,4263,1,2,0:0:0:0:
300,129,4552,1,2,0:0:0:0:
231,255,4840,6,0,P|208:227|93:220,1,146.250005578995,2|0,3:3|0:0,0:0:0:0:
42,155,5416,2,0,L|50:92,1,48.750001859665,2|2,0:0|0:0,0:0:0:0:
117,57,5705,1,2,0:0:0:0:
184,144,5994,6,0,L|165:304,1,146.250005578995,0|2,3:0|3:3,0:0:0:0:
231,352,6571,2,0,P|271:334|298:333,1,48.750001859665,2|0,0:3|0:0,0:0:0:0:
342,273,6859,2,0,P|382:291|409:292,1,48.750001859665,2|0,3:3|0:0,0:0:0:0:
477,350,7148,6,0,L|467:250,1,97.50000371933,2|0,3:3|0:0,0:0:0:0:
397,203,7580,2,0,L|406:105,1,97.50000371933,2|2,3:3|0:0,0:0:0:0:
484,57,8013,1,2,3:3:0:0:
230,36,8301,5,2,0:0:0:0:
272,111,8446,1,2,0:0:0:0:
319,31,8590,1,2,0:0:0:0:
182,114,8734,1,2,0:0:0:0:
182,114,9455,6,0,L|195:244,1,110.50000210762,4|8,1:2|0:0,0:0:0:0:
265,280,9888,1,0,3:0:0:0:
340,225,10032,2,0,P|366:212|400:209,1,55.2500010538101,0|0,3:0|3:0,0:0:0:0:
434,332,10321,2,0,P|409:315|390:288,1,55.2500010538101,8|0,0:0|3:0,0:0:0:0:
458,150,10609,6,0,B|483:183|483:183|468:263,1,110.50000210762,0|8,3:0|0:0,0:0:0:0:
444,358,11042,1,0,3:0:0:0:
320,274,11186,2,0,L|395:287,1,55.2500010538101,0|0,3:0|3:0,0:0:0:0:
250,377,11474,2,0,L|325:364,1,55.2500010538101,8|0,0:0|1:0,0:0:0:0:
234,259,11763,6,0,P|212:293|144:313,1,110.50000210762,0|8,1:0|0:0,0:0:0:0:
78,244,12196,1,0,3:0:0:0:
165,169,12340,2,0,L|156:235,1,55.2500010538101,0|0,3:0|3:0,0:0:0:0:
70,382,12628,2,0,L|61:316,1,55.2500010538101,8|0,0:0|3:0,0:0:0:0:
0,259,12917,6,0,L|18:127,1,110.50000210762,0|8,3:0|0:0,0:0:0:0:
88,103,13349,1,0,3:0:0:0:
140,168,13494,2,0,L|131:234,2,55.2500010538101,0|0|8,3:0|3:0|0:0,0:0:0:0:
155,32,13926,1,0,1:0:0:0:
220,97,14071,6,0,P|265:77|336:72,1,110.50000210762,0|8,1:0|0:0,0:0:0:0:
427,124,14503,1,0,3:0:0:0:
340,206,14648,2,0,L|348:139,1,55.2500010538101,0|0,3:0|3:0,0:0:0:0:
436,274,14936,2,0,L|428:207,1,55.2500010538101,8|0,0:0|3:0,0:0:0:0:
352,316,15224,6,0,P|324:291|248:293,1,110.50000210762,0|8,3:0|0:0,0:0:0:0:
167,235,15657,1,0,3:0:0:0:
251,148,15801,2,0,L|244:202,1,55.2500010538101,0|0,3:0|3:0,0:0:0:0:
101,327,16090,2,0,L|94:272,1,55.2500010538101,8|0,0:0|1:0,0:0:0:0:
82,146,16378,6,0,P|123:151|180:99,1,110.50000210762,0|8,1:0|0:0,0:0:0:0:
107,64,16811,1,0,3:0:0:0:
214,195,16955,2,0,L|287:185,1,55.2500010538101,0|0,3:0|3:0,0:0:0:0:
329,117,17244,2,0,L|402:127,1,55.2500010538101,8|0,0:0|3:0,0:0:0:0:
434,208,17532,6,0,L|507:198,2,55.2500010538101,0|0|8,3:0|3:0|0:0,0:0:0:0:
379,283,17965,1,0,3:0:0:0:
292,239,18109,1,0,3:0:0:0:
317,351,18253,1,8,0:3:0:0:
288,210,18398,1,8,0:0:0:0:
235,310,18542,1,4,0:3:0:0:
163,260,18686,6,0,L|52:280,2,110.50000210762,6|0|2,1:2|1:0|1:2,0:0:0:0:
197,178,19407,2,0,P|182:148|181:119,1,55.2500010538101,2|0,0:0|1:0,0:0:0:0:
235,56,19696,1,2,0:0:0:0:
235,56,19840,2,0,P|285:81|346:80,1,110.50000210762,0|0,1:2|1:0,0:0:0:0:
395,267,20417,5,2,1:2:0:0:
475,230,20561,1,2,0:0:0:0:
413,131,20705,2,0,L|403:196,1,55.2500010538101,2|2,1:2|0:3,0:0:0:0:
390,298,20994,2,0,P|355:276|279:277,1,110.50000210762,0|0,1:0|1:0,0:0:0:0:
147,164,21571,5,2,1:2:0:0:
227,201,21715,1,2,0:0:0:0:
165,300,21859,2,0,L|155:234,1,55.2500010538101,2|0,1:2|0:0,0:0:0:0:
142,133,22148,6,0,P|97:160|31:154,1,110.50000210762,2|0,1:2|1:0,0:0:0:0:
76,71,22580,1,2,0:0:0:0:
209,181,22724,2,0,L|310:167,1,82.8750015807152,2|2,1:2|0:3,0:0:0:0:
319,145,23013,2,0,L|394:156,1,55.2500010538101,2|2,1:2|0:3,0:0:0:0:
472,202,23301,6,0,B|454:170|454:170|464:84,2,110.50000210762,2|0|2,1:2|1:0|1:2,0:0:0:0:
390,295,24023,2,0,L|397:225,1,55.2500010538101,2|0,0:0|1:0,0:0:0:0:
344,168,24311,1,2,0:0:0:0:
344,168,24455,2,0,B|269:172|301:198|235:199,1,110.50000210762,0|0,1:2|1:0,0:0:0:0:
115,80,25032,5,2,1:2:0:0:
195,117,25176,1,2,0:0:0:0:
133,216,25320,2,0,L|123:150,1,55.2500010538101,2|2,1:2|0:3,0:0:0:0:
224,100,25609,2,0,L|234:34,1,55.2500010538101,0|2,1:0|0:3,0:0:0:0:
82,8,25898,2,0,L|90:62,1,55.2500010538101,0|0,1:0|0:0,0:0:0:0:
118,223,26186,5,2,1:2:0:0:
43,179,26330,1,2,0:0:0:0:
120,142,26474,2,0,L|174:150,1,55.2500010538101,2|0,1:2|0:0,0:0:0:0:
232,223,26763,2,0,P|267:207|332:202,2,82.8750015807152,0|2|2,1:0|0:0|0:0,0:0:0:0:
161,315,27340,2,0,L|151:251,1,55.2500010538101,2|0,1:2|0:0,0:0:0:0:
234,374,27628,2,0,L|243:320,1,55.2500010538101,2|2,1:2|0:3,0:0:0:0:
331,231,27917,6,0,L|317:101,1,123.499996702194,6|8,1:2|0:0,0:0:0:0:
230,74,28349,1,8,0:3:0:0:
230,74,28494,2,0,L|237:135,1,61.7499983510972,2|4,0:0|0:3,0:0:0:0:
386,10,28782,2,0,L|396:92,1,61.7499983510972,0|0,1:0|3:0,0:0:0:0:
483,184,29071,6,0,P|457:165|369:174,1,123.499996702194,0|8,1:0|0:0,0:0:0:0:
326,240,29503,1,2,0:0:0:0:
221,99,29648,1,2,1:2:0:0:
255,107,29936,1,2,1:2:0:0:
131,280,30224,6,0,L|145:150,1,123.499996702194,4|8,1:2|0:0,0:0:0:0:
232,123,30657,1,8,0:3:0:0:
232,123,30801,2,0,L|224:184,1,61.7499983510972,2|4,0:0|0:3,0:0:0:0:
78,95,31090,2,0,L|85:33,1,61.7499983510972,2|0,1:2|3:0,0:0:0:0:
239,96,31378,6,0,P|282:114|342:92,2,92.6249975266457,2|2|2,1:2|0:0|0:0,0:0:0:0:
154,117,31955,2,0,L|144:199,1,61.7499983510972,2|0,1:2|0:0,0:0:0:0:
237,260,32244,2,0,L|227:178,1,61.7499983510972,2|0,1:2|0:0,0:0:0:0:
133,323,32532,6,0,B|206:315|181:356|269:341,1,123.499996702194,6|8,1:2|0:0,0:0:0:0:
321,278,32965,1,8,0:3:0:0:
384,351,33109,2,0,L|447:342,1,61.7499983510972,2|4,0:0|0:3,0:0:0:0:
305,252,33398,2,0,L|242:243,1,61.7499983510972,0|2,1:0|0:0,0:0:0:0:
376,149,33686,6,0,B|407:185|407:185|391:286,1,123.499996702194,2|8,1:2|0:0,0:0:0:0:
248,339,34263,1,2,1:2:0:0:
282,347,34551,1,2,1:2:0:0:
146,139,34840,6,0,L|164:286,1,143.000004364014,12|0,0:0|1:0,0:0:0:0:
371,143,35273,2,0,B|282:138|321:193|228:187,1,143.000004364014,12|2,0:0|0:0,0:0:0:0:
66,114,35705,1,8,0:0:0:0:
251,31,35849,2,0,L|237:129,1,71.5000021820069,4|0,1:2|0:0,0:0:0:0:
213,262,36138,5,8,0:0:0:0:
79,83,36282,1,8,0:0:0:0:
122,258,36426,1,8,0:0:0:0:
164,54,36571,1,10,0:0:0:0:
216,295,37148,6,0,B|310:291|261:339|379:327,1,155.999995239258,6|8,1:2|0:0,0:0:0:0:
425,252,37580,1,2,1:2:0:0:
333,163,37724,2,0,L|343:246,1,77.999997619629,2|2,0:0|1:2,0:0:0:0:
491,362,38013,2,0,L|501:279,1,77.999997619629,8|2,0:0|0:0,0:0:0:0:
373,375,38301,6,0,P|336:334|223:344,1,155.999995239258,2|10,1:2|0:0,0:0:0:0:
146,219,38734,2,0,L|157:302,1,77.999997619629,2|0,1:2|0:0,0:0:0:0:
238,209,39023,1,2,1:2:0:0:
118,100,39167,2,0,P|161:127|201:125,1,77.999997619629,10|0,0:0|0:0,0:0:0:0:
336,41,39455,6,0,B|304:77|304:77|321:186,1,155.999995239258,2|8,1:2|0:0,0:0:0:0:
473,119,39888,2,0,L|390:109,1,77.999997619629,2|0,1:2|0:0,0:0:0:0:
328,221,40176,2,0,L|245:231,1,77.999997619629,2|8,1:2|0:0,0:0:0:0:
138,150,40465,1,2,0:0:0:0:
187,66,40609,6,0,P|219:98|214:210,1,155.999995239258,2|8,1:2|0:0,0:0:0:0:
94,262,41042,2,0,B|188:258|139:306|257:294,1,155.999995239258,2|2,1:2|1:2,0:0:0:0:
328,171,41474,2,0,P|315:212|324:253,1,77.999997619629,10|0,0:0|0:0,0:0:0:0:
472,164,41763,5,2,1:2:0:0:
403,226,41907,1,2,0:0:0:0:
495,331,42051,2,0,L|487:251,1,77.999997619629,8|2,0:0|1:2,0:0:0:0:
389,130,42340,2,0,P|339:155|303:157,1,77.999997619629,2|0,0:0|1:0,0:0:0:0:
262,19,42628,2,0,P|308:49|328:79,1,77.999997619629,10|0,0:0|0:0,0:0:0:0:
271,238,42917,6,0,B|226:203|226:203|242:89,1,155.999995239258,2|8,1:2|0:0,0:0:0:0:
395,166,43349,1,2,1:2:0:0:
395,166,43422,1,2,0:0:0:0:
395,166,43494,2,0,L|312:156,1,77.999997619629,2|0,0:0|1:0,0:0:0:0:
223,81,43782,2,0,L|140:91,1,77.999997619629,10|0,0:0|0:0,0:0:0:0:
36,210,44071,6,0,P|62:166|25:64,1,155.999995239258,2|8,1:2|0:0,0:0:0:0:
145,185,44503,1,2,1:2:0:0:
236,53,44648,2,0,L|153:63,1,77.999997619629,2|0,0:0|1:0,0:0:0:0:
317,156,44936,2,0,L|234:146,1,77.999997619629,10|0,0:0|0:0,0:0:0:0:
427,27,45224,6,0,P|401:71|438:173,1,155.999995239258,2|8,1:2|0:0,0:0:0:0:
293,313,45657,2,0,B|338:278|338:278|322:164,1,155.999995239258,2|0,1:2|1:0,0:0:0:0:
177,83,46090,1,8,0:0:0:0:
234,242,46234,1,8,0:0:0:0:
339,82,46378,6,0,B|245:78|294:126|176:114,1,155.999995239258,6|8,1:2|0:0,0:0:0:0:
142,25,46811,1,2,1:2:0:0:
61,131,46955,2,0,P|91:182|75:275,1,155.999995239258,2|8,0:0|0:0,0:0:0:0:
27,368,47388,1,2,0:0:0:0:
195,358,47532,6,0,L|118:345,1,77.999997619629,2|0,1:2|0:0,0:0:0:0:
24,194,47821,1,8,0:0:0:0:
173,262,47965,2,0,P|201:223|317:236,1,155.999995239258,2|2,1:2|1:2,0:0:0:0:
262,369,48398,2,0,L|251:280,1,77.999997619629,10|0,0:0|0:0,0:0:0:0:
231,113,48686,6,0,P|259:152|375:139,1,155.999995239258,2|8,1:2|0:2,0:0:0:0:
321,3,49119,2,0,L|310:92,1,77.999997619629,2|0,1:2|0:0,0:0:0:0:
445,170,49407,2,0,L|434:81,1,77.999997619629,2|8,1:2|0:0,0:0:0:0:
317,237,49696,1,2,0:0:0:0:
378,308,49840,6,0,L|356:130,1,155.999995239258,2|8,1:2|0:2,0:0:0:0:
285,259,50273,2,0,P|247:221|147:222,1,155.999995239258,2|2,1:2|1:2,0:0:0:0:
211,375,50705,2,0,L|200:286,1,77.999997619629,10|0,0:2|0:0,0:0:0:0:
151,134,50994,6,0,B|50:129|106:178|-12:166,1,155.999995239258,4|8,1:2|0:0,0:0:0:0:
29,78,51426,1,0,1:0:0:0:
122,295,51571,2,0,L|133:206,1,77.999997619629,2|0,0:0|1:0,0:0:0:0:
97,21,51859,2,0,P|137:45|193:35,1,77.999997619629,10|0,0:0|0:0,0:0:0:0:
249,246,52148,6,0,B|221:210|221:210|238:89,1,155.999995239258,2|8,1:2|0:0,0:0:0:0:
321,57,52580,1,0,1:0:0:0:
392,195,52724,2,0,L|303:184,1,77.999997619629,2|0,0:0|1:0,0:0:0:0:
215,90,53013,2,0,L|126:101,1,77.999997619629,10|2,0:0|0:0,0:0:0:0:
116,124,53229,1,2,0:0:0:0:
116,124,53301,6,0,L|27:113,1,77.999997619629,2|0,1:2|0:0,0:0:0:0:
165,8,53590,1,8,0:0:0:0:
121,221,53734,1,8,0:0:0:0:
121,221,53806,1,8,0:0:0:0:
121,221,53878,1,8,0:0:0:0:
297,113,54023,1,4,1:2:0:0:
278,147,54311,6,0,P|236:99|130:118,1,155.999995239258,6|0,1:2|1:0,0:0:0:0:
302,13,54744,1,10,0:0:0:0:
366,128,54888,2,0,P|369:64|464:14,1,155.999995239258,6|0,1:2|1:0,0:0:0:0:
286,34,55321,1,8,0:0:0:0:
391,143,55465,6,0,L|374:308,1,155.999995239258,6|2,1:2|1:2,0:0:0:0:
191,359,55898,2,0,L|182:276,1,77.999997619629,8|0,0:0|1:0,0:0:0:0:
300,147,56186,1,10,0:0:0:0:
284,293,56330,1,2,1:2:0:0:
301,116,56474,1,8,0:0:0:0:
172,249,56619,6,0,B|71:253|113:201|11:219,1,155.999995239258,6|0,1:2|1:0,0:0:0:0:
168,83,57051,2,0,L|159:165,1,77.999997619629,8|0,0:0|1:0,0:0:0:0:
142,357,57340,1,8,0:0:0:0:
50,246,57484,1,0,1:0:0:0:
251,184,57628,1,8,0:0:0:0:
169,337,57773,6,0,P|207:296|305:305,1,155.999995239258,6|2,1:2|1:2,0:0:0:0:
280,114,58205,2,0,P|254:153|254:205,1,77.999997619629,10|0,0:0|1:0,0:0:0:0:
386,326,58494,1,10,0:0:0:0:
335,183,58638,1,2,1:2:0:0:
296,352,58782,1,8,0:0:0:0:
421,245,58926,6,0,L|405:83,1,155.999995239258,6|0,1:2|1:0,0:0:0:0:
243,170,59359,2,0,L|327:181,1,77.999997619629,8|0,0:0|1:0,0:0:0:0:
500,131,59648,1,8,0:0:0:0:
319,84,59792,1,0,1:0:0:0:
460,5,59936,1,8,0:0:0:0:
413,158,60080,6,0,P|403:202|456:300,1,155.999995239258,6|2,1:2|1:2,0:0:0:0:
316,368,60513,2,0,L|326:290,1,77.999997619629,10|0,0:0|1:0,0:0:0:0:
226,150,60801,1,10,0:0:0:0:
235,319,60946,2,0,L|245:241,1,77.999997619629,2|8,1:2|0:0,0:0:0:0:
175,75,61234,6,0,B|74:71|116:123|14:105,1,155.999995239258,6|0,1:2|1:0,0:0:0:0:
165,237,61667,2,0,L|154:159,1,77.999997619629,8|0,0:0|1:0,0:0:0:0:
35,24,61955,1,8,0:0:0:0:
49,195,62099,1,8,0:0:0:0:
225,25,62244,1,8,0:0:0:0:
192,233,62388,6,0,P|230:209|332:238,1,155.999995239258,6|0,1:2|1:0,0:0:0:0:
246,370,62821,2,0,L|257:292,1,77.999997619629,12|0,0:0|1:0,0:0:0:0:
151,139,63109,2,0,L|162:217,1,77.999997619629,12|0,0:0|1:0,0:0:0:0:
307,130,63398,2,0,L|318:52,1,77.999997619629,12|0,0:0|1:0,0:0:0:0:
128,144,63686,5,12,0:0:0:0:
266,217,63830,1,0,1:0:0:0:
222,91,63974,5,12,0:0:0:0:
157,250,64119,1,0,1:0:0:0:
120,34,64263,5,12,0:0:0:0:
307,130,64407,1,0,1:0:0:0:
243,0,64551,1,12,0:0:0:0:
128,144,64696,6,0,L|142:302,1,155.999995239258,6|0,1:2|1:0,0:0:0:0:
287,221,65128,2,0,P|251:198|207:200,1,77.999997619629,10|0,0:0|0:0,0:0:0:0:
275,306,65417,2,0,P|313:303|345:282,1,77.999997619629,2|0,1:2|1:0,0:0:0:0:
353,165,65705,1,8,0:0:0:0:
457,288,65849,6,0,B|420:243|420:243|443:136,1,155.999995239258,2|2,1:2|1:2,0:0:0:0:
330,56,66282,2,0,L|348:145,1,77.999997619629,10|0,0:0|0:0,0:0:0:0:
243,249,66571,2,0,L|265:153,1,77.999997619629,2|0,1:2|1:0,0:0:0:0:
160,44,66859,2,0,L|178:133,1,77.999997619629,10|0,0:0|0:0,0:0:0:0:
116,258,67148,5,6,1:2:0:0:
367,176,67724,5,6,1:2:0:0:
261,292,68301,5,6,1:2:0:0:
283,203,68445,1,8,0:0:0:0:
196,230,68590,1,8,0:0:0:0:
359,372,69455,6,0,L|346:242,1,110.50000210762,4|8,1:2|0:2,0:0:0:0:
283,203,69888,1,0,3:0:0:0:
215,262,70032,2,0,P|189:275|155:278,1,55.2500010538101,2|0,0:2|3:0,0:0:0:0:
123,152,70321,2,0,P|148:169|167:196,1,55.2500010538101,10|0,0:2|0:0,0:0:0:0:
96,332,70609,6,0,B|71:299|71:299|86:219,1,110.50000210762,0|8,3:2|0:2,0:0:0:0:
28,160,71042,1,0,3:0:0:0:
75,83,71186,2,0,L|0:70,1,55.2500010538101,2|0,0:0|3:0,0:0:0:0:
142,19,71474,2,0,L|196:9,1,55.2500010538101,10|0,0:2|3:0,0:0:0:0:
262,168,71763,6,0,P|247:130|271:63,1,110.50000210762,0|8,1:0|0:0,0:0:0:0:
349,26,72196,1,0,3:0:0:0:
391,132,72340,2,0,L|325:123,1,55.2500010538101,2|2,0:0|0:0,0:0:0:0:
160,103,72628,2,0,L|169:169,1,55.2500010538101,10|0,0:2|3:0,0:0:0:0:
293,253,72917,6,0,L|275:385,1,110.50000210762,0|8,3:2|0:2,0:0:0:0:
213,229,73349,1,0,3:0:0:0:
351,187,73494,2,0,B|415:184|388:213|467:210,1,110.50000210762,2|10,0:0|0:2,0:0:0:0:
242,51,74071,6,0,P|262:96|267:167,1,110.50000210762,0|8,1:0|0:0,0:0:0:0:
213,229,74503,1,0,3:0:0:0:
105,168,74648,2,0,L|172:160,1,55.2500010538101,2|0,0:0|3:0,0:0:0:0:
294,271,74936,2,0,L|227:263,1,55.2500010538101,10|0,0:0|3:0,0:0:0:0:
119,372,75224,6,0,P|142:341|140:265,1,110.50000210762,0|8,1:0|0:0,0:0:0:0:
78,193,75657,1,0,3:0:0:0:
9,301,75801,2,0,L|63:308,1,55.2500010538101,2|0,0:0|3:0,0:0:0:0:
164,246,76090,2,0,L|218:239,1,55.2500010538101,10|0,0:0|3:0,0:0:0:0:
306,352,76378,6,0,L|360:359,2,55.2500010538101,0|0|10,1:0|3:0|0:2,0:0:0:0:
241,278,76811,1,0,3:0:0:0:
358,181,76955,2,0,L|285:191,1,55.2500010538101,0|0,1:0|3:0,0:0:0:0:
218,238,77244,2,0,L|145:228,1,55.2500010538101,10|0,0:2|3:0,0:0:0:0:
59,84,77532,5,12,0:0:0:0:
216,18,77821,2,0,L|211:61,3,38.9999988098145,0|0|0|0,3:0|3:0|3:0|3:0,0:0:0:0:
276,115,78109,2,0,L|281:158,3,38.9999988098145,0|0|0|0,3:0|3:0|3:0|3:0,0:0:0:0:
347,65,78398,2,0,L|352:22,3,38.9999988098145,0|0|0|0,3:0|3:0|3:0|3:0,0:0:0:0:
409,128,78686,6,0,L|395:285,1,155.999995239258,6|8,1:2|0:0,0:0:0:0:
324,347,79119,1,2,0:0:0:0:
238,183,79263,2,0,L|345:200,1,77.999997619629,8|0,0:0|1:0,0:0:0:0:
236,339,79551,1,8,0:0:0:0:
142,197,79696,6,0,P|163:240|127:342,1,155.999995239258,6|0,1:2|1:0,0:0:0:0:
3,252,80128,2,0,L|110:269,1,77.999997619629,8|0,0:0|1:0,0:0:0:0:
250,212,80417,1,8,0:0:0:0:
223,352,80561,1,0,1:0:0:0:
157,183,80705,1,8,0:0:0:0:
296,299,80849,1,8,0:0:0:0:
243,111,80994,6,0,P|286:134|326:136,1,77.999997619629,6|0,1:2|0:0,0:0:0:0:
433,29,81282,2,0,P|410:72|409:112,1,77.999997619629,8|0,0:0|1:0,0:0:0:0:
438,262,81571,1,10,0:0:0:0:
502,94,81715,1,2,1:2:0:0:
375,196,81859,1,10,0:0:0:0:
483,341,82003,6,0,B|445:308|445:308|339:322,1,155.999995239258,6|0,1:2|1:0,0:0:0:0:
280,180,82436,2,0,L|267:279,1,77.999997619629,8|2,0:0|1:2,0:0:0:0:
216,369,82724,1,8,0:0:0:0:
180,200,82869,1,2,1:2:0:0:
371,318,83013,2,0,L|358:219,1,77.999997619629,14|0,0:0|0:0,0:0:0:0:
280,78,83301,6,0,P|301:18|292:-13,2,77.999997619629,12|0|0,0:0|1:0|1:0,0:0:0:0:
167,224,83734,2,0,P|104:235|82:259,2,77.999997619629,12|0|0,0:0|1:0|1:0,0:0:0:0:
338,276,84167,2,0,P|379:324|410:331,2,77.999997619629,12|0|0,0:0|1:0|1:0,0:0:0:0:
185,95,84599,5,12,0:0:0:0:
360,87,84744,1,0,1:0:0:0:
252,248,84888,1,0,1:0:0:0:
274,64,85032,5,12,0:0:0:0:
359,203,85176,1,0,1:0:0:0:
175,206,85321,1,0,1:0:0:0:
368,95,85465,5,12,0:0:0:0:
368,95,85537,1,8,0:3:0:0:
368,95,85609,2,0,L|414:103,3,38.9999988098145,8|8|0|0,0:3|0:3|1:0|1:0,0:0:0:0:
287,154,85898,5,8,0:3:0:0:
287,154,85970,1,8,0:3:0:0:
287,154,86042,2,0,L|241:162,3,38.9999988098145,4|4|0|0,0:3|0:3|1:0|1:0,0:0:0:0:
353,214,86330,6,0,L|397:204,1,38.9999988098145,8|8,0:0|0:3,0:0:0:0:
461,167,86474,2,0,L|505:177,2,38.9999988098145,4|4|0,0:3|0:3|1:0,0:0:0:0:
329,303,86763,5,8,0:0:0:0:
329,303,86835,1,8,0:0:0:0:
329,303,86907,2,0,L|290:294,1,38.9999988098145,8|8,0:0|0:0,0:0:0:0:
232,242,87051,6,0,L|186:250,3,38.9999988098145,8|8|8|8,0:0|0:0|0:0|0:0,0:0:0:0:
145,314,87340,2,0,L|99:306,3,38.9999988098145,8|8|8|8,0:0|0:0|0:0|0:0,0:0:0:0:
52,244,87628,2,0,L|6:252,3,38.9999988098145,8|8|8|8,0:0|0:0|0:0|0:0,0:0:0:0:
