osu file format v14

[General]
AudioFilename: audio.mp3
AudioLeadIn: 0
PreviewTime: 37070
Countdown: 0
SampleSet: Soft
StackLeniency: 0.7
Mode: 0
LetterboxInBreaks: 0
WidescreenStoryboard: 1

[Editor]
DistanceSpacing: 1.3
BeatDivisor: 4
GridSize: 4
TimelineZoom: 1

[Metadata]
Title:Utsuroi (Short Ver.)
TitleUnicode:うつろい (Short Ver.)
Artist:TrySail
ArtistUnicode:TrySail
Creator:Log Off Now
Version:Hard
Source:マギアレコード 魔法少女まどか☆マギカ外伝
Tags:japanese video game version magia record puella magi madoka magica side story gaiden opening 2 op magireco マギレコ magical girl 麻倉もも Asakura Momo 雨宮天 Amamiya Sora 夏川椎菜 Natsukawa Shiina anime rock jrock j-rock pop jpop j-pop browiec nexusqi nexus mnyui kowari
BeatmapID:2411245
BeatmapSetID:1155295

[Difficulty]
HPDrainRate:4.5
CircleSize:3.5
OverallDifficulty:6.5
ApproachRate:8
SliderMultiplier:1.2
SliderTickRate:1

[Events]
//Background and Video events
0,0,"trysailutsuroi.jpg",0,0
//Break Periods
//Storyboard Layer 0 (Background)
//Storyboard Layer 1 (Fail)
//Storyboard Layer 2 (Pass)
//Storyboard Layer 3 (Foreground)
//Storyboard Layer 4 (Overlay)
//Storyboard Sound Samples

[TimingPoints]
225,288.461538461538,4,2,1,35,1,0
225,-125,4,2,1,35,0,0
8734,-125,4,2,1,35,0,0
9455,-100,4,2,1,45,0,0
20849,-100,4,2,2,45,0,0
20994,-100,4,2,1,45,0,0
22941,-100,4,2,2,45,0,0
23013,-100,4,2,1,45,0,0
23157,-100,4,2,2,45,0,0
23301,-100,4,2,1,45,0,0
25465,-100,4,2,2,45,0,0
25609,-100,4,2,1,45,0,0
25753,-100,4,2,2,45,0,0
25898,-100,4,2,1,45,0,0
27773,-100,4,2,2,45,0,0
27917,-100,4,2,1,55,0,0
34840,-100,4,2,1,65,0,0
36138,-100,4,2,1,55,0,0
36282,-100,4,2,1,60,0,0
36426,-100,4,2,1,65,0,0
36571,-100,4,2,1,70,0,0
37003,-100,4,2,1,10,0,0
37148,-83.3333333333333,4,2,1,75,0,1
67148,-100,4,2,1,75,0,0
69455,-100,4,2,1,55,0,0
77532,-90.9090909090909,4,2,1,65,0,0
78109,-90.9090909090909,4,2,1,70,0,0
78686,-83.3333333333333,4,2,1,75,0,1
86763,-83.3333333333333,4,2,1,65,0,1
87340,-83.3333333333333,4,2,1,70,0,1
87917,-83.3333333333333,4,2,1,75,0,0

[Colours]
Combo1 : 251,211,94
Combo2 : 162,148,226
Combo3 : 0,66,147
Combo4 : 157,40,28

[HitObjects]
121,105,225,6,0,B|198:96|171:149|266:138,1,144,0|0,3:0|0:0,0:0:0:0:
322,92,801,2,0,L|315:44,2,48,2|2|2,0:0|0:0|0:0,0:0:0:0:
454,187,1378,2,0,L|435:339,1,144,0|0,3:0|0:0,0:0:0:0:
361,364,1955,2,0,P|325:337|268:337,1,96,2|2,0:0|0:0,0:0:0:0:
150,229,2532,6,0,B|183:195|183:195|171:88,1,144,0|0,3:0|0:0,0:0:0:0:
235,46,3109,1,2,0:0:0:0:
235,46,3253,1,2,0:0:0:0:
298,97,3398,1,2,0:0:0:0:
249,252,3686,2,0,B|326:243|299:296|394:285,1,144,0|0,3:0|0:0,0:0:0:0:
441,227,4263,2,0,P|427:179|444:129,1,96,2|2,0:0|0:0,0:0:0:0:
319,24,4840,6,0,P|279:61|186:62,1,144,2|0,3:3|0:0,0:0:0:0:
116,96,5417,2,0,L|106:32,2,48,2|2|2,0:0|0:0|0:0,0:0:0:0:
263,165,5994,2,0,L|240:317,1,144,0|2,3:0|3:3,0:0:0:0:
174,355,6571,2,0,P|126:336|67:354,1,96,2|2,0:3|3:3,0:0:0:0:
21,192,7148,6,0,B|59:225|59:225|159:214,2,144,2|2|2,3:3|3:3|3:3,0:0:0:0:
114,58,8301,2,0,L|104:121,1,48,2|2,0:0|0:0,0:0:0:0:
181,137,8590,1,2,0:0:0:0:
252,97,8734,1,2,0:0:0:0:
435,207,9455,6,0,L|422:339,2,120,4|8|0,1:2|0:0|3:0,0:0:0:0:
378,144,10176,1,0,3:0:0:0:
306,188,10321,2,0,P|267:174|239:174,1,60,8|0,0:0|3:0,0:0:0:0:
188,231,10609,6,0,L|121:221,2,60,0|0|8,3:0|3:0|0:0,0:0:0:0:
244,294,11042,1,0,3:0:0:0:
194,362,11186,2,0,P|166:339|76:337,1,120,0|8,3:0|0:0,0:0:0:0:
25,273,11619,1,0,1:0:0:0:
25,273,11763,6,0,P|47:225|40:145,1,120,0|8,1:0|0:0,0:0:0:0:
14,80,12196,1,0,3:0:0:0:
81,29,12340,2,0,L|164:39,1,60,0|0,3:0|3:0,0:0:0:0:
191,102,12628,1,8,0:0:0:0:
337,18,12917,6,0,L|348:80,1,60,0|0,3:0|3:0,0:0:0:0:
396,148,13205,2,0,L|385:210,1,60,8|0,0:0|3:0,0:0:0:0:
327,268,13494,2,0,B|360:294|360:294|450:281,1,120,0|8,3:0|0:0,0:0:0:0:
495,222,13926,1,0,1:0:0:0:
495,222,14071,6,0,P|475:182|484:97,2,120,0|8|0,1:0|0:0|3:0,0:0:0:0:
460,299,14792,1,0,3:0:0:0:
386,258,14936,2,0,P|347:250|327:251,1,60,8|0,0:0|3:0,0:0:0:0:
261,302,15224,6,0,P|271:338|274:367,2,60,0|0|8,3:0|3:0|0:0,0:0:0:0:
197,246,15657,1,0,3:0:0:0:
249,180,15801,2,0,B|271:147|271:147|261:45,1,120,0|8,3:0|0:0,0:0:0:0:
197,13,16234,1,0,1:0:0:0:
197,13,16378,6,0,P|147:41|132:43,1,60,0|0,1:0|3:0,0:0:0:0:
62,22,16667,2,0,L|72:87,1,60,8|0,0:0|3:0,0:0:0:0:
139,129,16955,2,0,L|129:194,1,60,0|0,3:0|3:0,0:0:0:0:
63,240,17244,1,8,0:0:0:0:
211,317,17532,6,0,L|221:382,2,60,0|0|8,3:0|3:0|0:0,0:0:0:0:
275,262,17965,2,0,P|323:285|341:285,1,60,0|0,3:0|3:0,0:0:0:0:
394,232,18253,1,8,0:3:0:0:
337,169,18398,2,0,L|346:99,1,60,8|4,0:0|0:3,0:0:0:0:
393,41,18686,6,0,B|457:37|432:68|509:62,2,120,6|0|2,1:2|1:0|1:2,0:0:0:0:
317,2,19407,2,0,P|289:23|199:37,1,120,2|2,0:0|0:0,0:0:0:0:
127,10,19840,2,0,B|153:42|153:42|139:133,1,120,0|0,1:2|1:0,0:0:0:0:
30,246,20417,6,0,L|20:177,1,60,2|2,1:2|0:0,0:0:0:0:
8,103,20705,1,2,1:2:0:0:
129,219,20994,2,0,P|170:197|248:199,1,120,0|0,1:0|1:0,0:0:0:0:
379,294,21571,2,0,L|369:225,1,60,2|2,1:2|0:0,0:0:0:0:
357,151,21859,1,2,1:2:0:0:
459,17,22148,2,0,P|427:49|336:43,1,120,2|0,1:2|1:0,0:0:0:0:
284,9,22580,1,2,0:0:0:0:
218,61,22724,2,0,L|228:132,1,60,2|0,1:2|0:0,0:0:0:0:
290,174,23013,2,0,L|280:245,1,60,2|2,1:2|0:3,0:0:0:0:
230,299,23301,6,0,P|191:266|122:268,2,120,2|0|2,1:2|1:0|1:2,0:0:0:0:
293,355,24023,2,0,P|354:337|365:339,1,60,2|0,0:0|1:0,0:0:0:0:
404,274,24311,1,2,0:0:0:0:
404,274,24455,2,0,P|378:233|388:162,1,120,0|0,1:2|1:0,0:0:0:0:
484,28,25032,6,0,L|415:38,1,60,2|2,1:2|0:0,0:0:0:0:
356,85,25321,2,0,L|287:75,1,60,2|2,1:2|0:3,0:0:0:0:
231,21,25609,2,0,L|162:31,2,60,0|2|0,1:0|0:3|1:0,0:0:0:0:
94,120,26186,6,0,L|25:110,2,60,2|2|2,1:2|0:0|1:2,0:0:0:0:
236,212,26763,2,0,L|350:195,2,90,0|2|2,1:0|0:0|0:0,0:0:0:0:
180,275,27340,2,0,P|130:253|112:251,1,60,2|0,1:2|0:0,0:0:0:0:
42,263,27628,2,0,P|51:222|51:196,1,60,2|2,1:2|0:3,0:0:0:0:
1,136,27917,6,0,B|58:115|58:115|134:143,1,120,6|8,1:2|0:0,0:0:0:0:
187,175,28349,1,4,0:3:0:0:
187,175,28494,2,0,P|226:157|257:153,1,60,2|4,0:0|0:3,0:0:0:0:
320,187,28782,1,0,1:0:0:0:
473,117,29071,6,0,L|460:245,1,120,0|8,1:0|0:0,0:0:0:0:
449,319,29503,1,2,0:0:0:0:
375,276,29648,2,0,P|345:293|308:296,1,60,2|0,1:2|0:0,0:0:0:0:
248,253,29936,1,2,1:2:0:0:
99,331,30224,6,0,P|104:269|86:199,1,120,4|8,1:2|0:0,0:0:0:0:
29,155,30657,1,8,0:3:0:0:
81,89,30801,2,0,L|164:100,1,60,2|4,0:0|0:3,0:0:0:0:
182,170,31090,2,0,L|265:159,1,60,2|0,1:2|3:0,0:0:0:0:
314,121,31378,6,0,P|295:67|297:19,2,90,2|2|2,1:2|0:0|0:0,0:0:0:0:
379,176,31955,2,0,L|462:165,1,60,2|0,1:2|0:0,0:0:0:0:
500,110,32244,2,0,P|481:73|481:40,1,60,2|0,1:2|0:0,0:0:0:0:
404,16,32532,6,0,B|375:43|375:43|281:34,1,120,6|8,1:2|0:0,0:0:0:0:
225,80,32965,1,4,0:3:0:0:
225,80,33109,2,0,P|198:94|170:102,1,60,2|4,0:0|0:3,0:0:0:0:
97,58,33398,1,0,1:0:0:0:
147,217,33686,6,0,P|204:186|264:196,2,120,2|8|2,1:2|0:0|1:2,0:0:0:0:
55,357,34551,1,2,1:2:0:0:
21,208,34840,6,0,B|50:178|50:178|39:90,1,120,12|0,0:0|1:0,0:0:0:0:
105,46,35273,2,0,B|167:42|143:72|226:63,1,120,12|2,0:0|0:0,0:0:0:0:
285,9,35705,1,8,0:0:0:0:
352,58,35849,2,0,L|339:178,1,120,4|8,1:2|0:0,0:0:0:0:
274,232,36282,1,8,0:0:0:0:
274,232,36426,1,8,0:0:0:0:
201,189,36571,1,10,0:0:0:0:
142,360,37148,6,0,P|194:334|289:370,1,143.999995605469,6|8,1:2|0:0,0:0:0:0:
350,301,37580,1,2,1:2:0:0:
278,241,37724,2,0,L|288:161,1,71.9999978027344,2|2,0:0|1:2,0:0:0:0:
367,120,38013,2,0,L|357:40,1,71.9999978027344,8|2,0:0|0:0,0:0:0:0:
270,15,38301,6,0,B|182:17|224:49|123:51,1,143.999995605469,2|10,1:2|0:0,0:0:0:0:
48,8,38734,2,0,P|83:43|74:148,1,143.999995605469,2|2,1:2|1:2,0:0:0:0:
16,199,39167,2,0,L|27:274,1,71.9999978027344,10|0,0:0|0:0,0:0:0:0:
93,335,39455,6,0,P|128:298|222:296,1,143.999995605469,2|8,1:2|0:0,0:0:0:0:
292,237,39888,2,0,L|281:155,1,71.9999978027344,2|0,1:2|0:0,0:0:0:0:
227,89,40176,2,0,P|284:124|365:85,1,143.999995605469,2|2,1:2|0:0,0:0:0:0:
414,29,40609,6,0,B|449:73|449:73|437:173,1,143.999995605469,2|8,1:2|0:0,0:0:0:0:
359,211,41042,2,0,L|367:294,1,71.9999978027344,2|0,1:2|0:0,0:0:0:0:
310,357,41330,1,2,1:2:0:0:
228,311,41474,2,0,P|180:292|144:292,1,71.9999978027344,10|0,0:0|0:0,0:0:0:0:
86,349,41763,6,0,B|121:305|121:305|109:205,1,143.999995605469,2|8,1:2|0:0,0:0:0:0:
40,154,42196,1,2,1:2:0:0:
102,84,42340,2,0,L|190:99,1,71.9999978027344,2|0,0:0|1:0,0:0:0:0:
229,170,42628,2,0,L|317:155,1,71.9999978027344,10|0,0:0|0:0,0:0:0:0:
370,220,42917,6,0,P|346:171|386:89,1,143.999995605469,2|8,1:2|0:0,0:0:0:0:
317,38,43349,1,2,1:2:0:0:
317,38,43422,1,2,0:0:0:0:
317,38,43494,2,0,L|246:50,1,71.9999978027344,2|0,0:0|1:0,0:0:0:0:
172,96,43782,2,0,L|101:83,1,71.9999978027344,10|0,0:0|0:0,0:0:0:0:
23,29,44071,6,0,P|51:66|39:170,1,143.999995605469,2|8,1:2|0:0,0:0:0:0:
8,245,44503,1,2,1:2:0:0:
67,317,44648,2,0,P|107:302|154:298,1,71.9999978027344,2|0,0:0|1:0,0:0:0:0:
199,229,44936,2,0,P|239:244|286:248,1,71.9999978027344,10|0,0:0|0:0,0:0:0:0:
331,316,45224,6,0,B|365:282|365:282|347:183,1,143.999995605469,2|8,1:2|0:0,0:0:0:0:
276,126,45657,2,0,L|286:52,2,71.9999978027344,2|0|0,1:2|0:0|1:0,0:0:0:0:
200,181,46090,1,8,0:0:0:0:
121,129,46234,1,8,0:0:0:0:
45,183,46378,6,0,P|68:222|56:322,1,143.999995605469,6|8,1:2|0:0,0:0:0:0:
133,374,46811,1,2,1:2:0:0:
205,314,46955,2,0,B|293:316|251:348|352:350,1,143.999995605469,2|8,0:0|0:0,0:0:0:0:
411,285,47388,1,2,0:0:0:0:
343,220,47532,6,0,L|351:149,1,71.9999978027344,2|0,1:2|0:0,0:0:0:0:
276,90,47821,1,8,0:0:0:0:
340,22,47965,2,0,P|384:37|428:38,1,71.9999978027344,2|0,1:2|0:0,0:0:0:0:
498,13,48253,1,2,1:2:0:0:
477,104,48398,2,0,L|485:175,1,71.9999978027344,10|0,0:0|0:0,0:0:0:0:
425,247,48686,6,0,P|392:210|293:205,1,143.999995605469,2|8,1:2|0:2,0:0:0:0:
233,136,49119,2,0,L|252:283,2,143.999995605469,2|2|2,1:2|1:2|0:0,0:0:0:0:
237,42,49840,6,0,B|149:44|191:76|90:78,1,143.999995605469,2|8,1:2|0:2,0:0:0:0:
16,121,50273,2,0,P|47:165|32:255,1,143.999995605469,2|2,1:2|1:2,0:0:0:0:
95,322,50705,2,0,L|171:308,1,71.9999978027344,10|0,0:2|0:0,0:0:0:0:
212,227,50994,6,0,L|288:241,1,71.9999978027344,4|0,1:2|0:0,0:0:0:0:
348,306,51282,1,8,0:0:0:0:
348,306,51426,1,0,1:0:0:0:
417,242,51571,2,0,P|401:203|403:159,1,71.9999978027344,2|0,0:0|1:0,0:0:0:0:
463,104,51859,2,0,P|401:79|367:85,1,71.9999978027344,10|0,0:0|0:0,0:0:0:0:
318,130,52148,6,0,P|278:150|165:153,1,143.999995605469,2|8,1:2|0:0,0:0:0:0:
111,93,52580,1,0,1:0:0:0:
41,155,52724,2,0,L|52:236,1,71.9999978027344,2|0,0:0|1:0,0:0:0:0:
19,315,53013,1,10,0:0:0:0:
93,371,53157,1,2,0:0:0:0:
93,371,53229,1,2,0:0:0:0:
93,371,53301,6,0,P|153:338|236:351,1,143.999995605469,2|8,1:2|0:0,0:0:0:0:
299,287,53734,2,0,L|341:293,2,35.9999989013672,8|8|8,0:0|0:0|0:0,0:0:0:0:
240,213,54023,1,4,1:2:0:0:
63,274,54311,6,0,L|85:120,1,143.999995605469,6|0,1:2|1:0,0:0:0:0:
27,56,54744,1,10,0:0:0:0:
108,10,54888,2,0,B|196:12|154:44|255:46,1,143.999995605469,6|0,1:2|1:0,0:0:0:0:
308,115,55321,1,8,0:0:0:0:
378,53,55465,6,0,B|355:85|355:85|369:195,1,143.999995605469,6|2,1:2|1:2,0:0:0:0:
304,257,55898,2,0,P|245:234|227:233,1,71.9999978027344,8|0,0:0|1:0,0:0:0:0:
169,168,56186,1,10,0:0:0:0:
169,168,56330,2,0,P|110:191|92:192,1,71.9999978027344,2|8,1:2|0:0,0:0:0:0:
31,129,56619,6,0,B|54:161|54:161|40:271,1,143.999995605469,6|0,1:2|1:0,0:0:0:0:
101,335,57051,2,0,P|161:309|175:308,1,71.9999978027344,8|0,0:0|1:0,0:0:0:0:
243,253,57340,1,8,0:0:0:0:
243,253,57484,1,0,1:0:0:0:
189,176,57628,1,8,0:0:0:0:
238,96,57773,6,0,B|324:87|284:130|386:125,1,143.999995605469,6|2,1:2|1:2,0:0:0:0:
464,96,58205,2,0,L|456:176,1,71.9999978027344,10|0,0:0|1:0,0:0:0:0:
390,233,58494,1,10,0:0:0:0:
390,233,58638,2,0,L|398:313,1,71.9999978027344,2|8,1:2|0:0,0:0:0:0:
462,371,58926,6,0,P|401:342|320:367,1,143.999995605469,6|0,1:2|1:0,0:0:0:0:
253,304,59359,2,0,L|261:224,1,71.9999978027344,8|0,0:0|1:0,0:0:0:0:
195,163,59648,1,8,0:0:0:0:
195,163,59792,1,0,1:0:0:0:
119,218,59936,1,8,0:0:0:0:
37,171,60080,6,0,P|56:132|22:29,1,143.999995605469,6|2,1:2|1:2,0:0:0:0:
123,15,60513,2,0,L|208:28,1,71.9999978027344,10|0,0:0|1:0,0:0:0:0:
257,94,60801,1,10,0:0:0:0:
257,94,60946,2,0,L|342:81,1,71.9999978027344,2|8,1:2|0:0,0:0:0:0:
401,25,61234,6,0,B|424:57|424:57|410:167,1,143.999995605469,6|0,1:2|1:0,0:0:0:0:
328,206,61667,2,0,L|339:293,1,71.9999978027344,8|0,0:0|1:0,0:0:0:0:
404,342,61955,1,8,0:0:0:0:
404,342,62099,1,8,0:0:0:0:
477,282,62244,1,8,0:0:0:0:
429,201,62388,6,0,P|427:154|508:107,1,143.999995605469,6|0,1:2|1:0,0:0:0:0:
455,24,62821,2,0,L|375:35,1,71.9999978027344,12|0,0:0|1:0,0:0:0:0:
333,112,63109,2,0,L|253:101,1,71.9999978027344,12|0,0:0|1:0,0:0:0:0:
201,30,63398,2,0,L|121:41,1,71.9999978027344,12|0,0:0|1:0,0:0:0:0:
72,113,63686,5,12,0:0:0:0:
72,113,63830,1,0,1:0:0:0:
129,186,63974,2,0,P|144:241|140:273,1,71.9999978027344,12|0,0:0|1:0,0:0:0:0:
85,329,64263,2,0,P|136:348|169:343,1,71.9999978027344,12|0,0:0|1:0,0:0:0:0:
230,295,64551,1,12,0:0:0:0:
292,365,64696,6,0,P|346:337|427:342,1,143.999995605469,6|0,1:2|1:0,0:0:0:0:
482,266,65128,2,0,L|470:175,1,71.9999978027344,10|0,0:0|0:0,0:0:0:0:
493,102,65417,2,0,B|404:96|441:140|345:131,1,143.999995605469,2|8,1:2|0:0,0:0:0:0:
284,71,65849,6,0,P|315:119|293:214,1,143.999995605469,2|2,1:2|1:2,0:0:0:0:
226,145,66282,2,0,P|173:130|150:131,1,71.9999978027344,10|0,0:0|0:0,0:0:0:0:
74,175,66571,2,0,L|66:102,1,71.9999978027344,2|0,1:2|1:0,0:0:0:0:
130,36,66859,1,10,0:0:0:0:
284,71,67148,5,6,1:2:0:0:
179,316,67724,5,6,1:2:0:0:
33,155,68301,5,6,1:2:0:0:
102,107,68446,1,8,0:0:0:0:
159,167,68590,1,8,0:0:0:0:
101,356,69455,6,0,L|88:224,2,120,4|8|2,1:2|0:2|0:2,0:0:0:0:
180,306,70176,1,0,3:0:0:0:
251,351,70321,2,0,P|290:337|318:337,1,60,10|0,0:2|0:0,0:0:0:0:
359,269,70609,2,0,L|426:279,2,60,0|0|8,3:2|3:0|0:2,0:0:0:0:
298,209,71042,1,0,3:0:0:0:
229,257,71186,2,0,P|201:234|111:232,1,120,2|10,0:0|0:2,0:0:0:0:
9,101,71763,6,0,P|32:129|34:219,2,120,0|8|2,1:0|0:0|0:0,0:0:0:0:
69,41,72484,1,2,0:0:0:0:
130,98,72628,2,0,L|207:89,1,60,10|0,0:2|3:0,0:0:0:0:
250,32,72917,1,0,3:2:0:0:
250,32,73061,1,0,3:0:0:0:
314,85,73205,2,0,L|391:76,1,60,8|0,0:2|3:0,0:0:0:0:
446,35,73494,2,0,P|423:69|435:163,1,120,2|10,0:0|0:2,0:0:0:0:
296,254,74071,6,0,P|336:233|421:242,2,120,0|8|2,1:0|0:0|0:0,0:0:0:0:
242,319,74792,1,0,3:0:0:0:
179,263,74936,2,0,L|188:188,1,60,10|0,0:0|3:0,0:0:0:0:
243,141,75224,2,0,L|234:66,2,60,0|0|8,1:0|0:0|0:0,0:0:0:0:
304,198,75657,1,0,3:0:0:0:
304,198,75801,2,0,P|342:166|426:158,1,120,2|10,0:0|0:0,0:0:0:0:
298,28,76378,6,0,L|213:42,1,60,0|0,1:0|3:0,0:0:0:0:
178,97,76667,2,0,L|188:162,1,60,10|0,0:2|3:0,0:0:0:0:
265,186,76955,2,0,L|255:251,1,60,0|0,1:0|3:0,0:0:0:0:
204,311,77244,2,0,L|119:297,1,60,10|0,0:2|3:0,0:0:0:0:
82,233,77532,1,12,0:0:0:0:
178,97,77821,6,0,L|222:103,3,33.0000010070801,0|0|0|0,3:0|3:0|3:0|3:0,0:0:0:0:
247,129,78109,2,0,L|291:123,3,33.0000010070801,0|0|0|0,3:0|3:0|3:0|3:0,0:0:0:0:
314,93,78398,2,0,L|358:99,3,33.0000010070801,0|0|0|0,3:0|3:0|3:0|3:0,0:0:0:0:
363,144,78686,6,0,L|507:125,1,143.999995605469,6|8,1:2|0:0,0:0:0:0:
472,213,79119,1,2,0:0:0:0:
499,302,79263,2,0,L|414:290,1,71.9999978027344,8|0,0:0|1:0,0:0:0:0:
361,358,79551,1,8,0:0:0:0:
305,282,79696,6,0,B|217:284|259:316|158:318,1,143.999995605469,6|0,1:2|1:0,0:0:0:0:
78,345,80128,2,0,L|91:263,1,71.9999978027344,8|0,0:0|1:0,0:0:0:0:
172,229,80417,2,0,L|159:147,1,71.9999978027344,8|0,0:0|1:0,0:0:0:0:
89,106,80705,1,8,0:0:0:0:
89,106,80849,1,8,0:0:0:0:
146,31,80994,6,0,P|189:74|284:61,1,143.999995605469,6|8,1:2|0:0,0:0:0:0:
343,17,81426,1,0,1:0:0:0:
416,76,81571,2,0,L|497:64,2,71.9999978027344,10|2|10,0:0|1:2|0:0,0:0:0:0:
362,152,82003,6,0,P|393:186|403:286,1,143.999995605469,6|0,1:2|1:0,0:0:0:0:
330,338,82436,2,0,L|245:326,1,71.9999978027344,8|2,0:0|1:2,0:0:0:0:
212,246,82724,2,0,L|127:258,1,71.9999978027344,8|2,0:0|1:2,0:0:0:0:
84,331,83013,1,14,0:0:0:0:
116,146,83301,6,0,L|44:135,2,71.9999978027344,12|0|0,0:0|1:0|1:0,0:0:0:0:
185,83,83734,2,0,L|158:16,2,71.9999978027344,12|0|0,0:0|1:0|1:0,0:0:0:0:
278,87,84167,2,0,L|322:30,2,71.9999978027344,12|0|0,0:0|1:0|1:0,0:0:0:0:
322,169,84599,2,0,L|393:179,2,71.9999978027344,12|0|0,0:0|1:0|1:0,0:0:0:0:
256,236,85032,5,12,0:0:0:0:
256,236,85176,1,0,1:0:0:0:
307,314,85321,1,0,1:0:0:0:
226,362,85465,6,0,P|194:354|170:349,4,35.9999989013672,12|8|8|8|0,0:0|0:3|0:3|0:3|1:0,0:0:0:0:
137,277,85898,2,0,P|119:281|101:285,4,35.9999989013672,8|8|4|4|0,0:3|0:3|0:3|0:3|1:0,0:0:0:0:
51,368,86330,5,8,0:0:0:0:
51,368,86402,1,8,0:3:0:0:
51,368,86474,2,0,P|27:366|3:362,2,35.9999989013672,4|4|0,0:3|0:3|1:0,0:0:0:0:
20,271,86763,6,0,L|27:228,3,35.9999989013672,8|8|8|8,0:0|0:0|0:0|0:0,0:0:0:0:
62,206,87051,2,0,L|55:163,3,35.9999989013672,8|8|8|8,0:0|0:0|0:0|0:0,0:0:0:0:
25,134,87340,2,0,L|32:91,3,35.9999989013672,8|8|8|8,0:0|0:0|0:0|0:0,0:0:0:0:
68,70,87628,2,0,L|61:27,3,35.9999989013672,8|8|8|8,0:0|0:0|0:0|0:0,0:0:0:0:
