osu file format v14

[General]
AudioFilename: audio.mp3
AudioLeadIn: 0
PreviewTime: -1
Countdown: 1
SampleSet: None
StackLeniency: 0.7
Mode: 0
LetterboxInBreaks: 0
WidescreenStoryboard: 1

[Editor]
DistanceSpacing: 1.2
BeatDivisor: 4
GridSize: 4
TimelineZoom: 1

[Metadata]
Title:Original. -TV Ver-
TitleUnicode:オリジナル。-TV Ver-
Artist:TrySail
ArtistUnicode:TrySail
Creator:karta3078067
Version:Insane
Source:
Tags:
BeatmapID:1259916
BeatmapSetID:595746

[Difficulty]
HPDrainRate:6
CircleSize:4
OverallDifficulty:6
ApproachRate:9
SliderMultiplier:2
SliderTickRate:2

[Events]
//Background and Video events
Video,0,"video.avi"
0,0,"未命名.png",0,0
//Break Periods
//Storyboard Layer 0 (Background)
//Storyboard Layer 1 (Fail)
//Storyboard Layer 2 (Pass)
//Storyboard Layer 3 (Foreground)
//Storyboard Sound Samples

[TimingPoints]
329,365.853658536585,4,2,0,100,1,0
365,-100,4,2,0,40,0,0
9109,-100,4,2,0,60,0,0
51548,-100,4,2,0,70,0,1
80450,-100,4,2,0,60,0,0

[HitObjects]
68,104,329,5,0,0:0:0:0:
36,220,511,1,0,0:0:0:0:
68,104,694,1,0,0:0:0:0:
68,104,877,5,0,0:0:0:0:
188,104,1060,1,0,0:0:0:0:
68,104,1243,1,0,0:0:0:0:
96,220,1426,6,0,P|92:272|104:324,1,100
252,336,1792,1,0,0:0:0:0:
412,336,1975,2,0,P|432:284|424:224,1,100
264,204,2341,1,0,0:0:0:0:
144,192,2524,5,0,0:0:0:0:
144,192,2707,1,0,0:0:0:0:
32,68,2889,2,0,P|36:128|28:184,1,100
32,288,3255,6,0,P|72:316|152:328,1,100
296,272,3621,2,0,L|172:264,1,100
40,192,3987,2,0,P|88:172|152:172,1,100
336,152,4353,2,0,L|232:152,1,100
44,272,4719,2,0,P|104:296|164:280,1,100
364,228,5085,2,0,L|264:228,1,100
144,224,5450,5,0,0:0:0:0:
60,140,5633,1,0,0:0:0:0:
184,48,5816,1,0,0:0:0:0:
304,64,5999,1,0,0:0:0:0:
456,112,6182,6,0,P|460:168|440:248,1,100
384,312,6548,1,0,0:0:0:0:
268,348,6731,1,0,0:0:0:0:
268,348,6914,1,0,0:0:0:0:
136,336,7097,1,0,0:0:0:0:
44,256,7280,6,0,P|32:196|40:132,1,100
156,164,7646,1,0,0:0:0:0:
376,48,7828,1,0,0:0:0:0:
376,48,8011,2,0,L|256:44,1,100
160,76,8377,2,0,L|96:92,6,50
100,180,9109,5,0,0:0:0:0:
284,336,9475,1,0,0:0:0:0:
448,160,9841,1,0,0:0:0:0:
344,40,10024,1,0,0:0:0:0:
264,160,10207,1,0,0:0:0:0:
448,160,10389,1,0,0:0:0:0:
360,240,10572,6,0,P|352:288|324:344,1,100
220,280,10938,2,0,P|232:308|184:364,1,100
116,272,11304,2,0,P|64:280|8:256,1,100
168,208,11670,2,0,P|224:224|276:188,1,100
472,188,12036,6,0,P|418:195|364:188,1,100
260,148,12402,1,0,0:0:0:0:
72,128,12585,2,0,P|112:112|180:112,1,100
284,80,12950,5,0,0:0:0:0:
364,168,13133,1,0,0:0:0:0:
228,184,13316,2,0,P|220:232|196:284,1,100
92,336,13682,5,0,0:0:0:0:
92,336,13865,1,0,0:0:0:0:
32,232,14048,1,0,0:0:0:0:
124,156,14231,5,0,0:0:0:0:
288,148,14414,1,0,0:0:0:0:
224,288,14597,1,0,0:0:0:0:
32,232,14780,1,0,0:0:0:0:
124,156,14963,6,0,P|164:132|224:120,1,100
332,88,15328,1,0,0:0:0:0:
332,88,15511,1,0,0:0:0:0:
472,172,15694,2,0,P|472:224|452:280,1,100
304,256,16060,1,0,0:0:0:0:
200,316,16243,6,0,L|64:292,1,100
248,240,16609,2,0,L|360:212,1,100
184,152,16975,2,0,L|88:124,1,100
296,88,17341,2,0,L|404:56,1,100
500,112,17707,1,0,0:0:0:0:
408,188,17889,2,0,P|416:236|380:288,1,100
276,316,18255,5,0,0:0:0:0:
104,268,18438,2,0,P|52:252|-8:248,1,100
276,316,18804,1,0,0:0:0:0:
276,316,18987,1,0,0:0:0:0:
392,284,19170,5,0,0:0:0:0:
444,84,19353,2,0,P|464:128|472:208,1,100
356,208,19719,1,0,0:0:0:0:
164,244,19902,1,0,0:0:0:0:
68,316,20085,1,0,0:0:0:0:
64,160,20268,2,0,P|68:108|88:48,1,100
256,60,20633,6,0,P|304:48|360:48,1,100
356,256,20999,2,0,P|376:204|368:132,1,100
224,160,21365,2,0,P|180:168|116:160,1,100
4,148,21731,1,0,0:0:0:0:
52,256,21914,6,0,L|84:356,1,100
232,336,22280,2,0,L|204:232,1,100
432,232,22646,2,0,P|376:216|332:216,2,100
364,332,23194,1,0,0:0:0:0:
164,304,23377,1,0,0:0:0:0:
52,260,23560,5,0,0:0:0:0:
68,104,23743,2,0,P|108:84|180:84,1,100
320,112,24109,1,0,0:0:0:0:
480,192,24292,2,0,L|376:192,1,100
224,236,24658,2,0,L|340:236,1,100
488,312,25024,2,0,L|384:312,1,100
268,332,25389,1,0,0:0:0:0:
148,344,25572,6,0,P|136:296|92:240,1,100
24,168,25938,2,0,L|32:112,2,50
192,96,26304,2,0,L|184:32,2,50
176,216,26670,5,0,0:0:0:0:
224,324,26853,1,0,0:0:0:0:
340,356,27036,6,0,L|456:336,1,100
448,180,27402,2,0,P|448:216|416:272,1,100
264,280,27768,1,0,0:0:0:0:
148,300,27950,6,0,L|24:316,1,100
188,212,28316,2,0,L|296:192,1,100
388,128,28682,5,0,0:0:0:0:
388,128,28865,1,0,0:0:0:0:
204,56,29048,1,0,0:0:0:0:
204,56,29231,1,0,0:0:0:0:
96,108,29414,5,0,0:0:0:0:
56,256,29597,2,0,P|64:320|84:368,1,100
272,344,29963,2,0,P|224:356|160:352,2,100
440,272,30511,1,0,0:0:0:0:
336,216,30694,1,0,0:0:0:0:
224,172,30877,6,0,P|188:152|108:140,1,100
60,288,31243,2,0,P|100:324|164:324,1,100
304,272,31609,2,0,L|192:272,1,100
16,168,31975,2,0,L|136:180,1,100
324,188,32341,2,0,L|224:176,1,100
128,104,32707,5,0,0:0:0:0:
8,224,32889,2,0,P|32:280|36:344,1,100
200,344,33255,2,0,L|96:348,1,100
236,228,33621,2,0,L|116:248,1,100
76,140,33987,6,0,P|148:136|200:116,2,100
20,248,34536,1,0,0:0:0:0:
172,356,34719,1,0,0:0:0:0:
292,344,34902,6,0,P|340:344|388:320,1,100
404,204,35268,2,0,L|512:176,1,100
328,144,35633,2,0,L|224:120,1,100
76,132,35999,2,0,P|121:122|192:124,1,100
280,64,36365,1,0,0:0:0:0:
400,48,36548,5,0,0:0:0:0:
416,168,36731,2,0,L|400:288,1,100
224,248,37097,2,0,L|208:364,1,100
56,244,37463,2,0,P|56:184|44:136,1,100
248,160,37828,2,0,P|256:108|240:44,1,100
364,32,38194,1,0,0:0:0:0:
456,112,38377,5,0,0:0:0:0:
456,112,38560,1,0,0:0:0:0:
320,192,38743,2,0,P|328:248|308:300,1,100
200,328,39109,1,0,0:0:0:0:
200,328,39292,2,0,P|148:336|92:316,1,100
28,228,39658,5,0,0:0:0:0:
40,168,39749,1,0,0:0:0:0:
64,112,39841,2,0,P|68:60|116:20,1,100
192,28,40161,5,0,0:0:0:0:
340,20,40389,1,0,0:0:0:0:
452,60,40572,2,0,P|448:112|424:172,1,100
380,268,40938,5,0,0:0:0:0:
356,324,41030,1,0,0:0:0:0:
304,352,41121,2,0,P|252:348|196:332,1,100
92,296,41487,1,0,0:0:0:0:
20,156,41670,1,0,0:0:0:0:
20,156,41853,2,0,P|32:208|20:264,1,100
224,252,42219,2,0,P|176:272|104:272,1,100
120,156,42585,6,0,P|132:104|176:44,1,100
276,48,42950,2,0,L|352:36,1,50
384,48,43133,2,0,L|460:68,1,50
476,104,43316,2,0,P|476:156|456:232,1,100
412,232,43591,2,0,L|384:288,3,50
276,240,44048,1,0,0:0:0:0:
156,232,44231,6,0,L|88:228,3,50
48,220,44597,1,0,0:0:0:0:
20,104,44780,1,0,0:0:0:0:
184,36,44963,1,0,0:0:0:0:
184,36,45146,2,0,L|292:36,1,100
436,84,45511,6,0,P|444:140|416:224,1,100
360,276,45877,1,0,0:0:0:0:
252,324,46060,2,0,L|188:336,4,50
132,308,46609,1,0,0:0:0:0:
32,244,46792,5,0,0:0:0:0:
112,156,46975,2,0,L|152:48,1,100
292,148,47341,2,0,L|328:48,1,100
456,184,47707,2,0,L|420:284,1,100
276,192,48072,2,0,L|224:308,1,100
144,124,48438,2,0,L|32:140,1,100
8,188,48713,2,0,L|20:248,8,50
44,140,49536,6,0,P|120:88|172:80,1,100
240,64,49902,2,0,L|364:72,1,100
456,104,50268,5,0,0:0:0:0:
404,276,50450,1,0,0:0:0:0:
304,140,50633,1,0,0:0:0:0:
264,320,50816,1,0,0:0:0:0:
28,288,50999,1,0,0:0:0:0:
28,288,51182,6,0,P|24:228|48:164,1,100
140,248,51548,6,0,P|196:268|264:260,1,100
384,208,51914,1,0,0:0:0:0:
236,140,52097,2,0,L|120:128,1,100
80,288,52463,2,0,L|200:304,1,100
404,328,52828,6,0,P|356:348|284:348,1,100
116,348,53194,1,0,0:0:0:0:
60,168,53377,1,0,0:0:0:0:
60,168,53560,2,0,P|44:220|36:280,1,100
116,348,53926,1,0,0:0:0:0:
296,292,54109,6,0,L|180:308,1,100
40,264,54475,6,0,L|44:148,1,100
220,204,54841,1,0,0:0:0:0:
220,204,55024,2,0,P|208:144|236:104,1,100
424,68,55389,2,0,P|384:52|312:56,1,100
184,52,55755,6,0,P|120:48|68:72,1,100
12,156,56121,1,0,0:0:0:0:
192,228,56304,2,0,P|192:284|216:340,1,100
396,332,56670,2,0,L|288:348,1,100
176,340,57036,6,0,P|111:328|72:332,1,100
32,152,57402,2,0,P|76:128|144:128,1,100
280,92,57768,1,0,0:0:0:0:
424,144,57950,2,0,P|376:172|316:172,1,100
104,228,58316,2,0,L|224:264,1,100
320,276,58682,6,0,L|440:280,1,100
492,180,59048,1,0,0:0:0:0:
368,68,59231,6,0,P|320:48|256:48,1,100
88,44,59597,2,0,L|80:164,1,100
240,184,59963,2,0,L|256:292,1,100
368,328,60328,6,0,P|428:324|480:288,1,100
256,280,60694,1,0,0:0:0:0:
256,280,60877,2,0,L|240:176,1,100
20,116,61243,2,0,P|64:92|128:96,1,100
352,56,61609,1,0,0:0:0:0:
352,56,61792,2,0,L|236:52,1,100
352,56,62158,1,0,0:0:0:0:
76,140,62341,1,0,0:0:0:0:
76,140,62524,2,0,P|120:164|192:168,1,100
288,192,62889,5,0,0:0:0:0:
492,200,63072,1,0,0:0:0:0:
392,308,63255,2,0,P|340:328|272:332,1,100
64,284,63621,1,0,0:0:0:0:
64,284,63804,2,0,L|184:280,1,100
384,204,64170,2,0,L|276:192,1,100
88,176,64536,6,0,P|136:160|188:168,1,100
380,200,64902,1,0,0:0:0:0:
272,64,65085,2,0,P|224:52|172:72,1,100
64,224,65450,2,0,P|120:232|180:208,1,100
268,168,65816,6,0,L|372:160,1,100
472,56,66182,6,0,L|364:36,1,100
148,60,66548,1,0,0:0:0:0:
148,60,66731,2,0,L|248:32,1,100
456,104,67097,2,0,P|404:116|356:112,1,100
92,176,67463,2,0,P|144:156|196:172,1,100
160,320,67828,5,0,0:0:0:0:
160,320,68011,2,0,P|216:328|276:304,1,100
496,192,68377,2,0,P|440:184|388:192,1,100
256,192,68743,6,0,P|248:144|216:100,1,100
16,112,69109,2,0,P|80:92|124:96,1,100
100,344,69475,1,0,0:0:0:0:
100,344,69658,2,0,P|148:344|220:320,1,100
504,196,70024,2,0,P|448:184|384:188,1,100
400,72,70389,6,0,P|360:52|336:104,1,100
68,168,70755,1,0,0:0:0:0:
68,168,70938,2,0,P|40:220|52:284,1,100
128,344,71304,6,0,P|188:336|256:360,1,100
476,252,71670,1,0,0:0:0:0:
472,72,71853,1,0,0:0:0:0:
352,60,72036,6,0,P|304:40|160:48,1,200
96,352,72585,2,0,P|48:268|52:140,1,200
416,336,73133,2,0,P|324:320|212:340,1,200
436,56,73682,2,0,P|408:168|440:276,1,200
312,288,74231,5,0,0:0:0:0:
196,316,74414,1,0,0:0:0:0:
64,216,74597,2,0,L|28:168,2,50
184,192,74963,6,0,L|304:172,1,100
472,52,75328,2,0,L|368:72,1,100
100,92,75694,2,0,L|216:64,1,100
468,152,76060,2,0,L|356:188,1,100
252,192,76426,5,0,0:0:0:0:
80,252,76609,1,0,0:0:0:0:
252,192,76792,1,0,0:0:0:0:
448,308,76975,1,0,0:0:0:0:
332,332,77158,5,0,0:0:0:0:
252,192,77341,1,0,0:0:0:0:
148,368,77524,1,0,0:0:0:0:
204,344,77615,1,0,0:0:0:0:
260,320,77707,1,0,0:0:0:0:
372,280,77889,5,0,0:0:0:0:
372,280,78072,1,0,0:0:0:0:
352,88,78255,1,0,0:0:0:0:
352,88,78438,1,0,0:0:0:0:
124,88,78621,1,0,0:0:0:0:
124,88,78804,1,0,0:0:0:0:
112,276,78987,1,0,0:0:0:0:
168,308,79170,1,0,0:0:0:0:
196,316,79261,5,0,0:0:0:0:
224,316,79353,5,0,0:0:0:0:
252,320,79444,1,0,0:0:0:0:
284,324,79536,1,0,0:0:0:0:
312,324,79627,1,0,0:0:0:0:
340,320,79719,1,0,0:0:0:0:
368,312,79810,1,0,0:0:0:0:
396,300,79902,1,0,0:0:0:0:
420,284,79993,1,0,0:0:0:0:
440,260,80085,5,0,0:0:0:0:
456,232,80176,1,0,0:0:0:0:
456,200,80268,1,0,0:0:0:0:
444,172,80359,1,0,0:0:0:0:
424,152,80450,1,0,0:0:0:0:
396,140,80542,1,0,0:0:0:0:
368,128,80633,1,0,0:0:0:0:
340,120,80725,1,0,0:0:0:0:
312,112,80816,5,0,0:0:0:0:
184,316,81182,1,0,0:0:0:0:
36,128,81548,1,0,0:0:0:0:
116,220,81731,1,0,0:0:0:0:
180,120,81914,1,0,0:0:0:0:
272,40,82097,1,0,0:0:0:0:
352,132,82280,6,0,L|464:120,1,100
400,272,82646,2,0,L|500:260,1,100
208,248,83011,2,0,P|76:228|76:228,1,100
264,56,83377,2,0,P|224:40|148:40,1,100
56,76,83743,5,0,0:0:0:0:
88,312,84109,2,0,B|120:316|64:348|168:360,1,100
348,336,84475,1,0,0:0:0:0:
424,244,84658,5,0,0:0:0:0:
400,128,84841,1,0,0:0:0:0:
320,216,85024,1,0,0:0:0:0:
424,244,85207,1,0,0:0:0:0:
348,336,85389,1,0,0:0:0:0:
348,336,85572,2,0,L|472:328,1,100
424,244,85938,6,0,B|428:208|428:208|392:156,1,100
280,24,86304,2,0,B|244:84|244:84|264:132,1,100
368,64,86670,6,0,P|368:168|340:264,1,200
272,360,87219,1,0,0:0:0:0:
272,360,87402,2,0,P|188:364|64:336,1,200
