osu file format v14

[General]
AudioFilename: audio.mp3
AudioLeadIn: 0
PreviewTime: 51091
Countdown: 0
SampleSet: Soft
StackLeniency: 0.7
Mode: 0
LetterboxInBreaks: 0
WidescreenStoryboard: 0

[Editor]
Bookmarks: 9109,14963,26670,38377,50085,51548,80816
DistanceSpacing: 1.8
BeatDivisor: 4
GridSize: 4
TimelineZoom: 2.1

[Metadata]
Title:Original. -TV Ver-
TitleUnicode:オリジナル。-TV Ver-
Artist:TrySail
ArtistUnicode:TrySail
Creator:Meg
Version:Yuria's Insane
Source:亜人ちゃんは語りたい
Tags:Demi chan wa Kataritai Katari tai opening iMage-- Akitoshi Yuria 麻倉もも 雨宮天 夏川椎菜 Asakura Momo Amamiya Sora Natsukawa Shiina
BeatmapID:1216065
BeatmapSetID:572804

[Difficulty]
HPDrainRate:6
CircleSize:3.8
OverallDifficulty:7
ApproachRate:9
SliderMultiplier:1.7
SliderTickRate:1

[Events]
//Background and Video events
Video,0,"video.avi"
0,0,"demi.jpg",0,0
//Break Periods
//Storyboard Layer 0 (Background)
//Storyboard Layer 1 (Fail)
//Storyboard Layer 2 (Pass)
//Storyboard Layer 3 (Foreground)
//Storyboard Sound Samples

[TimingPoints]
329,365.853658536585,4,2,3,60,1,0
329,-125,4,2,3,60,0,0
877,-125,4,2,3,55,0,0
1426,-125,4,2,3,50,0,0
1975,-125,4,2,3,45,0,0
3255,-125,4,2,3,50,0,0
7463,-100,4,2,1,60,0,0
8011,-100,4,2,1,60,0,0
8377,-100,4,2,2,60,0,0
9109,-100,4,2,1,60,0,0
14963,-125,4,2,5,50,0,0
26670,-100,4,2,1,60,0,0
33987,-100,4,2,2,60,0,0
34078,-100,4,2,1,60,0,0
38377,-125,4,2,1,60,0,0
39109,-100,4,2,1,60,0,0
43865,-125,4,2,1,60,0,0
44231,-100,4,2,1,60,0,0
49353,-125,4,2,1,60,0,0
49719,-100,4,2,1,60,0,0
50085,-100,4,2,3,30,0,0
50268,-100,4,2,3,40,0,0
50450,-100,4,2,3,50,0,0
50633,-100,4,2,3,60,0,0
50816,-100,4,2,3,70,0,0
51182,-100,4,2,2,70,0,0
51548,-90.9090909090909,4,2,1,80,0,1
60328,-125,4,2,1,80,0,1
62524,-90.9090909090909,4,2,1,80,0,1
72036,-125,4,2,1,80,0,1
74231,-90.9090909090909,4,2,1,80,0,1
80816,-100,4,2,1,70,0,0
86670,-100,4,2,1,70,0,0
87768,-100,4,2,2,70,0,0

[Colours]
Combo1 : 255,112,64
Combo2 : 255,255,0
Combo3 : 0,255,128
Combo4 : 0,255,255

[HitObjects]
184,204,329,6,0,P|176:172|172:128,2,68,2|0|0,0:0|0:0|0:0,0:0:0:0:
280,184,877,2,0,P|276:217|268:250,2,68,2|0|0,0:0|0:0|0:0,0:0:0:0:
256,92,1426,2,0,L|332:84,2,68,2|0|0,0:0|0:0|0:0,0:0:0:0:
172,137,1975,2,0,L|96:129,2,68,2|0|0,0:0|0:0|0:0,0:0:0:0:
232,212,2524,5,2,0:0:0:0:
308,264,2707,1,0,0:0:0:0:
400,264,2889,1,2,0:0:0:0:
448,108,3255,6,0,P|448:176|434:243,1,136,2|0,0:0|0:0,0:0:0:0:
268,212,3987,2,0,P|268:145|282:78,1,136,2|0,0:0|0:0,0:0:0:0:
340,288,4719,2,0,L|204:300,1,136,2|0,0:0|0:0,0:0:0:0:
272,144,5450,2,0,L|408:132,1,136,2|0,0:0|0:0,0:0:0:0:
200,220,6182,6,0,P|185:153|185:85,1,136,2|0,0:0|0:0,0:0:0:0:
348,32,6914,2,0,P|362:98|362:166,1,136,2|0,0:0|0:0,0:0:0:0:
300,256,7463,1,8,0:0:0:0:
256,56,8011,6,0,P|216:68|160:76,1,85
52,28,8377,1,2,0:0:0:0:
83,56,8468,1,0,0:0:0:0:
97,95,8559,1,0,0:0:0:0:
91,137,8651,1,0,0:0:0:0:
68,172,8743,2,0,L|64:220,1,42.5,0|0,0:0|0:0,0:0:0:0:
16,304,8926,5,0,0:0:0:0:
16,304,9018,1,0,0:0:0:0:
16,304,9109,2,0,P|60:304|104:312,1,85,6|0,0:0|0:0,0:0:0:0:
264,364,9475,2,0,L|256:268,1,85,8|0,0:0|0:0,0:0:0:0:
176,156,9841,1,2,0:0:0:0:
176,156,10024,1,2,0:0:0:0:
136,324,10207,1,8,0:0:0:0:
284,256,10389,5,2,0:0:0:0:
304,220,10481,1,0,0:0:0:0:
312,180,10572,1,0,0:0:0:0:
164,244,10755,1,2,0:0:0:0:
280,108,10938,1,8,0:0:0:0:
364,280,11121,1,0,0:0:0:0:
188,148,11304,5,2,0:0:0:0:
268,312,11487,1,2,0:0:0:0:
380,180,11670,1,8,0:0:0:0:
208,240,11853,1,0,0:0:0:0:
312,80,12036,6,0,L|296:180,1,85,2|0,0:0|0:0,0:0:0:0:
208,40,12402,1,8,0:0:0:0:
388,16,12585,2,0,L|412:108,1,85,0|2,0:0|0:0,0:0:0:0:
298,163,12950,1,2,0:0:0:0:
296,4,13133,1,8,0:0:0:0:
432,124,13316,6,0,P|392:108|332:92,1,85,2|0,0:0|0:0,0:0:0:0:
248,256,13682,2,0,P|296:252|352:240,1,85,2|8,0:0|0:0,0:0:0:0:
176,100,14048,5,0,0:0:0:0:
164,140,14139,1,0,0:0:0:0:
160,184,14231,1,2,0:0:0:0:
264,64,14414,1,2,0:0:0:0:
80,128,14597,1,8,0:0:0:0:
224,256,14780,1,0,0:0:0:0:
168,72,14963,6,0,P|208:144|280:160,1,136,6|0,3:0|0:0,0:0:0:0:
96,4,15511,2,0,L|76:152,1,136,2|0,3:0|0:0,0:0:0:0:
261,228,16060,2,0,P|257:172|253:148,1,68,2|0,3:0|0:0,0:0:0:0:
176,92,16426,5,0,0:0:0:0:
40,220,16609,2,0,L|180:212,1,136,2|0,3:0|0:0,0:0:0:0:
328,80,17158,2,0,P|300:76|248:72,1,68,2|0,3:0|0:0,0:0:0:0:
304,236,17524,2,0,P|337:233|371:228,1,68,2|0,3:0|0:0,0:0:0:0:
172,112,17889,6,0,P|168:180|232:248,1,136,2|0,3:0|0:0,0:0:0:0:
400,140,18438,2,0,P|332:136|265:151,1,136,2|0,3:0|0:0,0:0:0:0:
299,303,18987,2,0,P|303:263|302:218,1,68,2|0,3:0|0:0,0:0:0:0:
152,264,19353,5,0,0:0:0:0:
208,88,19536,2,0,L|224:232,1,136,2|0,3:0|0:0,0:0:0:0:
420,108,20085,2,0,L|427:40,1,68,2|0,3:0|0:0,0:0:0:0:
300,192,20450,2,0,L|307:259,1,68,2|0,3:0|0:0,0:0:0:0:
428,336,20816,6,0,P|364:328|284:344,1,136,2|0,3:0|0:0,0:0:0:0:
84,284,21365,2,0,P|148:292|228:276,1,136,2|0,3:0|0:0,0:0:0:0:
396,232,21914,2,0,L|324:228,1,68,2|0,3:0|0:0,0:0:0:0:
256,160,22280,5,0,0:0:0:0:
88,128,22463,2,0,L|223:135,1,136,2|0,3:0|0:0,0:0:0:0:
364,152,23011,2,0,L|436:148,1,68,2|0,3:0|0:0,0:0:0:0:
280,48,23377,2,0,L|352:44,1,68,2|0,3:0|0:0,0:0:0:0:
160,4,23743,6,0,P|172:80|152:144,1,136,2|0,3:0|0:0,0:0:0:0:
48,232,24292,2,0,L|216:224,1,136,2|0,3:0|0:0,0:0:0:0:
328,256,24841,2,0,P|320:236|312:184,1,68,2|0,3:0|0:0,0:0:0:0:
404,80,25207,5,0,0:0:0:0:
492,128,25389,2,0,L|476:292,1,136,2|0,3:0|0:0,0:0:0:0:
404,312,25938,2,0,L|406:345,2,34,2|0|2,3:0|0:0|0:3,0:0:0:0:
308,376,26304,2,0,L|310:342,2,34,2|0|2,3:0|0:0|0:3,0:0:0:0:
212,224,26670,6,0,L|218:309,1,85,6|0,0:0|0:0,0:0:0:0:
284,156,27036,1,8,0:0:0:0:
148,128,27219,1,0,0:0:0:0:
240,20,27402,1,2,0:0:0:0:
372,124,27585,2,0,P|372:144|366:209,1,85,0|8,0:0|0:0,0:0:0:0:
320,55,27950,6,0,P|400:42|454:103,1,170
284,156,28499,1,8,0:0:0:0:
188,112,28682,2,0,P|156:108|104:104,1,85,0|2,0:0|0:0,0:0:0:0:
40,220,29048,2,0,P|82:216|124:211,1,85,0|8,0:0|0:0,0:0:0:0:
0,136,29414,6,0,L|4:308,1,170
128,340,29963,1,8,0:0:0:0:
192,180,30146,2,0,P|149:174|107:170,1,85,0|2,0:0|0:0,0:0:0:0:
284,256,30511,1,0,0:0:0:0:
320,104,30694,1,8,0:0:0:0:
284,256,30877,6,0,P|282:314|283:341,1,85,0|2,0:0|0:0,0:0:0:0:
427,292,31243,2,0,P|430:249|429:207,1,85,0|8,0:0|0:0,0:0:0:0:
236,80,31609,2,0,L|240:164,1,85,0|2,0:0|0:0,0:0:0:0:
472,116,31975,2,0,L|476:32,1,85,0|8,0:0|0:0,0:0:0:0:
312,16,32341,6,0,P|240:40|144:36,1,170,0|0,0:0|0:0,0:0:0:0:
70,179,32889,2,0,L|239:164,1,170,8|2,0:0|0:0,0:0:0:0:
96,100,33438,1,0,0:0:0:0:
172,248,33621,2,0,L|164:332,1,85,8|0,0:0|0:0,0:0:0:0:
240,380,33987,5,2,0:0:0:0:
424,304,34170,2,0,P|336:276|248:304,1,170,0|0,0:0|0:0,0:0:0:0:
400,200,34719,1,2,0:0:0:0:
268,120,34902,1,0,0:0:0:0:
408,40,35085,1,8,0:0:0:0:
312,196,35268,6,0,P|276:200|220:204,1,85,0|2,0:0|0:0,0:0:0:0:
96,84,35633,2,0,P|138:87|180:91,1,85,0|8,0:0|0:0,0:0:0:0:
360,272,35999,2,2,P|288:280|176:288,1,170,0|0,0:0|0:0,0:0:0:0:
108,248,36548,1,8,0:0:0:0:
272,104,36731,6,0,P|276:140|280:200,1,85,0|2,0:0|0:0,0:0:0:0:
183,371,37097,2,0,P|185:328|190:286,1,85,0|8,0:0|0:0,0:0:0:0:
368,156,37463,2,0,P|365:198|360:240,1,85,0|2,0:0|0:0,0:0:0:0:
108,248,37828,2,0,P|144:208|260:228,1,170,0|0,0:0|0:0,0:0:0:0:
312,328,38377,6,0,B|364:316|364:316|416:320,1,102,4|0,0:0|0:0,0:0:0:0:
452,344,38743,2,0,B|440:292|440:292|448:232,1,102,2|0,0:0|0:0,0:0:0:0:
472,204,39109,6,0,L|468:180,10,21.25,8|0|0|0|0|0|0|0|0|0|0,0:0|0:0|0:0|0:0|0:0|0:0|0:0|0:0|0:0|0:0|0:0,0:0:0:0:
456,148,39658,5,0,0:0:0:0:
456,148,39749,1,0,0:0:0:0:
456,148,39841,2,0,B|412:152|412:152|372:144,1,85,4|0,3:0|0:0,0:0:0:0:
340,100,40115,2,0,B|348:144|348:144|340:184,1,85,4|0,3:0|0:0,0:0:0:0:
308,224,40389,1,4,3:0:0:0:
308,56,40572,5,8,0:0:0:0:
164,136,40755,1,2,0:0:0:0:
164,136,40847,1,4,0:3:0:0:
164,136,40938,2,0,L|256:140,1,85,0|0,0:0|0:0,0:0:0:0:
360,264,41304,6,0,L|320:268,6,21.25,2|0|0|0|0|0|0,0:0|0:0|0:0|0:0|0:0|0:0|0:0,0:0:0:0:
308,224,41670,6,0,B|316:268|316:268|304:312,1,85,0|0,0:0|0:0,0:0:0:0:
124,352,42036,1,8,0:0:0:0:
224,264,42219,1,0,0:0:0:0:
224,264,42311,1,0,0:0:0:0:
224,264,42402,2,0,L|132:268,1,85,0|0,0:0|0:0,0:0:0:0:
8,192,42767,6,0,B|52:200|52:200|96:192,1,85,4|0,3:0|0:0,0:0:0:0:
120,160,43042,2,0,L|212:164,1,85,4|0,3:0|0:0,0:0:0:0:
240,140,43316,1,4,3:0:0:0:
208,16,43499,5,2,0:1:0:0:
240,20,43590,1,0,0:0:0:0:
276,44,43682,1,2,0:1:0:0:
308,40,43773,1,0,0:0:0:0:
340,12,43865,6,0,B|328:64|328:64|340:124,1,102,8|0,0:0|0:0,0:0:0:0:
412,184,44231,5,12,0:3:0:0:
372,200,44322,1,12,0:3:0:0:
332,216,44414,1,12,0:3:0:0:
292,232,44505,1,12,0:3:0:0:
252,248,44597,6,0,L|164:240,1,85
24,176,44963,1,8,0:0:0:0:
128,68,45146,2,0,L|120:156,1,85,0|0,0:0|0:0,0:0:0:0:
4,272,45511,6,0,B|44:288|44:288|88:280,1,85,4|0,0:3|0:0,0:0:0:0:
120,256,45786,2,0,L|112:340,1,85,4|0,0:3|0:0,0:0:0:0:
152,332,46060,6,0,L|180:328,6,21.25,2|0|0|0|0|0|0,0:0|0:0|0:0|0:0|0:0|0:0|0:0,0:0:0:0:
208,304,46426,6,0,B|248:316|248:316|291:312,1,85,8|0,0:0|0:0,0:0:0:0:
420,280,46792,1,2,0:0:0:0:
336,160,46975,6,0,L|343:244,1,85,2|8,0:0|0:0,0:0:0:0:
156,236,47341,2,0,L|164:152,1,85,0|0,0:0|0:0,0:0:0:0:
368,92,47707,2,0,L|375:176,1,85,0|2,0:0|0:0,0:0:0:0:
124,168,48072,2,0,L|132:84,1,85,0|2,0:0|0:0,0:0:0:0:
312,28,48438,1,0,0:0:0:0:
224,172,48621,5,2,0:0:0:0:
240,176,48713,1,0,0:0:0:0:
256,180,48804,1,0,0:0:0:0:
272,184,48896,1,0,0:0:0:0:
288,188,48987,1,0,0:0:0:0:
304,192,49078,1,0,0:0:0:0:
320,196,49170,1,0,0:0:0:0:
336,200,49261,1,0,0:0:0:0:
360,180,49353,6,0,B|352:228|352:228|368:296,1,102,8|0,0:0|0:0,0:0:0:0:
448,264,49719,1,0,0:0:0:0:
456,232,49810,1,0,0:0:0:0:
464,200,49902,1,0,0:0:0:0:
472,168,49993,1,0,0:0:0:0:
480,136,50085,6,0,L|476:88,3,42.5,2|2|2|2,0:0|0:0|0:0|0:0,0:0:0:0:
400,56,50450,2,0,L|396:98,3,42.5,2|2|2|2,0:0|0:0|0:0|0:0,0:0:0:0:
316,128,50816,6,0,L|280:132,5,28.3333333333333,2|0|2|0|2|0,0:0|0:0|0:0|0:0|0:0|0:0,0:0:0:0:
204,108,51182,5,2,0:0:0:0:
212,144,51274,1,0,0:0:0:0:
220,180,51365,1,0,0:0:0:0:
228,216,51457,1,0,0:0:0:0:
236,252,51548,6,0,L|224:348,1,93.5000028533936,6|0,0:0|0:0,0:0:0:0:
124,200,51914,1,8,0:0:0:0:
44,320,52097,2,0,L|148:312,1,93.5000028533936,0|2,0:0|0:0,0:0:0:0:
20,152,52463,2,0,L|8:248,1,93.5000028533936,2|8,0:0|0:0,0:0:0:0:
132,104,52828,6,0,P|188:184|276:176,1,187.000005706787,0|0,0:0|0:0,0:0:0:0:
392,88,53377,1,8,0:0:0:0:
236,4,53560,2,0,P|232:28|225:96,1,93.5000028533936,0|2,0:0|0:0,0:0:0:0:
364,200,53926,1,2,0:0:0:0:
180,280,54109,2,0,P|232:276|300:264,1,93.5000028533936,8|0,0:0|0:0,0:0:0:0:
472,140,54475,6,0,L|464:240,1,93.5000028533936,2|0,0:0|0:0,0:0:0:0:
332,336,54841,1,8,0:0:0:0:
204,188,55024,2,0,P|256:180|308:176,1,93.5000028533936,0|2,0:0|0:0,0:0:0:0:
512,324,55389,2,0,P|465:319|419:312,1,93.5000028533936,2|8,0:0|0:0,0:0:0:0:
256,272,55755,1,0,0:0:0:0:
372,68,55938,6,0,L|348:264,1,187.000005706787,2|8,0:0|0:0,0:0:0:0:
460,116,56487,1,0,0:0:0:0:
264,164,56670,2,0,P|220:168|164:164,1,93.5000028533936,4|2,0:1|0:0,0:0:0:0:
40,72,57036,2,0,B|60:136|60:136|48:216,1,140.25000428009,8|0,0:0|0:0,0:0:0:0:
24,248,57402,6,0,P|70:245|117:249,1,93.5000028533936,2|0,0:0|0:0,0:0:0:0:
272,316,57768,1,8,0:0:0:0:
316,180,57950,2,0,L|323:86,1,93.5000028533936,0|2,0:0|0:0,0:0:0:0:
152,256,58316,2,0,L|160:352,1,93.5000028533936,2|8,0:0|0:0,0:0:0:0:
207,160,58682,6,0,P|139:219|49:206,1,187.000005706787,0|0,0:0|0:0,0:0:0:0:
168,72,59231,2,0,L|268:80,1,93.5000028533936,8|0,0:0|0:0,0:0:0:0:
392,24,59597,1,2,0:0:0:0:
308,176,59780,1,2,0:0:0:0:
504,160,59963,2,0,L|404:168,1,93.5000028533936,8|0,0:0|0:0,0:0:0:0:
288,60,60328,5,6,0:0:0:0:
312,224,60511,1,0,0:0:0:0:
448,88,60694,1,0,0:0:0:0:
224,132,60877,2,0,B|197:89|197:89|209:5,1,136,8|0,0:0|0:0,0:0:0:0:
316,156,61426,5,4,0:0:0:0:
188,264,61609,1,0,0:0:0:0:
112,96,61792,1,0,3:0:0:0:
280,244,61975,2,0,B|324:256|324:256|412:232,1,136,2|2,0:0|0:0,0:0:0:0:
212,176,62524,5,8,0:0:0:0:
116,320,62707,1,0,0:0:0:0:
24,200,62889,1,8,0:0:0:0:
24,200,62981,1,8,0:0:0:0:
24,200,63072,1,8,0:0:0:0:
24,200,63164,1,8,0:0:0:0:
24,200,63255,6,0,L|124:208,1,93.5000028533936,6|0,0:0|0:0,0:0:0:0:
228,80,63621,1,8,0:0:0:0:
64,28,63804,2,0,L|72:124,1,93.5000028533936,0|2,0:0|0:0,0:0:0:0:
212,276,64170,2,0,L|220:180,1,93.5000028533936,2|8,0:0|0:0,0:0:0:0:
124,344,64536,6,0,P|212:316|320:344,1,187.000005706787,0|0,0:0|0:0,0:0:0:0:
412,376,65085,1,8,0:0:0:0:
504,204,65268,2,0,L|496:297,1,93.5000028533936,0|2,0:0|0:0,0:0:0:0:
384,136,65633,1,2,0:0:0:0:
304,252,65816,2,0,P|256:264|212:268,1,93.5000028533936,8|0,0:0|0:0,0:0:0:0:
52,204,66182,6,0,L|59:297,1,93.5000028533936,2|0,0:0|0:0,0:0:0:0:
168,132,66548,1,8,0:0:0:0:
4,52,66731,2,0,P|44:44|116:40,1,93.5000028533936,0|2,0:0|0:0,0:0:0:0:
236,236,67097,2,0,P|189:232|143:223,1,93.5000028533936,2|8,0:0|0:0,0:0:0:0:
264,64,67463,1,0,0:0:0:0:
84,136,67646,6,0,P|56:164|84:312,1,187.000005706787,2|8,0:0|0:0,0:0:0:0:
208,312,68194,1,0,0:0:0:0:
304,208,68377,2,0,L|292:112,1,93.5000028533936,4|2,0:1|0:0,0:0:0:0:
128,236,68743,2,0,B|108:304|108:304|128:392,1,140.25000428009,8|0,0:0|0:0,0:0:0:0:
168,380,69109,6,0,L|272:384,1,93.5000028533936,2|0,0:0|0:0,0:0:0:0:
360,280,69475,1,8,0:0:0:0:
224,208,69658,2,0,B|216:160|216:160|212:112,1,93.5000028533936,0|2,0:0|0:0,0:0:0:0:
412,92,70024,2,0,B|408:136|408:136|400:184,1,93.5000028533936,2|8,0:0|0:0,0:0:0:0:
300,372,70389,6,0,P|320:284|252:216,1,187.000005706787,0|0,0:0|0:0,0:0:0:0:
135,295,70938,2,0,P|181:305|228:308,1,93.5000028533936,8|0,0:0|0:0,0:0:0:0:
120,204,71304,1,2,0:0:0:0:
264,124,71487,1,2,0:0:0:0:
124,20,71670,2,0,L|108:112,1,93.5000028533936,8|0,0:0|0:0,0:0:0:0:
200,252,72036,5,4,0:0:0:0:
32,208,72219,1,0,0:0:0:0:
196,92,72402,1,0,0:0:0:0:
88,276,72585,2,0,L|224:272,1,136,8|0,0:0|0:0,0:0:0:0:
360,176,73133,5,4,0:0:0:0:
296,328,73316,1,0,0:0:0:0:
208,156,73499,1,2,0:0:0:0:
376,288,73682,2,0,L|384:152,1,136,8|2,0:0|0:0,0:0:0:0:
292,4,74231,6,0,L|296:64,1,46.7500014266968,8|0,0:0|0:0,0:0:0:0:
300,136,74414,1,0,0:0:0:0:
476,60,74597,1,8,0:0:0:0:
476,60,74688,1,0,0:0:0:0:
476,60,74780,1,0,0:0:0:0:
476,60,74871,1,0,0:0:0:0:
476,60,74963,6,0,L|368:68,1,93.5000028533936,6|0,0:0|0:0,0:0:0:0:
208,40,75328,1,8,0:0:0:0:
292,172,75511,1,0,0:0:0:0:
96,116,75694,2,0,P|91:69|88:22,1,93.5000028533936,2|2,0:0|0:0,0:0:0:0:
212,223,76060,2,0,P|209:270|204:317,1,93.5000028533936,8|0,0:0|0:0,0:0:0:0:
68,196,76426,5,2,0:0:0:0:
224,128,76609,1,0,0:0:0:0:
116,296,76792,2,0,P|69:300|20:304,1,93.5000028533936,8|0,0:0|0:0,0:0:0:0:
168,212,77158,1,2,0:0:0:0:
244,348,77341,1,2,0:0:0:0:
380,252,77524,2,0,P|426:247|476:244,1,93.5000028533936,8|0,0:0|0:0,0:0:0:0:
344,352,77889,5,12,0:0:0:0:
156,304,78072,1,2,0:0:0:0:
300,164,78255,1,0,0:0:0:0:
244,348,78438,1,8,0:0:0:0:
152,160,78621,5,0,0:0:0:0:
308,268,78804,1,2,0:0:0:0:
132,328,78987,1,8,0:0:0:0:
248,188,79170,1,8,0:0:0:0:
248,188,79261,1,0,0:0:0:0:
248,188,79353,6,0,L|252:96,3,46.7500014266968,12|0|0|0,0:1|0:0|0:0|0:0,0:0:0:0:
332,104,79719,2,0,L|334:150,3,46.7500014266968,8|0|0|0,0:0|0:0|0:0|0:0,0:0:0:0:
260,52,80085,5,8,1:2:0:0:
236,52,80176,1,0,1:0:0:0:
214,58,80267,1,0,1:0:0:0:
194,70,80359,1,0,1:0:0:0:
177,87,80450,1,8,1:2:0:0:
166,107,80542,1,0,1:0:0:0:
160,130,80633,1,0,1:0:0:0:
160,153,80725,1,0,1:0:0:0:
166,176,80816,6,0,L|176:272,1,85,6|0,0:0|0:0,0:0:0:0:
352,336,81182,2,0,L|267:328,1,85,8|0,0:0|0:0,0:0:0:0:
404,224,81548,1,2,0:0:0:0:
404,224,81731,1,0,0:0:0:0:
444,384,81914,1,8,0:0:0:0:
292,308,82096,5,0,0:0:0:0:
272,272,82188,1,0,0:0:0:0:
272,232,82279,1,2,0:0:0:0:
360,364,82462,1,0,0:0:0:0:
192,288,82645,1,8,0:0:0:0:
324,160,82828,1,0,0:0:0:0:
272,336,83011,5,2,0:0:0:0:
208,172,83194,1,0,0:0:0:0:
372,252,83377,1,8,0:0:0:0:
168,284,83560,1,0,0:0:0:0:
308,172,83743,6,0,L|315:87,1,85,2|0,0:0|0:0,0:0:0:0:
204,16,84109,1,8,0:0:0:0:
120,144,84292,2,0,L|205:137,1,85,0|2,0:0|0:0,0:0:0:0:
48,72,84657,1,0,0:0:0:0:
80,236,84840,1,8,0:0:0:0:
236,156,85024,6,0,P|247:115|256:64,1,85,0|2,0:0|0:0,0:0:0:0:
76,40,85389,2,0,P|83:81|95:122,1,85,0|8,0:0|0:0,0:0:0:0:
180,256,85755,5,0,0:0:0:0:
220,268,85846,1,0,0:0:0:0:
264,272,85938,1,2,0:0:0:0:
112,320,86121,1,0,0:0:0:0:
236,184,86304,1,8,0:0:0:0:
288,364,86487,1,0,0:0:0:0:
148,228,86670,5,6,0:0:0:0:
256,192,86761,12,2,87768,0:0:0:0:
