osu file format v14

[General]
AudioFilename: audio.mp3
AudioLeadIn: 0
PreviewTime: 51091
Countdown: 0
SampleSet: Soft
StackLeniency: 0.7
Mode: 0
LetterboxInBreaks: 0
WidescreenStoryboard: 0

[Editor]
Bookmarks: 9109,14963,26670,38377,50085,51548,80816
DistanceSpacing: 1.8
BeatDivisor: 4
GridSize: 4
TimelineZoom: 1.7

[Metadata]
Title:Original. -TV Ver-
TitleUnicode:オリジナル。-TV Ver-
Artist:TrySail
ArtistUnicode:TrySail
Creator:Meg
Version:Hikari
Source:亜人ちゃんは語りたい
Tags:Demi chan wa Kataritai Katari tai opening iMage-- Akitoshi Yuria 麻倉もも 雨宮天 夏川椎菜 Asakura Momo Amamiya Sora Natsukawa Shiina
BeatmapID:1213607
BeatmapSetID:572804

[Difficulty]
HPDrainRate:6
CircleSize:4
OverallDifficulty:8
ApproachRate:9.1
SliderMultiplier:1.8
SliderTickRate:1

[Events]
//Background and Video events
Video,0,"video.avi"
0,0,"demi.jpg",0,0
//Break Periods
//Storyboard Layer 0 (Background)
//Storyboard Layer 1 (Fail)
//Storyboard Layer 2 (Pass)
//Storyboard Layer 3 (Foreground)
//Storyboard Sound Samples

[TimingPoints]
329,365.853658536585,4,2,3,60,1,0
329,-133.333333333333,4,2,3,60,0,0
877,-133.333333333333,4,2,3,55,0,0
1426,-133.333333333333,4,2,3,50,0,0
1975,-133.333333333333,4,2,3,45,0,0
3255,-133.333333333333,4,2,3,50,0,0
7463,-100,4,2,1,60,0,0
8377,-100,4,2,2,60,0,0
9109,-100,4,2,1,60,0,0
14963,-125,4,2,5,50,0,0
26670,-100,4,2,1,60,0,0
33987,-100,4,2,2,60,0,0
34078,-100,4,2,1,60,0,0
38377,-133.333333333333,4,2,1,60,0,0
39109,-100,4,2,1,60,0,0
40938,-133.333333333333,4,2,1,60,0,0
41304,-100,4,2,1,60,0,0
41853,-133.333333333333,4,2,1,60,0,0
42768,-100,4,2,1,60,0,0
44597,-133.333333333333,4,2,1,60,0,0
46060,-100,4,2,1,60,0,0
46426,-133.333333333333,4,2,1,60,0,0
48621,-100,4,2,1,60,0,0
49353,-133.333333333333,4,2,1,60,0,0
50085,-100,4,2,3,30,0,0
50268,-100,4,2,3,40,0,0
50450,-100,4,2,3,50,0,0
50633,-100,4,2,3,60,0,0
50816,-100,4,2,3,70,0,0
51182,-100,4,2,2,70,0,0
51548,-90.9090909090909,4,2,1,80,0,1
60328,-133.333333333333,4,2,1,80,0,1
62341,-90.9090909090909,4,2,1,80,0,1
72036,-133.333333333333,4,2,1,80,0,1
74231,-90.9090909090909,4,2,1,80,0,1
80816,-100,4,2,1,70,0,0
86670,-133.333333333333,4,2,1,70,0,0
87768,-133.333333333333,4,2,2,70,0,0

[Colours]
Combo1 : 255,112,64
Combo2 : 255,255,0
Combo3 : 0,255,128
Combo4 : 0,255,255

[HitObjects]
180,352,329,6,0,P|208:334|241:326,1,67.5000025749208,2|0,0:0|0:0,0:0:0:0:
332,356,694,1,0,0:0:0:0:
332,260,877,6,0,P|303:242|270:234,1,67.5000025749208,2|0,0:0|0:0,0:0:0:0:
180,264,1243,1,0,0:0:0:0:
180,168,1426,6,0,P|208:150|241:142,1,67.5000025749208,2|0,0:0|0:0,0:0:0:0:
332,172,1792,1,0,0:0:0:0:
332,76,1975,6,0,P|303:58|270:50,1,67.5000025749208,2|0,0:0|0:0,0:0:0:0:
178,79,2341,1,0,0:0:0:0:
178,79,2524,5,2,0:0:0:0:
241,142,2707,1,0,0:0:0:0:
154,165,2889,1,2,0:0:0:0:
154,165,3255,6,0,P|218:181|248:239,1,135.000005149842,2|0,0:0|0:0,0:0:0:0:
292,356,3987,2,0,P|308:292|366:262,1,135.000005149842,2|0,0:0|0:0,0:0:0:0:
483,218,4719,2,0,P|419:202|389:144,1,135.000005149842,2|0,0:0|0:0,0:0:0:0:
345,27,5450,2,0,P|329:91|271:121,1,135.000005149842,2|0,0:0|0:0,0:0:0:0:
384,224,6182,5,2,0:0:0:0:
384,224,6914,1,2,0:0:0:0:
328,332,7463,6,0,B|208:324|208:324|239:312|258:291,1,180,8|0,0:0|0:0,0:0:0:0:
192,131,8011,2,0,L|176:220,1,90
75,338,8377,2,0,L|80:360,6,22.5,2|0|0|0|0|0|0,0:0|0:0|0:0|0:0|0:0|0:0|0:0,0:0:0:0:
51,324,8743,5,0,0:0:0:0:
83,292,8835,1,0,0:0:0:0:
89,249,8926,1,0,0:0:0:0:
66,211,9018,1,0,0:0:0:0:
25,195,9109,6,0,P|9:153|10:108,1,90,6|0,0:0|0:0,0:0:0:0:
16,100,9383,1,0,0:0:0:0:
23,91,9475,2,0,P|46:94|68:98,1,45,8|0,0:0|0:0,0:0:0:0:
144,144,9658,2,0,P|166:141|188:137,1,45
280,76,9841,2,0,P|296:117|294:162,1,90,2|2,0:0|0:0,0:0:0:0:
256,272,10207,1,8,0:0:0:0:
376,180,10389,1,2,0:0:0:0:
420,171,10481,1,0,0:0:0:0:
464,180,10572,5,0,0:0:0:0:
336,76,10755,1,2,0:0:0:0:
416,260,10938,1,8,0:0:0:0:
509,78,11121,1,0,0:0:0:0:
292,152,11304,5,2,0:0:0:0:
484,212,11487,1,2,0:0:0:0:
248,264,11670,1,8,0:0:0:0:
420,171,11853,1,0,0:0:0:0:
196,120,12036,6,0,L|106:108,1,90,2|0,0:0|0:0,0:0:0:0:
72,112,12310,1,0,0:0:0:0:
60,124,12402,2,0,P|51:144|48:167,1,45,8|0,0:0|0:0,0:0:0:0:
126,295,12585,2,0,P|140:252|144:208,1,90,0|2,0:0|0:0,0:0:0:0:
152,36,12950,1,2,0:0:0:0:
48,167,13133,1,8,0:0:0:0:
220,228,13316,6,0,L|309:216,1,90,2|0,0:0|0:0,0:0:0:0:
476,280,13682,1,2,0:0:0:0:
476,280,13774,1,0,0:0:0:0:
476,280,13865,1,8,0:0:0:0:
392,168,14048,1,0,0:0:0:0:
380,124,14139,1,0,0:0:0:0:
389,80,14231,5,2,0:0:0:0:
304,240,14414,1,2,0:0:0:0:
293,21,14597,1,8,0:0:0:0:
488,120,14780,1,0,0:0:0:0:
232,132,14963,6,0,L|88:144,1,144,6|0,3:0|0:0,0:0:0:0:
24,276,15511,2,0,P|57:288|83:312,1,72,2|0,3:0|0:0,0:0:0:0:
240,240,15877,1,0,0:0:0:0:
171,367,16060,2,0,P|159:334|160:298,1,72,2|0,3:0|0:0,0:0:0:0:
88,200,16426,1,0,0:0:0:0:
240,240,16609,2,0,P|252:206|251:170,1,72,2|0,3:0|0:0,0:0:0:0:
324,72,16975,1,0,0:0:0:0:
132,120,17158,6,0,P|97:110|61:111,1,72,2|0,3:0|0:0,0:0:0:0:
240,240,17524,2,0,P|275:240|310:231,1,72,2|0,3:0|0:0,0:0:0:0:
115,244,17889,6,0,P|104:314|126:382,1,144,2|0,3:0|0:0,0:0:0:0:
240,239,18438,2,0,P|233:204|216:173,1,72,2|0,3:0|0:0,0:0:0:0:
128,148,18804,1,0,0:0:0:0:
264,98,18987,2,0,P|230:85|194:85,1,72,2|0,3:0|0:0,0:0:0:0:
128,148,19353,1,0,0:0:0:0:
152,6,19536,2,0,P|124:29|106:59,1,72,2|0,3:0|0:0,0:0:0:0:
128,148,19902,1,0,0:0:0:0:
264,98,20085,6,0,P|230:85|194:85,1,72,2|0,3:0|0:0,0:0:0:0:
240,239,20450,2,0,P|233:204|216:173,1,72,2|0,3:0|0:0,0:0:0:0:
208,164,20725,1,0,0:0:0:0:
208,164,20816,6,0,P|274:185|334:149,1,144,2|0,3:0|0:0,0:0:0:0:
455,56,21365,2,0,P|440:88|435:123,1,72,2|0,3:0|0:0,0:0:0:0:
460,224,21731,1,0,0:0:0:0:
351,71,21914,2,0,P|316:70|283:85,1,72,2|0,3:0|0:0,0:0:0:0:
200,148,22280,1,0,0:0:0:0:
356,216,22463,2,0,P|350:180|335:148,1,72,2|0,3:0|0:0,0:0:0:0:
260,76,22828,1,0,0:0:0:0:
104,172,23011,6,0,P|139:173|174:165,1,72,2|0,3:0|0:0,0:0:0:0:
278,298,23377,2,0,P|243:290|208:292,1,72,2|0,3:0|0:0,0:0:0:0:
200,300,23652,1,0,0:0:0:0:
195,308,23743,6,0,P|160:309|124:302,1,72,2|0,3:0|0:0,0:0:0:0:
264,200,24109,1,0,0:0:0:0:
312,320,24292,2,0,P|287:346|257:365,1,72,2|0,3:0|0:0,0:0:0:0:
283,195,24658,1,0,0:0:0:0:
401,245,24841,2,0,P|402:280|395:316,1,72,2|0,3:0|0:0,0:0:0:0:
292,178,25207,1,0,0:0:0:0:
412,129,25389,2,0,P|438:153|457:183,1,72,2|0,3:0|0:0,0:0:0:0:
287,159,25755,1,0,0:0:0:0:
312,320,25938,5,2,3:0:0:0:
288,346,26029,1,0,0:0:0:0:
257,365,26121,1,2,0:3:0:0:
124,302,26304,2,0,P|141:307|159:309,1,36,2|0,3:0|0:0,0:0:0:0:
195,308,26487,2,0,P|210:299|224:288,1,36,2|0,0:3|0:0,0:0:0:0:
249,261,26670,6,0,P|259:218|261:173,1,90,6|0,0:0|0:0,0:0:0:0:
252,148,26944,1,0,0:0:0:0:
252,148,27036,2,0,P|250:125|253:103,1,45,8|0,0:0|0:0,0:0:0:0:
360,40,27219,2,0,P|362:62|361:84,1,45
332,216,27402,1,2,0:0:0:0:
444,148,27585,2,0,L|500:144,2,45,0|0|8,0:0|0:0|0:0,0:0:0:0:
360,248,27950,6,0,L|376:336,1,90,0|2,0:0|0:0,0:0:0:0:
220,216,28316,1,0,0:0:0:0:
232,208,28408,1,0,0:0:0:0:
244,200,28499,2,0,L|252:156,1,45,8|0,0:0|0:0,0:0:0:0:
352,100,28682,6,0,L|441:93,1,90,0|2,0:0|0:0,0:0:0:0:
232,40,29048,2,0,L|142:33,1,90,0|8,0:0|0:0,0:0:0:0:
24,79,29414,2,0,P|26:102|33:123,1,45
112,180,29597,6,0,P|109:202|102:223,3,45,2|0|0|0,0:0|0:0|0:0|0:0,0:0:0:0:
24,280,29963,2,0,P|26:302|33:323,1,45,8|0,0:0|0:0,0:0:0:0:
111,380,30146,2,0,L|199:364,1,90,2|2,0:0|0:0,0:0:0:0:
390,207,30511,1,0,0:0:0:0:
336,336,30694,1,8,0:0:0:0:
212,268,30877,6,0,P|195:226|196:181,1,90,0|2,0:0|0:0,0:0:0:0:
312,60,31243,1,0,0:0:0:0:
312,104,31335,1,0,0:0:0:0:
296,146,31426,1,8,0:0:0:0:
171,51,31609,2,0,P|127:48|83:58,1,90,0|2,0:0|0:0,0:0:0:0:
272,180,31975,2,0,P|316:183|360:173,1,90,0|8,0:0|0:0,0:0:0:0:
464,48,32341,5,0,0:0:0:0:
464,48,32432,1,0,0:0:0:0:
464,48,32524,1,2,0:0:0:0:
464,184,32707,2,0,P|452:164|443:144,1,45
360,84,32889,2,0,L|315:91,3,45,8|0|0|0,0:0|0:0|0:0|0:0,0:0:0:0:
231,147,33255,2,0,P|216:105|218:61,1,90,2|0,0:0|0:0,0:0:0:0:
360,173,33621,2,0,P|361:217|346:259,1,90,8|0,0:0|0:0,0:0:0:0:
116,279,33987,6,0,P|160:271|204:274,1,90,2|0,0:0|0:0,0:0:0:0:
220,284,34261,1,0,0:0:0:0:
232,296,34353,1,8,0:0:0:0:
360,173,34536,1,0,0:0:0:0:
396,272,34719,1,2,0:0:0:0:
256,176,34902,1,0,0:0:0:0:
468,136,35085,1,8,0:0:0:0:
292,275,35268,1,0,0:0:0:0:
292,275,35359,1,0,0:0:0:0:
292,275,35450,6,0,P|271:284|251:294,3,45,2|0|0|0,0:0|0:0|0:0|0:0,0:0:0:0:
204,352,35816,2,0,P|210:330|212:308,1,45,8|0,0:0|0:0,0:0:0:0:
112,172,35999,2,0,P|105:193|103:215,1,45
32,324,36182,1,2,0:0:0:0:
184,204,36365,1,0,0:0:0:0:
32,88,36548,1,8,0:0:0:0:
136,284,36731,6,0,P|179:295|223:291,1,90,0|2,0:0|0:0,0:0:0:0:
360,192,37097,1,0,0:0:0:0:
372,148,37188,1,0,0:0:0:0:
364,102,37280,2,0,L|320:92,1,45,8|0,0:0|0:0,0:0:0:0:
184,204,37463,2,0,L|228:194,1,45
240,16,37646,1,2,0:0:0:0:
237,38,37737,1,0,0:0:0:0:
234,60,37828,1,0,0:0:0:0:
232,83,37920,1,0,0:0:0:0:
229,105,38011,1,8,0:0:0:0:
60,24,38194,1,0,0:0:0:0:
144,168,38377,6,0,P|78:168|36:218,1,135.000005149842,4|2,0:0|0:0,0:0:0:0:
92,359,38926,2,0,P|99:344|103:328,1,33.7500012874604
128,256,39109,6,0,L|160:264,6,22.5,8|0|0|0|0|0|0,0:0|0:0|0:0|0:0|0:0|0:0|0:0,0:0:0:0:
188,288,39475,2,0,L|220:280,6,22.5
236,264,39841,6,0,P|278:278|310:309,1,90,4|0,3:0|0:0,0:0:0:0:
368,364,40115,2,0,P|359:320|370:276,1,90,4|0,3:0|0:0,0:0:0:0:
388,198,40389,2,0,P|372:215|354:228,1,45,4|0,3:0|0:0,0:0:0:0:
240,132,40572,1,8,0:0:0:0:
412,24,40755,1,2,0:0:0:0:
412,24,40847,1,4,0:3:0:0:
412,24,40938,6,0,L|416:91,1,67.5000025749208,4|0,0:3|0:0,0:0:0:0:
440,304,41304,2,0,L|455:288,1,22.5,2|0,0:0|0:0,0:0:0:0:
412,284,41396,2,0,L|421:263,1,22.5
378,274,41487,2,0,L|379:251,1,22.5
342,276,41578,2,0,L|336:254,1,22.5
309,290,41670,1,0,0:0:0:0:
159,252,41853,6,0,P|190:238|224:236,1,67.5000025749208,0|8,0:0|0:0,0:0:0:0:
304,147,42219,2,0,P|270:144|239:131,1,67.5000025749208
224,112,42493,1,0,0:0:0:0:
216,88,42585,2,0,P|215:71|220:55,1,33.7500012874604
380,116,42768,6,0,P|380:181|331:225,2,135,4|4|4,3:0|3:0|3:0,0:0:0:0:
400,336,43499,2,0,L|429:328,2,30,2|0|0,0:1|0:0|0:0,0:0:0:0:
304,292,43682,2,0,L|274:284,2,30,2|0|0,0:1|0:0|0:0,0:0:0:0:
424,252,43865,2,0,P|467:261|498:292,1,90,8|0,0:0|0:0,0:0:0:0:
200,356,44231,5,12,0:3:0:0:
196,311,44322,1,12,0:3:0:0:
192,266,44414,1,12,0:3:0:0:
188,221,44505,1,12,0:3:0:0:
184,176,44597,6,0,L|209:114,1,67.5000025749208
120,96,44963,1,8,0:0:0:0:
267,216,45146,2,0,P|218:259|152:260,1,135.000005149842,0|4,0:0|0:3,0:0:0:0:
24,188,45694,5,0,0:0:0:0:
20,200,45786,1,4,0:3:0:0:
16,212,45877,2,0,L|27:243,1,33.7500012874604,2|0,0:0|0:0,0:0:0:0:
120,96,46060,6,0,L|112:74,6,22.5,2|0|0|0|0|0|0,0:0|0:0|0:0|0:0|0:0|0:0|0:0,0:0:0:0:
108,56,46426,6,0,L|173:73,1,67.5000025749208,8|0,0:0|0:0,0:0:0:0:
256,192,46792,1,2,0:0:0:0:
312,56,46975,1,2,0:0:0:0:
376,248,47158,5,8,0:0:0:0:
256,192,47341,2,0,P|222:191|189:198,1,67.5000025749208
344,140,47707,2,0,P|377:139|410:146,1,67.5000025749208,0|2,0:0|0:0,0:0:0:0:
368,315,48072,2,0,L|375:247,1,67.5000025749208,0|2,0:0|0:0,0:0:0:0:
500,268,48438,1,0,0:0:0:0:
476,96,48621,6,0,L|454:103,6,22.5,2|0|0|0|0|0|0,0:0|0:0|0:0|0:0|0:0|0:0|0:0,0:0:0:0:
412,80,48987,2,0,L|390:87,6,22.5
347,64,49353,6,0,L|281:79,1,67.5000025749208,8|0,0:0|0:0,0:0:0:0:
260,104,49627,1,0,0:0:0:0:
260,104,49719,2,0,L|253:70,1,33.7500012874604
172,32,49902,2,0,L|165:65,1,33.7500012874604
183,183,50085,5,2,0:0:0:0:
190,195,50176,5,2,0:0:0:0:
200,214,50268,5,2,0:0:0:0:
204,245,50359,5,2,0:0:0:0:
197,284,50450,5,2,0:0:0:0:
166,323,50542,5,2,0:0:0:0:
111,344,50633,5,2,0:0:0:0:
45,324,50725,5,2,0:0:0:0:
6,257,50816,6,0,P|7:242|9:227,5,30,2|0|2|0|2|0,0:0|0:0|0:0|0:0|0:0|0:0,0:0:0:0:
64,164,51182,5,2,0:0:0:0:
141,177,51274,1,0,0:0:0:0:
219,190,51365,1,0,0:0:0:0:
296,203,51457,1,0,0:0:0:0:
374,216,51548,6,0,L|421:201,3,49.5000015106202,6|0|0|0,0:0|0:0|0:0|0:0,0:0:0:0:
480,308,51914,2,0,P|467:329|447:344,1,49.5000015106202,8|0,0:0|0:0,0:0:0:0:
328,360,52097,1,0,0:0:0:0:
328,360,52188,1,0,0:0:0:0:
328,360,52280,6,0,L|280:345,1,49.5000015106202,2|0,0:0|0:0,0:0:0:0:
128,276,52463,2,0,L|175:261,1,49.5000015106202,2|0,0:0|0:0,0:0:0:0:
328,192,52646,2,0,L|280:177,1,49.5000015106202,8|0,0:0|0:0,0:0:0:0:
128,108,52828,2,0,L|176:93,1,49.5000015106202
264,256,53011,5,2,0:0:0:0:
320,72,53194,1,0,0:0:0:0:
320,72,53286,1,0,0:0:0:0:
320,72,53377,2,0,L|316:22,1,49.5000015106202,8|0,0:0|0:0,0:0:0:0:
480,84,53560,2,0,L|483:133,1,49.5000015106202
472,260,53743,5,2,0:0:0:0:
444,280,53835,1,0,0:0:0:0:
412,288,53926,2,0,P|387:286|363:281,1,49.5000015106202,2|0,0:0|0:0,0:0:0:0:
200,224,54109,1,8,0:0:0:0:
228,204,54200,1,0,0:0:0:0:
260,196,54292,2,0,P|284:197|308:202,1,49.5000015106202
248,368,54475,6,0,L|254:318,3,49.5000015106202,2|0|0|0,0:0|0:0|0:0|0:0,0:0:0:0:
200,224,54841,2,0,L|193:273,1,49.5000015106202,8|0,0:0|0:0,0:0:0:0:
124,364,55024,5,0,0:0:0:0:
124,364,55115,1,0,0:0:0:0:
124,364,55207,2,0,L|130:314,1,49.5000015106202,2|0,0:0|0:0,0:0:0:0:
76,220,55389,1,2,0:0:0:0:
76,220,55481,1,0,0:0:0:0:
76,220,55572,6,0,L|69:269,1,49.5000015106202,8|0,0:0|0:0,0:0:0:0:
200,224,55755,2,0,L|193:273,1,49.5000015106202
324,228,55938,2,0,L|317:277,1,49.5000015106202,2|0,0:0|0:0,0:0:0:0:
156,128,56121,5,0,0:0:0:0:
156,95,56213,1,0,0:0:0:0:
169,65,56304,1,8,0:0:0:0:
193,42,56396,1,0,0:0:0:0:
224,31,56487,1,0,0:0:0:0:
257,33,56578,1,0,0:0:0:0:
286,47,56670,6,0,P|309:54|334:56,1,49.5000015106202,4|0,0:1|0:0,0:0:0:0:
156,128,56853,2,0,P|132:135|107:137,1,49.5000015106202,2|0,0:0|0:0,0:0:0:0:
308,136,57036,2,0,P|319:157|335:177,1,49.5000015106202,8|0,0:0|0:0,0:0:0:0:
182,49,57219,2,0,P|170:27|154:7,1,49.5000015106202
228,204,57402,6,0,L|220:253,3,49.5000015106202,2|0|0|0,0:0|0:0|0:0|0:0,0:0:0:0:
284,296,57768,2,0,L|235:285,1,49.5000015106202,8|0,0:0|0:0,0:0:0:0:
92,240,57950,1,0,0:0:0:0:
92,240,58042,1,0,0:0:0:0:
92,240,58133,2,0,L|140:229,1,49.5000015106202,2|0,0:0|0:0,0:0:0:0:
284,144,58316,6,0,P|284:168|276:192,1,49.5000015106202,2|0,0:0|0:0,0:0:0:0:
164,152,58499,2,0,P|142:140|125:121,1,49.5000015106202,8|0,0:0|0:0,0:0:0:0:
217,44,58682,2,0,P|238:31|262:26,1,49.5000015106202
467,89,58865,5,2,0:0:0:0:
276,192,59048,1,0,0:0:0:0:
276,192,59139,1,0,0:0:0:0:
276,192,59231,1,8,0:0:0:0:
312,56,59414,1,0,0:0:0:0:
402,237,59597,5,2,0:0:0:0:
426,231,59688,1,0,0:0:0:0:
449,224,59780,2,0,L|462:177,1,49.5000015106202
284,280,59963,5,8,0:0:0:0:
260,286,60054,1,0,0:0:0:0:
237,293,60146,2,0,L|224:340,1,49.5000015106202
419,348,60328,6,0,P|428:283|378:243,1,135.000005149842,6|0,0:0|0:0,0:0:0:0:
92,348,60877,2,0,P|78:317|82:284,1,67.5000025749208,8|0,0:0|0:0,0:0:0:0:
104,264,61152,1,0,0:0:0:0:
120,267,61243,6,0,P|136:266|153:263,1,33.7500012874604
248,268,61426,2,0,P|258:254|268:241,1,33.7500012874604,4|0,0:0|0:0,0:0:0:0:
339,178,61609,2,0,P|336:161|334:144,1,33.7500012874604
219,40,61792,2,0,L|216:108,1,67.5000025749208,0|2,3:0|0:0,0:0:0:0:
216,107,62341,6,0,L|167:118,1,49.5000015106202,2|0,0:0|0:0,0:0:0:0:
48,143,62524,1,8,0:0:0:0:
22,198,62615,1,0,0:0:0:0:
40,256,62707,1,0,0:0:0:0:
92,285,62798,1,0,0:0:0:0:
151,271,62889,2,0,P|172:258|190:241,1,49.5000015106202,8|8,0:0|0:0,0:0:0:0:
300,152,63072,2,0,P|282:135|261:122,1,49.5000015106202,8|8,0:0|0:0,0:0:0:0:
97,146,63255,6,0,L|47:142,3,49.5000015106202,6|0|0|0,0:0|0:0|0:0|0:0,0:0:0:0:
28,224,63621,2,0,P|21:200|21:176,1,49.5000015106202,8|0,0:0|0:0,0:0:0:0:
112,68,63804,5,0,0:0:0:0:
112,68,63896,1,0,0:0:0:0:
112,68,63987,2,0,P|118:91|118:115,1,49.5000015106202,2|0,0:0|0:0,0:0:0:0:
219,202,64170,1,2,0:0:0:0:
219,202,64261,1,0,0:0:0:0:
219,202,64353,2,0,P|207:223|189:240,1,49.5000015106202,8|0,0:0|0:0,0:0:0:0:
199,372,64536,2,0,P|175:378|151:378,1,49.5000015106202
24,356,64719,5,2,0:0:0:0:
108,240,64902,1,0,0:0:0:0:
108,240,64993,1,0,0:0:0:0:
108,240,65085,2,0,L|127:194,1,49.5000015106202,8|0,0:0|0:0,0:0:0:0:
24,84,65268,2,0,L|43:129,1,49.5000015106202
219,202,65450,6,0,P|243:199|266:190,3,49.5000015106202,2|0|2|0,0:0|0:0|0:0|0:0,0:0:0:0:
276,99,65816,1,8,0:0:0:0:
309,65,65908,1,0,0:0:0:0:
357,56,65999,1,0,0:0:0:0:
402,76,66091,1,0,0:0:0:0:
426,118,66182,6,0,L|420:167,1,49.5000015106202,2|0,0:0|0:0,0:0:0:0:
266,190,66365,2,0,L|271:239,1,49.5000015106202
426,261,66548,2,0,L|420:310,1,49.5000015106202,8|0,0:0|0:0,0:0:0:0:
266,332,66731,5,0,0:0:0:0:
266,332,66822,1,0,0:0:0:0:
266,332,66914,2,0,L|271:381,1,49.5000015106202,2|0,0:0|0:0,0:0:0:0:
266,190,67097,1,2,0:0:0:0:
266,190,67188,1,0,0:0:0:0:
266,190,67280,2,0,L|271:239,1,49.5000015106202,8|0,0:0|0:0,0:0:0:0:
266,48,67463,2,0,L|271:97,1,49.5000015106202
144,119,67646,2,0,L|149:168,1,49.5000015106202,2|0,0:0|0:0,0:0:0:0:
352,215,67828,5,0,0:0:0:0:
352,256,67920,1,0,0:0:0:0:
334,293,68011,1,8,0:0:0:0:
301,316,68103,1,0,0:0:0:0:
260,321,68194,1,0,0:0:0:0:
222,307,68286,1,0,0:0:0:0:
195,276,68377,6,0,L|245:279,1,49.5000015106202,4|0,0:1|0:0,0:0:0:0:
401,213,68560,2,0,L|351:215,1,49.5000015106202,2|0,0:0|0:0,0:0:0:0:
184,292,68743,2,0,L|233:294,1,49.5000015106202,8|0,0:0|0:0,0:0:0:0:
412,228,68926,2,0,L|362:230,1,49.5000015106202
216,148,69109,6,0,P|215:123|215:98,3,49.5000015106202,2|0|0|0,0:0|0:0|0:0|0:0,0:0:0:0:
216,20,69475,2,0,P|239:26|262:37,1,49.5000015106202,8|0,0:0|0:0,0:0:0:0:
132,88,69658,5,0,0:0:0:0:
116,108,69749,1,0,0:0:0:0:
91,119,69841,2,0,P|69:130|45:137,1,49.5000015106202,2|0,0:0|0:0,0:0:0:0:
160,232,70024,2,0,P|151:255|139:276,1,49.5000015106202,2|0,0:0|0:0,0:0:0:0:
287,263,70207,2,0,P|297:285|304:309,1,49.5000015106202,8|0,0:0|0:0,0:0:0:0:
399,195,70389,2,0,P|422:203|443:215,1,49.5000015106202
430,67,70572,5,2,0:0:0:0:
430,67,70664,1,0,0:0:0:0:
430,67,70755,2,0,P|452:56|476:49,1,49.5000015106202
399,195,70938,5,8,0:0:0:0:
399,195,71030,1,0,0:0:0:0:
399,195,71121,2,0,P|422:203|443:215,1,49.5000015106202
287,263,71304,5,2,0:0:0:0:
287,263,71396,1,0,0:0:0:0:
287,263,71487,2,0,P|297:285|304:309,1,49.5000015106202,2|0,0:0|0:0,0:0:0:0:
160,232,71670,6,0,P|151:255|139:276,1,49.5000015106202,8|0,0:0|0:0,0:0:0:0:
91,119,71853,2,0,P|69:130|45:137,1,49.5000015106202
296,120,72036,6,0,L|428:143,1,135.000005149842,4|0,0:0|0:0,0:0:0:0:
216,264,72585,2,0,L|149:252,1,67.5000025749208,8|0,0:0|0:0,0:0:0:0:
132,249,72859,1,0,0:0:0:0:
115,246,72950,2,0,L|112:212,1,33.7500012874604
192,172,73133,2,0,L|189:138,1,33.7500012874604,4|0,0:0|0:0,0:0:0:0:
269,98,73316,2,0,L|266:64,1,33.7500012874604
120,72,73499,5,2,0:0:0:0:
312,220,73682,1,8,0:0:0:0:
312,220,74048,5,2,0:0:0:0:
312,220,74139,1,0,0:0:0:0:
312,220,74231,2,0,P|337:219|361:212,1,49.5000015106202,8|0,0:0|0:0,0:0:0:0:
384,72,74414,2,0,P|372:94|367:118,1,49.5000015106202
476,208,74597,1,8,0:0:0:0:
469,197,74688,1,0,0:0:0:0:
462,187,74780,1,0,0:0:0:0:
453,178,74871,1,0,0:0:0:0:
443,169,74963,6,0,P|395:163|350:181,1,99.0000030212403,6|0,0:0|0:0,0:0:0:0:
184,240,75328,2,0,P|232:233|277:251,1,99.0000030212403,8|0,0:0|0:0,0:0:0:0:
403,245,75694,1,2,0:0:0:0:
252,125,75877,1,2,0:0:0:0:
224,316,76060,2,0,L|130:347,1,99.0000030212403,8|0,0:0|0:0,0:0:0:0:
32,188,76426,5,2,0:0:0:0:
148,256,76609,1,0,0:0:0:0:
171,248,76700,1,0,0:0:0:0:
194,240,76792,2,0,L|190:190,1,49.5000015106202,8|0,0:0|0:0,0:0:0:0:
100,72,76975,2,0,L|103:121,1,49.5000015106202
232,72,77158,5,2,0:0:0:0:
32,188,77341,1,2,0:0:0:0:
261,211,77524,1,8,0:0:0:0:
91,57,77707,1,0,0:0:0:0:
139,283,77889,5,12,0:0:0:0:
183,304,77981,1,2,0:0:0:0:
232,308,78072,2,0,P|257:306|280:299,1,49.5000015106202,2|0,0:0|0:0,0:0:0:0:
388,192,78255,1,0,0:0:0:0:
436,368,78438,1,8,0:0:0:0:
436,368,78530,1,0,0:0:0:0:
436,368,78621,1,0,0:0:0:0:
240,224,78804,5,2,0:0:0:0:
240,224,78896,1,2,0:0:0:0:
240,224,78987,2,0,L|242:174,1,49.5000015106202,8|0,0:0|0:0,0:0:0:0:
396,20,79170,2,0,L|398:69,1,49.5000015106202,8|0,0:0|0:0,0:0:0:0:
435,195,79353,6,0,P|411:195|387:191,1,49.5000015106202,12|0,0:1|0:0,0:0:0:0:
268,84,79536,2,0,L|264:60,2,24.7500007553101
240,223,79719,1,8,0:0:0:0:
203,256,79810,1,0,0:0:0:0:
155,267,79902,1,0,0:0:0:0:
108,253,79993,1,0,0:0:0:0:
73,219,80085,5,8,1:2:0:0:
109,186,80176,1,0,1:0:0:0:
157,175,80268,1,0,1:0:0:0:
204,189,80359,1,0,1:0:0:0:
239,223,80450,1,8,1:2:0:0:
274,257,80542,1,0,1:0:0:0:
321,271,80633,1,0,1:0:0:0:
369,260,80725,1,0,1:0:0:0:
404,227,80816,6,0,P|426:142|377:70,2,180,6|8|2,0:0|0:0|0:0,0:0:0:0:
324,160,81731,1,0,0:0:0:0:
352,344,81914,1,8,0:0:0:0:
200,256,82097,1,0,0:0:0:0:
155,251,82188,1,0,0:0:0:0:
113,265,82279,5,2,0:0:0:0:
292,192,82463,1,0,0:0:0:0:
160,336,82646,1,8,0:0:0:0:
320,296,82828,1,0,0:0:0:0:
176,120,83011,1,2,0:0:0:0:
80,160,83194,1,0,0:0:0:0:
80,160,83286,1,0,0:0:0:0:
80,160,83377,2,0,P|88:181|103:199,1,45,8|0,0:0|0:0,0:0:0:0:
258,183,83560,2,0,P|272:165|279:144,1,45
188,15,83743,6,0,P|144:12|101:24,1,90,2|0,0:0|0:0,0:0:0:0:
102,198,84109,1,8,0:0:0:0:
268,272,84292,2,0,L|257:182,1,90,0|2,0:0|0:0,0:0:0:0:
112,108,84658,2,0,L|101:197,1,90,0|8,0:0|0:0,0:0:0:0:
327,151,85024,6,0,P|299:117|256:106,1,90,0|2,0:0|0:0,0:0:0:0:
31,228,85389,2,0,P|59:262|102:273,1,90,0|8,0:0|0:0,0:0:0:0:
255,358,85755,1,0,0:0:0:0:
269,315,85846,1,0,0:0:0:0:
267,271,85937,5,2,0:0:0:0:
120,360,86121,1,0,0:0:0:0:
334,227,86304,1,8,0:0:0:0:
112,108,86487,1,0,0:0:0:0:
255,358,86670,1,6,0:0:0:0:
256,192,86761,12,2,87768,0:0:0:0:
