osu file format v14

[General]
AudioFilename: audio.mp3
AudioLeadIn: 0
PreviewTime: 51091
Countdown: 0
SampleSet: Soft
StackLeniency: 0.7
Mode: 0
LetterboxInBreaks: 0
WidescreenStoryboard: 0

[Editor]
Bookmarks: 9109,14963,26670,38377,50085,51548,80816
DistanceSpacing: 1
BeatDivisor: 4
GridSize: 4
TimelineZoom: 1

[Metadata]
Title:Original. -TV Ver-
TitleUnicode:オリジナル。-TV Ver-
Artist:TrySail
ArtistUnicode:TrySail
Creator:Meg
Version:Akitoshi's Normal
Source:亜人ちゃんは語りたい
Tags:Demi chan wa Kataritai Katari tai opening iMage-- Akitoshi Yuria 麻倉もも 雨宮天 夏川椎菜 Asakura Momo Amamiya Sora Natsukawa Shiina
BeatmapID:1214408
BeatmapSetID:572804

[Difficulty]
HPDrainRate:4
CircleSize:3.3
OverallDifficulty:4
ApproachRate:5
SliderMultiplier:1.01
SliderTickRate:1

[Events]
//Background and Video events
Video,0,"video.avi"
0,0,"demi.jpg",0,0
//Break Periods
//Storyboard Layer 0 (Background)
//Storyboard Layer 1 (Fail)
//Storyboard Layer 2 (Pass)
//Storyboard Layer 3 (Foreground)
//Storyboard Sound Samples

[TimingPoints]
329,365.853658536585,4,2,3,60,1,0
877,-100,4,2,3,55,0,0
1426,-100,4,2,3,50,0,0
1975,-100,4,2,3,45,0,0
3255,-100,4,2,3,50,0,0
7463,-100,4,2,1,60,0,0
8377,-100,4,2,2,60,0,0
9109,-100,4,2,1,60,0,0
14963,-100,4,2,5,50,0,0
26670,-100,4,2,1,60,0,0
33987,-100,4,2,2,60,0,0
34078,-100,4,2,1,60,0,0
50085,-100,4,2,0,60,0,0
51548,-100,4,2,1,80,0,1
80816,-100,4,2,1,70,0,0
87768,-100,4,2,2,70,0,0

[Colours]
Combo1 : 255,112,64
Combo2 : 255,255,0
Combo3 : 0,255,128
Combo4 : 0,255,255

[HitObjects]
217,92,329,6,0,B|113:83|113:83|43:103,2,151.5,2|2|2,0:0|0:0|0:0,0:0:0:0:
366,116,1975,1,2,0:0:0:0:
475,221,2524,2,0,L|466:334,1,101,2|2,0:0|0:0,0:0:0:0:
371,355,3255,6,0,P|319:361|269:341,1,101,2|0,0:0|0:0,0:0:0:0:
201,273,3987,2,0,P|195:221|215:171,1,101,2|0,0:0|0:0,0:0:0:0:
298,124,4719,2,0,L|294:14,1,101,2|0,0:0|0:0,0:0:0:0:
395,17,5450,2,0,L|399:127,1,101,2|0,0:0|0:0,0:0:0:0:
351,207,6182,6,0,P|296:223|232:195,1,101,2|0,0:0|0:0,0:0:0:0:
159,177,6914,2,0,L|53:182,1,101,2|0,0:0|0:0,0:0:0:0:
15,209,7463,1,8,0:0:0:0:
15,208,9109,6,0,B|7:159|7:159|26:99,1,101,6|8,0:0|0:0,0:0:0:0:
112,64,9841,2,0,P|112:29|115:4,2,50.5,2|2|8,0:0|0:0|0:0,0:0:0:0:
145,101,10389,2,0,L|275:93,1,101,2|2,0:0|0:0,0:0:0:0:
295,105,10938,1,8,0:0:0:0:
384,152,11304,2,0,P|393:188|394:221,1,50.5,2|2,0:0|0:0,0:0:0:0:
350,227,11670,2,0,P|341:263|340:296,1,50.5,8|0,0:0|0:0,0:0:0:0:
346,326,12036,6,0,P|299:306|223:309,1,101,2|8,0:0|0:0,0:0:0:0:
149,318,12768,2,0,L|144:375,2,50.5,2|2|8,0:0|0:0|0:0,0:0:0:0:
161,269,13316,2,0,P|114:289|38:286,1,101,2|2,0:0|0:0,0:0:0:0:
17,272,13865,1,8,0:0:0:0:
0,172,14231,2,0,L|2:113,1,50.5,2|2,0:0|0:0,0:0:0:0:
46,96,14597,2,0,L|48:37,1,50.5,8|0,0:0|0:0,0:0:0:0:
93,22,14963,6,0,P|142:41|203:35,1,101,6|0,3:0|0:0,0:0:0:0:
238,24,15511,1,0,0:0:0:0:
238,24,15694,2,0,B|257:70|257:70|250:155,1,101,0|2,0:0|3:0,0:0:0:0:
239,221,16426,2,0,B|193:240|193:240|108:233,2,101,0|0|2,0:0|0:0|3:0,0:0:0:0:
331,180,17524,1,2,3:0:0:0:
429,202,17889,6,0,L|425:322,1,101,2|0,3:0|0:0,0:0:0:0:
421,353,18438,1,2,3:0:0:0:
421,353,18621,2,0,P|373:361|305:340,1,101,0|2,0:0|3:0,0:0:0:0:
233,301,19353,2,0,L|237:181,2,101,0|0|2,0:0|0:0|3:0,0:0:0:0:
141,343,20450,1,2,3:0:0:0:
51,295,20816,6,0,P|40:246|62:184,1,101,2|0,3:0|0:0,0:0:0:0:
96,107,21548,1,0,0:0:0:0:
193,80,21914,1,2,3:0:0:0:
288,112,22280,2,0,L|422:105,2,101,0|0|2,0:0|0:0|3:0,0:0:0:0:
234,197,23377,1,2,3:0:0:0:
281,285,23743,6,0,P|338:295|396:275,1,101,2|0,3:0|0:0,0:0:0:0:
459,223,24475,1,0,0:0:0:0:
495,128,24841,1,2,3:0:0:0:
438,44,25207,2,0,L|326:40,2,101,0|0|2,0:0|0:0|3:0,0:0:0:0:
495,128,26304,1,2,3:0:0:0:
459,223,26670,6,0,L|453:340,1,101,6|8,0:0|0:0,0:0:0:0:
449,374,27219,1,0,0:0:0:0:
449,374,27402,2,0,P|398:355|342:356,1,101,2|8,0:0|0:0,0:0:0:0:
251,360,28133,2,0,L|245:243,1,101,2|8,0:0|0:0,0:0:0:0:
242,208,28682,1,0,0:0:0:0:
242,208,28865,2,0,B|190:215|190:215|127:206,1,101,2|8,0:0|0:0,0:0:0:0:
43,182,29597,6,0,L|50:70,1,101,2|8,0:0|0:0,0:0:0:0:
73,36,30146,1,0,0:0:0:0:
73,36,30328,2,0,P|117:47|174:41,1,101,2|8,0:0|0:0,0:0:0:0:
272,31,31060,2,0,B|283:77|283:77|276:149,1,101,2|8,0:0|0:0,0:0:0:0:
274,181,31609,1,0,0:0:0:0:
274,181,31792,2,0,P|321:196|384:185,1,101,2|8,0:0|0:0,0:0:0:0:
448,123,32524,6,0,P|470:165|465:230,1,101,2|8,0:0|0:0,0:0:0:0:
412,300,33255,1,2,0:0:0:0:
315,331,33621,1,8,0:0:0:0:
229,276,33987,2,0,L|109:284,2,101,2|8|2,0:0|0:0|0:0,0:0:0:0:
286,192,35085,1,8,0:0:0:0:
242,100,35450,6,0,P|202:66|139:60,1,101,2|8,0:0|0:0,0:0:0:0:
106,69,35999,2,0,L|100:176,1,101,0|0,0:0|0:0,0:0:0:0:
97,220,36548,1,8,0:0:0:0:
147,307,36914,2,0,B|197:316|197:316|256:305,1,101,2|8,0:0|0:0,0:0:0:0:
284,273,37463,2,0,L|403:276,1,101,0|0,0:0|0:0,0:0:0:0:
435,281,38011,1,8,0:0:0:0:
499,201,38377,6,0,B|507:151|507:151|493:99,1,101,4|2,0:0|0:0,0:0:0:0:
404,54,39109,2,0,B|364:70|328:47|328:47|312:83|250:92,1,151.5,8|0,0:0|0:0,0:0:0:0:
222,94,39841,2,0,L|214:11,2,75.75,4|4|4,3:0|3:0|3:0,0:0:0:0:
193,135,40572,2,0,B|142:149|142:149|80:146,1,101,8|0,0:0|0:0,0:0:0:0:
14,83,41304,6,0,P|43:150|26:242,1,151.5,2|0,0:0|0:0,0:0:0:0:
23,276,42036,2,0,L|144:269,1,101,8|0,0:0|0:0,0:0:0:0:
204,209,42768,2,0,B|196:167|196:167|195:121,2,75.75,4|4|4,3:0|3:0|3:0,0:0:0:0:
232,250,43499,2,0,P|270:223|326:219,1,101,2|8,0:1|0:0,0:0:0:0:
421,241,44231,6,0,L|419:308,2,50.5,12|12|0,0:3|0:3|0:0,0:0:0:0:
398,142,44963,2,0,P|358:118|282:120,1,101,8|0,0:0|0:0,0:0:0:0:
254,119,45511,2,0,L|246:36,2,75.75,4|4|2,0:3|0:3|0:0,0:0:0:0:
170,175,46426,2,0,L|51:172,1,101,8|2,0:0|0:0,0:0:0:0:
21,154,46975,1,2,0:0:0:0:
21,154,47158,6,0,P|13:101|27:55,1,101,8|0,0:0|0:0,0:0:0:0:
118,14,47889,1,2,0:0:0:0:
219,14,48255,1,2,0:0:0:0:
284,90,48621,2,0,L|403:81,1,101,2|0,0:0|0:0,0:0:0:0:
473,131,49353,2,0,B|497:190|475:228|447:279|482:336,1,202,8|2,0:0|0:0,0:0:0:0:
477,328,51548,6,0,P|436:296|367:296,1,101,6|8,0:0|0:0,0:0:0:0:
347,320,52097,2,0,L|237:316,1,101,0|2,0:0|0:0,0:0:0:0:
195,311,52646,1,8,0:0:0:0:
119,248,53011,2,0,B|110:199|110:199|118:143,1,101,2|8,0:0|0:0,0:0:0:0:
133,100,53560,2,0,P|182:111|238:98,1,101,0|2,0:0|0:0,0:0:0:0:
278,81,54109,1,8,0:0:0:0:
355,16,54475,6,0,P|376:61|367:127,1,101,2|8,0:0|0:0,0:0:0:0:
343,152,55024,2,0,L|356:252,1,101,0|2,0:0|0:0,0:0:0:0:
361,302,55572,1,8,0:0:0:0:
279,361,55938,2,0,B|228:366|228:366|169:348,1,101,2|8,0:0|0:0,0:0:0:0:
88,308,56670,1,4,0:1:0:0:
52,213,57036,1,8,0:0:0:0:
105,127,57402,6,0,P|152:113|208:124,1,101,2|8,0:0|0:0,0:0:0:0:
242,151,57950,2,0,L|356:141,1,101,0|2,0:0|0:0,0:0:0:0:
392,135,58499,1,8,0:0:0:0:
447,219,58865,2,0,B|462:268|462:268|453:328,1,101,2|8,0:0|0:0,0:0:0:0:
353,324,59597,2,0,B|338:275|338:275|345:225,1,101,2|8,0:0|0:0,0:0:0:0:
392,135,60328,6,0,L|381:34,1,101,6|0,0:0|0:0,0:0:0:0:
336,10,60877,2,0,P|284:29|230:26,1,101,8|0,0:0|0:0,0:0:0:0:
188,23,61426,2,0,B|177:73|177:73|187:133,1,101,4|0,0:0|3:0,0:0:0:0:
196,171,61975,2,0,P|144:190|90:187,1,101,2|2,0:0|0:0,0:0:0:0:
51,172,62524,1,8,0:0:0:0:
3,260,62889,1,8,0:0:0:0:
65,339,63255,6,0,L|172:332,1,101,6|8,0:0|0:0,0:0:0:0:
215,319,63804,2,0,B|222:269|222:269|207:200,1,101,0|2,0:0|0:0,0:0:0:0:
196,171,64353,1,8,0:0:0:0:
194,69,64719,2,0,P|225:44|297:41,1,101,2|8,0:0|0:0,0:0:0:0:
325,66,65268,2,0,L|434:56,1,101,0|2,0:0|0:0,0:0:0:0:
475,52,65816,1,8,0:0:0:0:
502,149,66182,6,0,P|508:200|504:253,1,101,2|8,0:0|0:0,0:0:0:0:
475,291,66731,2,0,B|429:281|429:281|371:288,1,101,0|2,0:0|0:0,0:0:0:0:
325,295,67280,1,8,0:0:0:0:
226,273,67646,2,0,P|208:230|209:168,1,101,2|8,0:0|0:0,0:0:0:0:
226,77,68377,1,4,0:1:0:0:
135,32,68743,1,8,0:0:0:0:
44,76,69109,6,0,L|42:187,1,101,2|8,0:0|0:0,0:0:0:0:
45,227,69658,2,0,P|93:246|145:238,1,101,0|2,0:0|0:0,0:0:0:0:
185,215,70207,1,8,0:0:0:0:
268,158,70572,2,0,L|390:165,1,101,2|8,0:0|0:0,0:0:0:0:
468,181,71304,1,2,0:0:0:0:
505,274,71670,1,8,0:0:0:0:
444,354,72036,6,0,B|387:362|387:362|330:350,1,101,4|0,0:0|0:0,0:0:0:0:
301,325,72585,2,0,L|191:328,1,101,8|0,0:0|0:0,0:0:0:0:
149,326,73133,2,0,P|144:272|137:222,1,101,4|2,0:0|0:0,0:0:0:0:
95,197,73682,2,0,P|100:143|107:93,1,101,8|2,0:0|0:0,0:0:0:0:
143,61,74231,1,8,0:0:0:0:
237,25,74597,1,8,0:0:0:0:
325,73,74963,6,0,L|442:68,1,101,6|8,0:0|0:0,0:0:0:0:
433,169,75694,2,0,L|316:174,1,101,2|8,0:0|0:0,0:0:0:0:
231,181,76426,1,2,0:0:0:0:
167,259,76792,1,8,0:0:0:0:
231,336,77158,2,0,P|276:347|338:335,1,101,2|8,0:0|0:0,0:0:0:0:
409,277,77889,6,0,L|397:165,1,101,12|0,0:0|0:0,0:0:0:0:
371,78,78621,1,0,0:0:0:0:
274,46,78987,1,8,0:0:0:0:
180,84,79353,2,0,L|75:89,1,101,12|8,0:1|0:0,0:0:0:0:
8,160,80085,2,0,P|7:186|9:216,1,50.5,8|0,1:2|1:0,0:0:0:0:
51,236,80450,2,0,P|52:262|50:292,1,50.5,8|0,1:2|1:0,0:0:0:0:
34,334,80816,6,0,P|92:322|156:329,1,101,6|8,0:0|0:0,0:0:0:0:
228,359,81548,1,2,0:0:0:0:
326,338,81914,1,8,0:0:0:0:
382,254,82280,2,0,L|377:191,1,50.5,2|0,0:0|0:0,0:0:0:0:
339,170,82646,2,0,L|344:107,1,50.5,8|0,0:0|0:0,0:0:0:0:
357,71,83011,2,0,B|302:76|302:76|242:66,1,101,2|8,0:0|0:0,0:0:0:0:
170,15,83743,6,0,P|156:55|168:117,1,101,2|8,0:0|0:0,0:0:0:0:
220,196,84475,1,2,0:0:0:0:
197,294,84841,1,8,0:0:0:0:
102,329,85207,2,0,P|53:317|15:277,1,101,2|8,0:0|0:0,0:0:0:0:
3,182,85938,1,2,0:0:0:0:
49,92,86304,1,8,0:0:0:0:
141,52,86670,6,0,B|242:27|229:88|362:69|362:69|319:54|292:18,1,303,6|2,0:0|0:0,0:0:0:0:
