osu file format v14

[General]
AudioFilename: audio.mp3
AudioLeadIn: 0
PreviewTime: 51091
Countdown: 0
SampleSet: Soft
StackLeniency: 0.7
Mode: 0
LetterboxInBreaks: 0
WidescreenStoryboard: 0

[Editor]
Bookmarks: 9109,14963,26670,38377,50085,51548,80816
DistanceSpacing: 1.5
BeatDivisor: 4
GridSize: 4
TimelineZoom: 1

[Metadata]
Title:Original. -TV Ver-
TitleUnicode:オリジナル。-TV Ver-
Artist:TrySail
ArtistUnicode:TrySail
Creator:Meg
Version:Hard
Source:亜人ちゃんは語りたい
Tags:Demi chan wa Kataritai Katari tai opening iMage-- Akitoshi Yuria 麻倉もも 雨宮天 夏川椎菜 Asakura Momo Amamiya Sora Natsukawa Shiina
BeatmapID:1214409
BeatmapSetID:572804

[Difficulty]
HPDrainRate:5
CircleSize:3.8
OverallDifficulty:6
ApproachRate:7.5
SliderMultiplier:1.3
SliderTickRate:1

[Events]
//Background and Video events
Video,0,"video.avi"
0,0,"demi.jpg",0,0
//Break Periods
//Storyboard Layer 0 (Background)
//Storyboard Layer 1 (Fail)
//Storyboard Layer 2 (Pass)
//Storyboard Layer 3 (Foreground)
//Storyboard Sound Samples

[TimingPoints]
329,365.853658536585,4,2,3,60,1,0
329,-125,4,2,3,60,0,0
877,-125,4,2,3,55,0,0
1426,-125,4,2,3,50,0,0
1975,-125,4,2,3,45,0,0
3255,-125,4,2,3,50,0,0
7463,-125,4,2,1,60,0,0
8377,-125,4,2,2,60,0,0
9109,-100,4,2,1,60,0,0
14963,-125,4,2,5,50,0,0
26670,-100,4,2,1,60,0,0
33987,-100,4,2,2,60,0,0
34078,-100,4,2,1,60,0,0
38377,-100,4,2,1,60,0,0
39109,-125,4,2,1,60,0,0
40847,-125,4,2,1,60,0,0
41304,-125,4,2,1,60,0,0
41853,-125,4,2,1,60,0,0
42768,-125,4,2,1,60,0,0
44597,-125,4,2,1,60,0,0
46060,-125,4,2,1,60,0,0
46426,-125,4,2,1,60,0,0
48621,-125,4,2,1,60,0,0
49353,-125,4,2,1,60,0,0
50085,-100,4,2,3,30,0,0
50268,-100,4,2,3,40,0,0
50450,-100,4,2,3,50,0,0
50633,-100,4,2,3,60,0,0
50816,-100,4,2,3,70,0,0
51182,-100,4,2,2,70,0,0
51548,-100,4,2,1,80,0,1
60328,-100,4,2,1,80,0,1
62341,-100,4,2,1,80,0,1
72036,-100,4,2,1,80,0,1
74231,-100,4,2,1,80,0,1
80816,-100,4,2,1,70,0,0
86670,-100,4,2,1,70,0,0
87768,-100,4,2,2,70,0,0

[Colours]
Combo1 : 255,112,64
Combo2 : 255,255,0
Combo3 : 0,255,128
Combo4 : 0,255,255

[HitObjects]
297,234,329,6,0,L|349:243,2,52,2|0|0,0:0|0:0|0:0,0:0:0:0:
214,233,877,2,0,L|205:285,2,52,2|0|0,0:0|0:0|0:0,0:0:0:0:
215,150,1426,2,0,L|163:141,2,52,2|0|0,0:0|0:0|0:0,0:0:0:0:
298,151,1975,2,0,L|307:99,2,52,2|0|0,0:0|0:0|0:0,0:0:0:0:
214,233,2524,6,0,L|205:285,2,52,2|0|2,0:0|0:0|0:0,0:0:0:0:
332,349,3255,6,0,P|381:334|433:340,1,104,2|0,0:0|0:0,0:0:0:0:
501,188,3987,2,0,P|451:202|399:196,1,104,2|0,0:0|0:0,0:0:0:0:
235,215,4719,2,0,P|210:171|201:120,1,104,2|0,0:0|0:0,0:0:0:0:
52,44,5450,2,0,P|43:95|17:139,1,104,2|0,0:0|0:0,0:0:0:0:
24,308,6182,6,0,P|112:345|161:263,1,208,2|2,0:0|0:0,0:0:0:0:
304,59,7463,2,0,P|353:73|382:115,1,104,8|0,0:0|0:0,0:0:0:0:
388,200,8011,2,0,L|375:250,1,52,0|0,0:0|0:0,0:0:0:0:
392,332,8377,6,0,L|376:336,6,13,2|0|0|0|0|0|0,0:0|0:0|0:0|0:0|0:0|0:0|0:0,0:0:0:0:
352,340,8743,2,0,L|326:333,3,26,0|0|0|0,0:0|0:0|0:0|0:0,0:0:0:0:
291,304,9109,6,0,P|260:311|230:324,1,65,6|0,0:0|0:0,0:0:0:0:
148,364,9475,2,0,L|137:299,1,65,8|0,0:0|0:0,0:0:0:0:
72,235,9841,2,0,P|124:201|135:139,1,130,2|8,0:0|0:0,0:0:0:0:
96,56,10389,1,2,0:0:0:0:
96,56,10572,6,0,L|160:44,1,65,0|2,0:0|0:0,0:0:0:0:
216,116,10938,2,0,L|280:104,1,65,8|0,0:0|0:0,0:0:0:0:
304,16,11304,2,0,L|368:4,1,65,2|2,0:0|0:0,0:0:0:0:
424,76,11670,2,0,L|488:64,1,65,8|0,0:0|0:0,0:0:0:0:
504,156,12036,6,0,B|480:216|480:216|493:279,1,130,2|8,0:0|0:0,0:0:0:0:
462,366,12585,2,0,P|399:354|335:361,1,130,0|2,0:0|0:0,0:0:0:0:
244,352,13133,1,8,0:0:0:0:
168,303,13316,6,0,P|189:280|219:268,1,65,2|0,0:0|0:0,0:0:0:0:
296,216,13682,2,0,P|274:192|244:180,1,65,2|8,0:0|0:0,0:0:0:0:
164,140,14048,1,0,0:0:0:0:
84,188,14231,1,2,0:0:0:0:
84,188,14414,1,2,0:0:0:0:
84,96,14597,1,8,0:0:0:0:
84,96,14780,1,0,0:0:0:0:
164,140,14963,6,0,P|215:137|261:113,1,104,6|0,3:0|0:0,0:0:0:0:
308,44,15511,2,0,P|359:46|405:70,1,104,2|0,3:0|0:0,0:0:0:0:
479,104,16060,2,0,P|461:152|455:204,1,104,2|0,3:0|0:0,0:0:0:0:
487,280,16609,2,0,P|437:286|393:259,1,104,2|0,3:0|0:0,0:0:0:0:
315,232,17158,2,0,P|292:243|272:259,1,52,2|0,3:0|0:0,0:0:0:0:
188,252,17524,2,0,P|179:276|176:302,1,52,2|0,3:0|0:0,0:0:0:0:
228,368,17889,6,0,L|331:357,1,104,2|0,3:0|0:0,0:0:0:0:
416,356,18438,2,0,P|431:306|436:254,1,104,2|0,3:0|0:0,0:0:0:0:
459,176,18987,2,0,P|412:159|390:113,1,104,2|0,3:0|0:0,0:0:0:0:
356,40,19536,2,0,L|252:50,1,104,2|0,3:0|0:0,0:0:0:0:
172,32,20085,2,0,P|169:57|174:83,1,52,2|0,3:0|0:0,0:0:0:0:
244,132,20450,2,0,P|246:157|241:183,1,52,2|0,3:0|0:0,0:0:0:0:
158,197,20816,6,0,P|107:198|60:219,1,104,2|0,3:0|0:0,0:0:0:0:
28,297,21365,2,0,P|54:341|96:371,1,104,2|0,3:0|0:0,0:0:0:0:
179,361,21914,2,0,P|204:315|209:264,1,104,2|0,3:0|0:0,0:0:0:0:
158,197,22463,2,0,P|132:151|127:100,1,104,2|0,3:0|0:0,0:0:0:0:
194,51,23011,2,0,P|219:57|243:66,1,52,2|0,3:0|0:0,0:0:0:0:
294,132,23377,2,0,P|269:138|245:147,1,52,2|0,3:0|0:0,0:0:0:0:
238,230,23743,6,0,L|231:333,1,104,2|0,3:0|0:0,0:0:0:0:
314,345,24292,2,0,L|320:241,1,104,2|0,3:0|0:0,0:0:0:0:
402,252,24841,2,0,L|396:356,1,104,2|0,3:0|0:0,0:0:0:0:
478,367,25389,2,0,L|484:263,1,104,2|0,3:0|0:0,0:0:0:0:
464,182,25938,2,0,P|467:169|472:157,2,26,2|0|2,3:0|0:0|0:3,0:0:0:0:
394,227,26304,2,0,P|397:239|402:251,2,26,2|0|2,3:0|0:0|0:3,0:0:0:0:
327,176,26670,6,0,L|262:166,1,65,6|0,0:0|0:0,0:0:0:0:
169,216,27036,2,0,P|162:247|163:279,2,65,8|0|2,0:0|0:0|0:0,0:0:0:0:
174,111,27585,2,0,P|174:78|167:47,1,65,0|8,0:0|0:0,0:0:0:0:
73,91,27950,6,0,P|72:123|79:154,1,65,0|2,0:0|0:0,0:0:0:0:
84,259,28316,2,0,L|19:247,1,65,0|8,0:0|0:0,0:0:0:0:
7,351,28682,2,0,P|39:349|71:339,1,65,0|2,0:0|0:0,0:0:0:0:
166,299,29048,2,0,P|198:300|230:310,1,65,0|8,0:0|0:0,0:0:0:0:
325,352,29414,1,0,0:0:0:0:
426,336,29597,6,0,P|458:280|463:215,2,130,2|8|2,0:0|0:0|0:0,0:0:0:0:
325,352,30511,1,0,0:0:0:0:
325,352,30694,1,8,0:0:0:0:
337,248,30877,6,0,P|304:250|272:256,1,65,0|2,0:0|0:0,0:0:0:0:
176,296,31243,2,0,P|169:264|167:231,1,65,0|8,0:0|0:0,0:0:0:0:
128,135,31609,2,0,P|159:128|192:126,1,65,0|2,0:0|0:0,0:0:0:0:
289,87,31975,2,0,P|295:118|297:151,1,65,0|8,0:0|0:0,0:0:0:0:
337,248,32341,6,0,P|368:254|401:256,1,65,0|2,0:0|0:0,0:0:0:0:
429,357,32707,1,0,0:0:0:0:
489,272,32889,2,0,P|496:207|498:142,1,130,8|2,0:0|0:0,0:0:0:0:
465,42,33438,1,0,0:0:0:0:
465,42,33621,2,0,P|433:45|402:53,1,65,8|0,0:0|0:0,0:0:0:0:
322,123,33987,6,0,P|281:76|217:69,1,130,2|8,0:0|0:0,0:0:0:0:
150,150,34536,1,0,0:0:0:0:
221,225,34719,1,2,0:0:0:0:
150,301,34902,2,0,P|130:276|119:246,2,65,0|8|0,0:0|0:0|0:0,0:0:0:0:
221,225,35450,5,2,0:0:0:0:
318,256,35633,2,0,P|348:243|379:231,1,65,0|8,0:0|0:0,0:0:0:0:
462,167,35999,2,0,P|432:154|401:142,1,65,0|2,0:0|0:0,0:0:0:0:
300,169,36365,1,0,0:0:0:0:
300,169,36548,1,8,0:0:0:0:
217,105,36731,6,0,P|221:72|224:40,1,65,0|2,0:0|0:0,0:0:0:0:
120,32,37097,2,0,P|89:44|60:57,1,65,0|8,0:0|0:0,0:0:0:0:
105,152,37463,2,0,P|130:171|156:191,1,65,0|2,0:0|0:0,0:0:0:0:
217,105,37828,1,0,0:0:0:0:
305,158,38011,2,0,P|328:218|310:279,1,130,8|4,0:0|0:0,0:0:0:0:
117,310,38743,5,2,0:0:0:0:
15,154,39109,2,0,P|12:103|29:54,1,104,8|0,0:0|0:0,0:0:0:0:
106,25,39658,1,0,0:0:0:0:
106,25,39841,6,0,L|183:29,2,78,4|4|4,3:0|3:0|3:0,0:0:0:0:
93,107,40572,1,8,0:0:0:0:
147,170,40755,2,0,P|147:182|147:195,2,26,2|4|0,0:0|0:3|0:0,0:0:0:0:
212,118,41121,1,0,0:0:0:0:
212,117,41304,6,0,P|263:116|312:134,1,104,2|0,0:0|0:0,0:0:0:0:
361,201,41853,2,0,P|386:201|412:197,1,52,0|8,0:0|0:0,0:0:0:0:
447,121,42219,2,0,P|421:120|395:124,1,52,0|0,0:0|0:0,0:0:0:0:
312,134,42585,1,0,0:0:0:0:
312,134,42768,6,0,L|323:56,2,78,4|4|4,3:0|3:0|3:0,0:0:0:0:
275,208,43499,2,0,P|251:197|225:194,1,52,2|2,0:1|0:1,0:0:0:0:
162,249,43865,2,0,P|138:259|112:262,1,52,8|0,0:0|0:0,0:0:0:0:
34,232,44231,6,0,L|37:206,3,26,12|12|12|12,0:3|0:3|0:3|0:3,0:0:0:0:
54,168,44597,2,0,L|44:116,1,52,0|0,0:0|0:0,0:0:0:0:
31,34,44963,1,8,0:0:0:0:
31,34,45146,2,0,L|82:25,1,52
137,86,45511,6,0,P|159:53|164:15,2,78,4|4|2,0:3|0:3|0:0,0:0:0:0:
133,169,46243,1,0,0:0:0:0:
133,169,46426,2,0,P|183:159|235:164,1,104,8|2,0:0|0:0,0:0:0:0:
304,210,46975,6,0,P|310:184|315:159,1,52,2|8,0:0|0:0,0:0:0:0:
387,116,47341,2,0,P|392:141|398:166,1,52,0|0,0:0|0:0,0:0:0:0:
449,232,47707,2,0,P|425:243|400:249,1,52,0|2,0:0|0:0,0:0:0:0:
355,319,48072,2,0,P|331:307|306:301,1,52,0|2,0:0|0:0,0:0:0:0:
225,320,48438,6,0,P|230:270|264:231,1,104
332,182,48987,1,2,0:0:0:0:
332,182,49170,2,0,P|338:157|338:131,1,52,0|8,0:0|0:0,0:0:0:0:
263,96,49536,2,0,P|256:121|256:147,1,52,0|0,0:0|0:0,0:0:0:0:
263,230,49902,1,0,0:0:0:0:
192,274,50085,6,0,L|173:247,3,32.5,2|2|2|2,0:0|0:0|0:0|0:0,0:0:0:0:
176,194,50450,2,0,L|157:167,3,32.5,2|2|2|2,0:0|0:0|0:0|0:0,0:0:0:0:
161,115,50816,2,0,L|148:97,5,21.6666666666667,2|0|2|0|2|0,0:0|0:0|0:0|0:0|0:0|0:0,0:0:0:0:
152,44,51182,2,0,L|133:17,3,32.5,2|0|0|0,0:0|0:0|0:0|0:0,0:0:0:0:
79,17,51548,6,0,P|29:53|34:115,1,130,6|8,0:0|0:0,0:0:0:0:
32,219,52097,2,0,P|64:218|95:226,1,65,0|2,0:0|0:0,0:0:0:0:
139,130,52463,2,0,P|171:131|202:123,1,65,2|8,0:0|0:0,0:0:0:0:
291,68,52828,6,0,P|304:130|280:189,1,130,0|0,0:0|0:0,0:0:0:0:
204,261,53377,1,8,0:0:0:0:
269,341,53560,2,0,P|332:352|392:331,1,130,0|2,0:0|0:0,0:0:0:0:
495,341,54109,2,0,P|488:310|483:278,1,65,8|0,0:0|0:0,0:0:0:0:
497,174,54475,6,0,B|440:172|405:206|405:206|395:195|381:187,1,130,2|8,0:0|0:0,0:0:0:0:
285,147,55024,2,0,P|263:171|253:201,1,65,0|2,0:0|0:0,0:0:0:0:
218,299,55389,2,0,P|207:268|186:244,1,65,2|8,0:0|0:0,0:0:0:0:
119,164,55755,2,0,P|150:170|182:163,1,65,0|2,0:0|0:0,0:0:0:0:
285,147,56121,5,0,0:0:0:0:
362,77,56304,2,0,L|368:12,1,65,8|0,0:0|0:0,0:0:0:0:
472,12,56670,2,0,L|459:141,1,130,4|8,0:1|0:0,0:0:0:0:
362,181,57219,1,0,0:0:0:0:
446,242,57402,6,0,P|455:303|406:341,1,130,2|8,0:0|0:0,0:0:0:0:
306,369,57950,2,0,P|286:343|258:326,1,65,0|2,0:0|0:0,0:0:0:0:
165,278,58316,2,0,P|185:252|213:235,1,65,2|8,0:0|0:0,0:0:0:0:
316,239,58682,6,0,L|305:110,1,130,0|0,0:0|0:0,0:0:0:0:
253,19,59231,1,8,0:0:0:0:
253,19,59414,1,0,0:0:0:0:
187,99,59597,1,2,0:0:0:0:
187,99,59780,1,2,0:0:0:0:
104,35,59963,1,8,0:0:0:0:
104,35,60146,1,0,0:0:0:0:
32,110,60328,6,0,P|32:174|53:235,1,130,6|0,0:0|0:0,0:0:0:0:
52,340,60877,2,0,P|80:281|126:236,1,130,8|0,0:0|0:0,0:0:0:0:
150,134,61426,2,0,P|203:168|267:167,1,130,4|0,0:0|3:0,0:0:0:0:
342,92,61975,6,0,L|404:110,1,65,2|0,0:0|0:0,0:0:0:0:
471,190,62341,1,2,0:0:0:0:
471,189,62524,2,0,P|441:202|418:225,1,65,8|0,0:0|0:0,0:0:0:0:
413,329,62889,1,8,0:0:0:0:
326,271,63072,1,8,0:0:0:0:
250,342,63255,6,0,P|187:353|131:322,1,130,6|8,0:0|0:0,0:0:0:0:
30,349,63804,2,0,P|30:316|33:284,1,65,0|2,0:0|0:0,0:0:0:0:
114,218,64170,2,0,P|113:185|110:153,1,65,2|8,0:0|0:0,0:0:0:0:
29,86,64536,6,0,P|94:81|147:45,1,130,0|0,0:0|0:0,0:0:0:0:
252,50,65085,1,8,0:0:0:0:
313,133,65268,2,0,L|377:124,1,65,0|2,0:0|0:0,0:0:0:0:
465,179,65633,1,2,0:0:0:0:
495,278,65816,2,0,P|463:285|432:278,1,65,8|0,0:0|0:0,0:0:0:0:
345,220,66182,6,0,P|324:280|345:341,1,130,2|8,0:0|0:0,0:0:0:0:
241,356,66731,2,0,P|212:343|180:338,1,65,0|2,0:0|0:0,0:0:0:0:
76,353,67097,2,0,L|66:288,1,65,2|8,0:0|0:0,0:0:0:0:
103,189,67463,2,0,P|132:205|154:229,1,65,0|2,0:0|0:0,0:0:0:0:
249,270,67828,5,0,0:0:0:0:
334,210,68011,2,0,L|398:213,1,65,8|0,0:0|0:0,0:0:0:0:
430,114,68377,2,0,L|300:106,1,130,4|8,0:1|0:0,0:0:0:0:
209,53,68926,1,0,0:0:0:0:
109,18,69109,6,0,P|58:54|56:117,1,130,2|8,0:0|0:0,0:0:0:0:
116,201,69658,2,0,P|93:222|74:249,1,65,0|2,0:0|0:0,0:0:0:0:
22,340,70024,2,0,P|52:349|85:352,1,65,2|8,0:0|0:0,0:0:0:0:
189,352,70389,1,0,0:0:0:0:
213,250,70572,5,2,0:0:0:0:
213,250,70755,1,0,0:0:0:0:
315,274,70938,1,8,0:0:0:0:
315,274,71121,1,0,0:0:0:0:
291,376,71304,1,2,0:0:0:0:
291,376,71487,1,2,0:0:0:0:
189,352,71670,1,8,0:0:0:0:
189,352,71853,1,0,0:0:0:0:
212,249,72036,6,0,P|230:188|224:123,1,130,4|0,0:0|0:0,0:0:0:0:
140,59,72585,2,0,P|193:24|257:26,1,130,8|0,0:0|0:0,0:0:0:0:
341,90,73133,2,0,P|287:125|223:123,1,130,4|2,0:0|0:0,0:0:0:0:
121,142,73682,6,0,L|135:205,1,65,8|0,0:0|0:0,0:0:0:0:
110,306,74048,1,2,0:0:0:0:
212,275,74231,1,8,0:0:0:0:
186,376,74414,1,0,0:0:0:0:
212,274,74597,2,0,P|241:261|273:257,1,65,8|0,0:0|0:0,0:0:0:0:
344,334,74963,6,0,P|405:344|446:297,1,130,6|8,0:0|0:0,0:0:0:0:
493,205,75511,2,0,L|480:135,1,65,0|2,0:0|0:0,0:0:0:0:
404,70,75877,1,2,0:0:0:0:
328,142,76060,2,0,P|298:153|266:155,1,65,8|0,0:0|0:0,0:0:0:0:
183,218,76426,6,0,P|164:156|184:95,2,130,2|8|2,0:0|0:0|0:0,0:0:0:0:
267,279,77341,1,2,0:0:0:0:
206,363,77524,2,0,P|181:344|149:337,1,65,8|0,0:0|0:0,0:0:0:0:
45,341,77889,5,12,0:0:0:0:
45,341,78072,1,2,0:0:0:0:
3,245,78255,2,0,L|18:181,1,65,0|8,0:0|0:0,0:0:0:0:
22,77,78621,1,0,0:0:0:0:
22,77,78804,1,2,0:0:0:0:
117,118,78987,2,0,P|148:126|180:124,1,65,8|8,0:0|0:0,0:0:0:0:
269,69,79353,5,12,0:1:0:0:
356,125,79536,1,0,0:0:0:0:
269,181,79719,1,8,0:0:0:0:
356,237,79902,1,0,0:0:0:0:
269,293,80085,2,0,L|237:299,3,32.5,8|0|0|0,1:2|1:0|1:0|1:0,0:0:0:0:
192,326,80450,2,0,L|160:319,3,32.5,8|0|0|0,1:2|1:0|1:0|1:0,0:0:0:0:
120,285,80816,6,0,L|111:155,2,130,6|8|2,0:0|0:0|0:0,0:0:0:0:
247,120,81914,1,8,0:0:0:0:
318,195,82097,1,0,0:0:0:0:
318,195,82280,6,0,P|351:195|382:185,1,65,2|0,0:0|0:0,0:0:0:0:
478,147,82646,2,0,P|461:119|437:97,1,65,8|0,0:0|0:0,0:0:0:0:
356,32,83011,2,0,P|340:60|333:91,1,65,2|0,0:0|0:0,0:0:0:0:
381,184,83377,2,0,P|396:212|403:243,1,65,8|0,0:0|0:0,0:0:0:0:
440,340,83743,6,0,P|382:314|318:318,1,130,2|8,0:0|0:0,0:0:0:0:
217,344,84292,2,0,L|227:279,1,65,0|2,0:0|0:0,0:0:0:0:
127,310,84658,2,0,L|137:245,1,65,0|8,0:0|0:0,0:0:0:0:
37,276,85024,2,0,L|47:211,1,65,0|2,0:0|0:0,0:0:0:0:
36,107,85389,6,0,P|68:108|98:119,1,65,0|8,0:0|0:0,0:0:0:0:
196,155,85755,1,0,0:0:0:0:
263,75,85938,1,2,0:0:0:0:
263,75,86121,1,0,0:0:0:0:
298,173,86304,1,8,0:0:0:0:
298,173,86487,1,0,0:0:0:0:
333,271,86670,5,6,0:0:0:0:
256,192,86761,12,2,87768,0:0:0:0:
