osu file format v14

[General]
AudioFilename: audio.mp3
AudioLeadIn: 0
PreviewTime: 51091
Countdown: 0
SampleSet: Soft
StackLeniency: 0.7
Mode: 0
LetterboxInBreaks: 0
WidescreenStoryboard: 0

[Editor]
Bookmarks: 9109,14963,26670,38377,50085,51548,80816
DistanceSpacing: 1
BeatDivisor: 2
GridSize: 4
TimelineZoom: 1

[Metadata]
Title:Original. -TV Ver-
TitleUnicode:オリジナル。-TV Ver-
Artist:TrySail
ArtistUnicode:TrySail
Creator:Meg
Version:Easy
Source:亜人ちゃんは語りたい
Tags:Demi chan wa Kataritai Katari tai opening iMage-- Akitoshi Yuria 麻倉もも 雨宮天 夏川椎菜 Asakura Momo Amamiya Sora Natsukawa Shiina
BeatmapID:1213880
BeatmapSetID:572804

[Difficulty]
HPDrainRate:3
CircleSize:3
OverallDifficulty:2
ApproachRate:3
SliderMultiplier:0.849999999999999
SliderTickRate:1

[Events]
//Background and Video events
Video,0,"video.avi"
0,0,"demi.jpg",0,0
//Break Periods
//Storyboard Layer 0 (Background)
//Storyboard Layer 1 (Fail)
//Storyboard Layer 2 (Pass)
//Storyboard Layer 3 (Foreground)
//Storyboard Sound Samples

[TimingPoints]
329,365.853658536585,4,2,3,60,1,0
329,-100,4,2,3,60,0,0
877,-100,4,2,3,55,0,0
1426,-100,4,2,3,50,0,0
1975,-100,4,2,3,45,0,0
3255,-100,4,2,3,50,0,0
7463,-100,4,2,1,60,0,0
8377,-100,4,2,2,60,0,0
9109,-100,4,2,1,60,0,0
14963,-100,4,2,5,50,0,0
26670,-100,4,2,1,60,0,0
33987,-100,4,2,2,60,0,0
34078,-100,4,2,1,60,0,0
38377,-100,4,2,1,60,0,0
39109,-100,4,2,1,60,0,0
40847,-100,4,2,1,60,0,0
41304,-100,4,2,1,60,0,0
41853,-100,4,2,1,60,0,0
42768,-100,4,2,1,60,0,0
44597,-100,4,2,1,60,0,0
46060,-100,4,2,1,60,0,0
46426,-100,4,2,1,60,0,0
48621,-100,4,2,1,60,0,0
49353,-100,4,2,1,60,0,0
50085,-100,4,2,3,30,0,0
50268,-100,4,2,3,40,0,0
50450,-100,4,2,3,50,0,0
50633,-100,4,2,3,60,0,0
50816,-100,4,2,3,70,0,0
51182,-100,4,2,2,70,0,0
51548,-100,4,2,1,80,0,1
60328,-100,4,2,1,80,0,1
62341,-100,4,2,1,80,0,1
72036,-100,4,2,1,80,0,1
74231,-100,4,2,1,80,0,1
80816,-100,4,2,1,70,0,0
86670,-100,4,2,1,70,0,0
87768,-100,4,2,2,70,0,0

[Colours]
Combo1 : 255,112,64
Combo2 : 255,255,0
Combo3 : 0,255,128
Combo4 : 0,255,255

[HitObjects]
96,322,329,6,0,P|35:309|8:254,2,127.5,2|2|2,0:0|0:0|0:0,0:0:0:0:
215,278,1975,1,2,0:0:0:0:
311,194,2524,2,0,P|352:187|391:203,1,84.9999999999999,2|2,0:0|0:0,0:0:0:0:
407,286,3255,6,0,P|469:232|456:152,1,170,2|2,0:0|0:0,0:0:0:0:
362,10,4719,2,0,P|300:63|313:143,1,170,2|2,0:0|0:0,0:0:0:0:
256,303,6182,6,0,L|88:274,1,170,2|2,0:0|0:0,0:0:0:0:
0,183,7463,2,0,P|54:151|117:149,1,127.5,8|0,0:0|0:0,0:0:0:0:
202,160,8377,2,0,L|196:75,1,84.9999999999999,2|0,0:0|0:0,0:0:0:0:
269,31,9109,6,0,P|351:29|408:88,1,170,6|2,0:0|0:0,0:0:0:0:
353,153,10207,1,8,0:0:0:0:
426,194,10572,2,0,P|397:225|356:237,1,84.9999999999999,0|8,0:0|0:0,0:0:0:0:
278,203,11304,2,0,P|249:172|208:160,1,84.9999999999999,2|8,0:0|0:0,0:0:0:0:
132,198,12036,6,0,L|5:217,2,127.5,2|0|8,0:0|0:0|0:0,0:0:0:0:
200,246,13499,2,0,P|185:285|188:327,1,84.9999999999999,0|8,0:0|0:0,0:0:0:0:
265,364,14231,2,0,L|349:352,1,84.9999999999999,2|8,0:0|0:0,0:0:0:0:
429,381,14963,6,0,P|425:318|382:274,1,127.5,6|2,3:0|3:0,0:0:0:0:
257,253,16060,2,0,P|261:190|306:147,1,127.5,2|2,3:0|3:0,0:0:0:0:
432,126,17158,2,0,P|424:84|402:48,1,84.9999999999999,2|2,3:0|3:0,0:0:0:0:
318,32,17889,6,0,L|191:48,1,127.5,2|2,3:0|3:0,0:0:0:0:
64,58,18987,2,0,P|57:121|80:180,1,127.5,2|2,3:0|3:0,0:0:0:0:
198,229,20085,2,0,P|195:271|178:309,1,84.9999999999999,2|2,3:0|3:0,0:0:0:0:
106,356,20816,6,0,B|38:361|38:361|1:307,1,127.5,2|2,3:0|3:0,0:0:0:0:
15,184,21914,2,0,B|83:179|83:179|120:233,1,127.5,2|2,3:0|3:0,0:0:0:0:
204,320,23011,2,0,P|242:302|284:293,1,84.9999999999999,2|2,3:0|3:0,0:0:0:0:
361,326,23743,6,0,P|423:323|459:272,1,127.5,2|2,3:0|3:0,0:0:0:0:
492,149,24841,2,0,P|427:144|365:130,1,127.5,2|2,3:0|3:0,0:0:0:0:
258,63,25938,2,0,P|240:101|240:143,1,84.9999999999999,2|2,3:0|3:0,0:0:0:0:
285,214,26670,6,0,P|276:294|199:316,1,170,6|2,0:0|0:0,0:0:0:0:
114,305,27768,1,8,0:0:0:0:
42,259,28133,2,0,L|59:89,1,170,2|2,0:0|0:0,0:0:0:0:
141,64,29231,1,8,0:0:0:0:
209,14,29597,6,0,P|219:94|158:148,1,170,2|2,0:0|0:0,0:0:0:0:
78,178,30694,1,8,0:0:0:0:
16,237,31060,2,0,P|23:317|99:344,1,170,2|2,0:0|0:0,0:0:0:0:
158,283,32158,1,8,0:0:0:0:
227,331,32524,6,0,B|285:320|285:320|332:337|332:337|392:327,1,170,2|2,0:0|0:0,0:0:0:0:
459,275,33621,1,8,0:0:0:0:
496,198,33987,2,0,B|514:164|510:115|510:115|486:89|434:78,1,170,2|2,0:0|0:0,0:0:0:0:
358,115,35085,1,8,0:0:0:0:
314,187,35450,6,0,P|273:117|311:45,1,170,2|2,0:0|0:0,0:0:0:0:
394,27,36548,1,8,0:0:0:0:
467,68,36914,2,0,L|446:249,1,170,2|2,0:0|0:0,0:0:0:0:
456,321,38011,1,8,0:0:0:0:
376,354,38377,6,0,P|294:357|239:296,1,170,4|8,0:0|0:0,0:0:0:0:
166,141,39841,2,0,B|137:147|102:140|102:140|60:173|78:236,1,170,4|8,3:0|0:0,0:0:0:0:
237,296,41304,6,0,B|268:284|268:284|298:302|298:302|339:275|395:295,1,170,2|8,0:0|0:0,0:0:0:0:
481,146,42768,2,0,P|484:66|414:24,1,170,4|2,3:0|0:1,0:0:0:0:
338,61,43865,1,8,0:0:0:0:
257,89,44231,6,0,P|174:100|92:78,1,170,12|8,0:3|0:0,0:0:0:0:
10,227,45694,2,0,P|93:215|175:237,1,170,0|8,0:0|0:0,0:0:0:0:
302,350,47158,6,0,B|321:292|321:292|308:241|308:241|325:186,1,170,8|2,0:0|0:0,0:0:0:0:
200,68,48621,2,0,B|183:121|183:121|196:172|196:172|177:230,2,170,2|8|0,0:0|0:0|0:0,0:0:0:0:
454,215,51548,6,0,P|447:257|436:299,1,84.9999999999999,6|8,0:0|0:0,0:0:0:0:
359,335,52280,2,0,P|348:293|341:251,1,84.9999999999999,2|8,0:0|0:0,0:0:0:0:
326,168,53011,2,0,L|199:152,2,127.5,2|0|8,0:0|0:0|0:0,0:0:0:0:
400,127,54475,6,0,P|418:88|420:46,1,84.9999999999999,2|8,0:0|0:0,0:0:0:0:
339,19,55207,2,0,L|255:32,1,84.9999999999999,2|8,0:0|0:0,0:0:0:0:
185,80,55938,2,0,P|121:31|53:73,1,170,2|4,0:0|0:1,0:0:0:0:
25,154,57036,1,8,0:0:0:0:
19,238,57402,6,0,L|25:322,1,84.9999999999999,2|8,0:0|0:0,0:0:0:0:
98,365,58133,2,0,P|139:360|172:333,1,84.9999999999999,2|8,0:0|0:0,0:0:0:0:
238,280,58865,2,0,P|279:284|312:311,2,84.9999999999999,2|8|2,0:0|0:0|0:0,0:0:0:0:
167,231,59963,1,8,0:0:0:0:
164,146,60328,6,0,L|181:19,2,127.5,6|8|4,0:0|0:0|0:0,0:0:0:0:
275,206,61975,2,0,P|335:185|398:195,1,127.5,2|8,0:0|0:0,0:0:0:0:
425,274,62889,1,8,0:0:0:0:
466,348,63255,6,0,P|425:358|384:347,1,84.9999999999999,6|8,0:0|0:0,0:0:0:0:
316,296,63987,2,0,P|275:285|234:295,1,84.9999999999999,2|8,0:0|0:0,0:0:0:0:
170,350,64719,2,0,P|151:290|175:232,2,127.5,2|0|8,0:0|0:0|0:0,0:0:0:0:
249,378,66182,6,0,L|339:357,1,84.9999999999999,2|8,0:0|0:0,0:0:0:0:
416,355,66914,2,0,P|404:314|375:284,1,84.9999999999999,2|8,0:0|0:0,0:0:0:0:
290,285,67646,2,0,L|308:115,1,170,2|4,0:0|0:1,0:0:0:0:
262,44,68743,1,8,0:0:0:0:
177,31,69109,6,0,L|92:40,1,84.9999999999999,2|8,0:0|0:0,0:0:0:0:
64,121,69841,2,0,L|148:130,1,84.9999999999999,2|8,0:0|0:0,0:0:0:0:
187,205,70572,2,0,P|218:178|233:138,2,84.9999999999999,2|8|2,0:0|0:0|0:0,0:0:0:0:
101,210,71670,1,8,0:0:0:0:
52,280,72036,6,0,P|17:227|28:166,2,127.5,4|8|4,0:0|0:0|0:0,0:0:0:0:
155,353,73682,2,0,P|215:331|278:334,1,127.5,8|8,0:0|0:0,0:0:0:0:
363,342,74597,1,8,0:0:0:0:
439,303,74963,6,0,P|468:272|483:233,1,84.9999999999999,6|8,0:0|0:0,0:0:0:0:
474,148,75694,2,0,P|443:118|404:103,1,84.9999999999999,2|8,0:0|0:0,0:0:0:0:
319,113,76426,2,0,P|289:143|274:182,1,84.9999999999999,2|8,0:0|0:0,0:0:0:0:
243,263,77158,2,0,P|206:283|164:289,1,84.9999999999999,2|8,0:0|0:0,0:0:0:0:
98,234,77889,6,0,P|78:294|104:350,2,127.5,12|8|8,0:0|0:0|0:0,0:0:0:0:
149,166,79353,2,0,P|190:175|232:172,1,84.9999999999999,12|8,0:1|0:0,0:0:0:0:
275,99,80085,2,0,P|316:89|358:92,1,84.9999999999999,8|8,1:2|1:2,0:0:0:0:
436,125,80816,6,0,P|471:197|423:261,1,170,6|2,0:0|0:0,0:0:0:0:
338,269,81914,1,8,0:0:0:0:
279,206,82280,2,0,P|256:242|253:284,1,84.9999999999999,2|8,0:0|0:0,0:0:0:0:
193,344,83011,2,0,L|111:319,1,84.9999999999999,2|8,0:0|0:0,0:0:0:0:
35,358,83743,6,0,B|26:302|26:302|57:250|57:250|50:197,1,170,2|2,0:0|0:0,0:0:0:0:
35,113,84841,1,8,0:0:0:0:
66,34,85207,2,0,P|108:26|149:36,1,84.9999999999999,2|8,0:0|0:0,0:0:0:0:
202,103,85938,2,0,L|189:187,1,84.9999999999999,2|8,0:0|0:0,0:0:0:0:
215,268,86670,6,0,P|291:358|395:304,1,255,6|2,0:0|0:0,0:0:0:0:
