osu file format v14

[General]
AudioFilename: audio.ogg
AudioLeadIn: 0
PreviewTime: 47397
Countdown: 0
SampleSet: Soft
StackLeniency: 0.4
Mode: 0
LetterboxInBreaks: 0
WidescreenStoryboard: 1

[Editor]
Bookmarks: 39169,43283,58369
DistanceSpacing: 0.2
BeatDivisor: 4
GridSize: 16
TimelineZoom: 1.7

[Metadata]
Title:KAREI ONE TURN (TV Size)
TitleUnicode:華麗ワンターン (TV Size)
Artist:TrySail
ArtistUnicode:TrySail
Creator:Sayuka
Version:Trito's Expert
Source:異世界ワンターンキル姉さん ~姉同伴の異世界生活はじめました~
Tags:tritobandito amats julie -nilou- jrock japanese female vocals anime Isekai One Turn Kill Neesan: Ane Douhan no Isekai Seikatsu Hajimemashita My One-Hit Kill Sister Ryo Tokumaru ArmySlick Akihiro Kawashima Sacra music brilliant one turn hit Syndicate_ opening op rock j-rock 一撃姉
BeatmapID:4232026
BeatmapSetID:2029130

[Difficulty]
HPDrainRate:5
CircleSize:3.5
OverallDifficulty:8.6
ApproachRate:9.2
SliderMultiplier:1.8
SliderTickRate:1

[Events]
//Background and Video events
0,0,"one-kill-sister.jpg",0,0
//Break Periods
//Storyboard Layer 0 (Background)
//Storyboard Layer 1 (Fail)
//Storyboard Layer 2 (Pass)
//Storyboard Layer 3 (Foreground)
//Storyboard Layer 4 (Overlay)
//Storyboard Sound Samples

[TimingPoints]
769,342.857142857143,4,2,1,40,1,0
2140,-166.666666666667,4,2,1,40,0,0
3511,-100,4,2,1,60,0,0
10540,-100,4,2,1,65,0,0
11911,-100,4,2,1,70,0,0
12597,-100,4,2,1,75,0,0
13111,-100,4,2,1,60,0,0
13283,-100,4,2,1,65,0,0
13454,-100,4,2,1,60,0,0
13626,-100,4,2,1,55,0,0
13797,-100,4,2,1,50,0,0
14483,-83.3333333333333,4,2,1,65,0,0
17226,-100,4,2,1,55,0,0
19969,-83.3333333333333,4,2,1,65,0,0
22626,-83.3333333333333,4,2,1,5,0,0
22711,-100,4,2,1,55,0,0
25454,-83.3333333333333,4,2,1,65,0,0
28197,-100,4,2,1,55,0,0
29569,-83.3333333333333,4,2,1,55,0,0
29826,-83.3333333333333,4,2,1,5,0,0
29911,-83.3333333333333,4,2,1,55,0,0
30169,-83.3333333333333,4,2,1,5,0,0
30254,-83.3333333333333,4,2,1,55,0,0
30511,-83.3333333333333,4,2,1,5,0,0
30596,-83.3333333333333,4,2,1,55,0,0
30940,-125,4,2,1,40,0,0
33597,-125,4,2,1,5,0,0
33683,-125,4,2,1,40,0,0
39083,-125,4,2,1,5,0,0
39169,-100,4,2,1,50,0,0
41911,-100,4,2,1,45,0,0
43283,-166.666666666667,4,2,1,45,0,0
44826,-166.666666666667,4,2,1,50,0,0
46026,-500,4,2,1,60,0,0
46283,-500,4,2,1,5,0,0
46369,-500,4,2,1,60,0,0
46626,-500,4,2,1,5,0,0
46711,-1000,4,2,1,60,0,0
47054,-1000,4,2,1,5,0,0
47397,-76.9230769230769,4,2,1,80,0,1
73454,-83.3333333333333,4,2,1,65,0,0
74826,-83.3333333333333,4,2,1,70,0,0
76197,-83.3333333333333,4,2,1,75,0,0
77569,-83.3333333333333,4,2,1,80,0,0
78940,-100,4,2,1,60,0,0
85969,-100,4,2,1,65,0,0
87340,-100,4,2,1,70,0,0
88026,-100,4,2,1,75,0,0
88540,-100,4,2,1,60,0,0
88711,-100,4,2,1,65,0,0
88883,-100,4,2,1,70,0,0
89054,-100,4,2,1,75,0,0
89226,-100,4,2,1,80,0,0

[Colours]
Combo1 : 205,50,50
Combo2 : 156,0,179

[HitObjects]
465,48,2140,5,10,3:3:0:0:
462,61,2226,1,0,3:0:0:0:
459,74,2311,2,0,L|450:111,1,26.9999991760254,0|8,3:0|3:3,0:0:0:0:
365,127,2483,5,10,3:2:0:0:
368,140,2569,1,0,3:0:0:0:
371,153,2654,2,0,L|380:190,1,26.9999991760254,8|0,3:3|3:0,0:0:0:0:
400,259,2826,5,2,3:2:0:0:
400,259,3511,6,0,L|289:249,1,90,4|10,3:2|0:0,0:0:0:0:
143,339,3854,1,2,3:2:0:0:
298,371,4026,1,10,0:0:0:0:
236,201,4197,2,0,P|219:242|225:286,1,90,2|10,3:2|0:0,0:0:0:0:
407,266,4540,1,2,3:2:0:0:
407,266,4626,1,0,3:2:0:0:
407,266,4711,1,10,0:0:0:0:
329,130,4883,6,0,B|246:94|246:94|159:115,1,180,2|2,3:2|3:2,0:0:0:0:
68,242,5397,1,8,0:0:0:0:
52,60,5569,2,0,L|60:155,1,90,2|10,3:2|0:0,0:0:0:0:
80,371,5911,1,10,3:2:0:0:
77,348,5996,1,8,0:0:0:0:
75,326,6082,1,8,0:0:0:0:
248,97,6254,5,4,3:2:0:0:
248,97,6426,1,10,0:0:0:0:
389,249,6597,2,0,P|332:255|297:232,1,90,2|10,3:2|0:0,0:0:0:0:
481,147,6940,1,2,3:2:0:0:
435,374,7111,1,10,0:0:0:0:
240,301,7283,2,0,P|216:248|227:208,1,90,2|10,3:2|0:0,0:0:0:0:
481,147,7626,5,14,0:0:0:0:
262,86,7797,1,2,3:2:0:0:
497,151,7969,5,12,0:0:0:0:
222,218,8140,1,2,3:2:0:0:
428,31,8311,5,12,0:0:0:0:
459,338,8483,1,2,3:2:0:0:
159,282,8654,1,10,0:0:0:0:
140,254,8739,1,8,0:0:0:0:
133,221,8825,1,2,3:2:0:0:
138,188,8911,1,8,3:0:0:0:
156,159,8996,1,4,3:2:0:0:
355,236,9169,5,10,0:0:0:0:
203,80,9340,2,0,P|136:69|111:81,1,90,2|10,3:2|0:0,0:0:0:0:
0,219,9683,1,2,3:2:0:0:
156,159,9854,1,10,0:0:0:0:
51,12,10026,1,2,3:2:0:0:
51,12,10111,1,0,3:2:0:0:
51,12,10197,2,0,P|19:72|23:99,1,90,10|0,0:0|3:2,0:0:0:0:
293,205,10540,5,10,0:2:0:0:
77,315,10711,1,2,3:2:0:0:
117,76,10882,1,10,0:2:0:0:
160,350,11054,5,2,3:2:0:0:
207,67,11225,1,10,0:2:0:0:
8,227,11397,5,2,3:2:0:0:
8,227,11483,1,8,0:0:0:0:
8,227,11569,1,10,0:0:0:0:
261,358,11740,5,0,3:2:0:0:
287,360,11826,1,0,3:2:0:0:
312,350,11911,2,0,P|337:331|347:315,1,45,10|8,0:2|0:2,0:0:0:0:
431,297,12083,2,0,P|435:265|431:247,1,45,2|0,3:2|3:2,0:0:0:0:
213,200,12254,5,10,0:2:0:0:
242,215,12339,1,8,0:2:0:0:
276,219,12425,1,0,3:2:0:0:
308,210,12511,1,0,3:2:0:0:
335,191,12597,6,0,P|356:162|357:143,1,45,10|8,0:2|0:2,0:0:0:0:
439,111,12769,2,0,P|432:75|419:61,1,45,2|0,3:2|3:2,0:0:0:0:
259,58,12940,1,10,0:2:0:0:
263,93,13026,1,8,0:2:0:0:
267,128,13111,5,2,0:0:0:0:
343,65,13283,1,2,0:0:0:0:
196,184,13454,5,2,0:0:0:0:
446,256,13626,1,2,0:0:0:0:
241,369,13797,6,0,B|200:393|151:371|156:366|120:328|69:363,1,180,2|0,0:0|0:0,0:0:0:0:
456,43,14483,6,0,P|442:68|441:96,1,53.9999983520508,10|10,3:2|3:2,0:0:0:0:
351,137,14654,2,0,P|358:164|377:185,1,53.9999983520508,10|10,3:2|3:2,0:0:0:0:
446,256,14826,1,10,3:2:0:0:
446,256,14997,6,0,P|421:270|393:271,1,53.9999983520508,10|10,3:2|3:2,0:0:0:0:
352,361,15168,2,0,P|324:353|303:334,1,53.9999983520508,10|10,3:2|3:2,0:0:0:0:
233,266,15340,1,10,3:2:0:0:
233,266,15511,6,0,P|208:252|180:251,1,53.9999983520508,10|10,3:2|3:2,0:0:0:0:
139,161,15682,2,0,P|111:168|90:187,1,53.9999983520508,10|10,3:2|3:2,0:0:0:0:
20,256,15854,1,10,3:2:0:0:
20,256,16026,5,10,3:2:0:0:
25,282,16111,1,10,3:2:0:0:
30,308,16197,1,10,3:2:0:0:
36,334,16283,1,10,3:2:0:0:
42,360,16369,1,10,3:2:0:0:
233,266,16540,6,0,L|246:138,1,107.999996704102,10|0,0:0|3:0,0:0:0:0:
253,163,16797,1,0,3:0:0:0:
262,168,16883,2,0,L|249:40,1,107.999996704102,10|0,0:0|2:0,0:0:0:0:
482,0,17226,6,0,B|487:65|487:65|457:101|457:101|463:167,1,180,6|2,3:2|3:2,0:0:0:0:
477,331,17740,1,8,0:0:0:0:
367,244,17911,2,0,B|323:233|323:233|282:251,1,90,0|8,3:2|0:0,0:0:0:0:
343,369,18254,1,2,3:2:0:0:
343,369,18340,1,0,3:0:0:0:
343,369,18426,1,8,0:0:0:0:
199,296,18597,6,0,P|187:254|198:211,1,90,0|8,3:0|0:0,0:0:0:0:
334,88,18940,2,0,B|367:123|367:123|207:109,1,180,2|0,3:2|3:0,0:0:0:0:
48,100,19454,1,10,0:0:0:0:
153,13,19626,1,10,0:0:0:0:
151,35,19711,1,8,0:0:0:0:
149,57,19797,1,8,0:0:0:0:
1,281,19969,6,0,P|23:268|59:264,1,53.9999983520508,10|8,3:2|3:2,0:0:0:0:
111,185,20140,2,0,P|135:191|164:213,1,53.9999983520508,10|8,3:2|3:2,0:0:0:0:
209,285,20311,1,10,3:2:0:0:
209,285,20483,6,0,P|231:298|267:302,1,53.9999983520508,10|8,3:2|3:2,0:0:0:0:
319,381,20654,2,0,P|343:374|372:352,1,53.9999983520508,10|8,3:2|3:2,0:0:0:0:
417,281,20825,1,10,3:2:0:0:
417,281,20997,6,0,P|404:259|400:223,1,53.9999983520508,10|8,3:2|3:2,0:0:0:0:
321,171,21168,2,0,P|328:147|350:118,1,53.9999983520508,10|8,3:2|3:2,0:0:0:0:
421,73,21339,1,10,3:2:0:0:
421,73,21511,5,10,3:2:0:0:
444,86,21597,1,8,3:2:0:0:
462,106,21683,1,10,3:2:0:0:
473,130,21769,1,8,3:2:0:0:
476,156,21854,1,10,3:2:0:0:
313,263,22026,6,0,L|217:254,1,53.9999983520508,10|0,0:0|3:0,0:0:0:0:
185,331,22197,1,0,3:0:0:0:
185,331,22283,1,0,3:0:0:0:
185,331,22369,2,0,P|216:269|183:179,1,161.999995056153,10|0,0:0|0:0,0:0:0:0:
92,137,22711,6,0,B|179:157|179:157|261:122,1,180,6|2,3:2|3:2,0:0:0:0:
346,11,23226,1,8,0:0:0:0:
129,66,23397,2,0,B|173:77|173:77|214:59,1,90,0|8,3:0|0:0,0:0:0:0:
354,18,23740,1,2,3:2:0:0:
354,18,23826,1,0,3:2:0:0:
354,18,23911,1,8,0:0:0:0:
483,89,24083,6,0,P|499:134|490:176,1,90,0|8,3:0|0:0,0:0:0:0:
333,190,24426,2,0,B|291:188|279:140|306:104|367:98|413:159,1,180,2|0,3:2|3:0,0:0:0:0:
484,343,24940,1,10,0:0:0:0:
418,238,25111,1,10,3:0:0:0:
415,249,25197,1,8,3:0:0:0:
412,261,25283,1,4,3:0:0:0:
309,356,25454,6,0,P|280:349|249:350,1,53.9999983520508,10|8,3:2|3:2,0:0:0:0:
191,283,25626,2,0,P|165:298|145:321,1,53.9999983520508,10|8,3:2|3:2,0:0:0:0:
78,371,25797,1,8,3:2:0:0:
78,371,25969,5,10,3:2:0:0:
69,334,26054,1,8,3:2:0:0:
59,297,26140,1,10,3:2:0:0:
50,260,26226,1,8,3:2:0:0:
41,223,26311,1,8,3:2:0:0:
41,223,26826,6,0,P|70:216|100:217,1,53.9999983520508,10|8,3:2|3:2,0:0:0:0:
235,155,26997,2,0,P|208:154|181:148,1,53.9999983520508,10|8,3:2|3:2,0:0:0:0:
112,60,27169,1,8,3:2:0:0:
112,60,27340,5,10,3:2:0:0:
85,90,27425,1,8,3:2:0:0:
72,128,27511,1,8,3:2:0:0:
72,168,27597,1,8,3:2:0:0:
86,206,27682,1,10,3:2:0:0:
221,291,27854,6,0,B|270:269|270:269|322:282,1,107.999996704102,10|2,0:0|3:2,0:0:0:0:
323,282,28111,1,0,3:0:0:0:
323,282,28197,5,6,3:2:0:0:
254,379,28369,1,10,0:0:0:0:
308,171,28540,1,2,3:2:0:0:
450,343,28711,1,8,0:0:0:0:
413,95,28883,5,0,3:0:0:0:
226,269,29054,1,8,0:0:0:0:
461,234,29226,1,10,2:0:0:0:
461,234,29311,1,8,2:0:0:0:
461,234,29397,1,0,3:0:0:0:
171,31,29569,6,0,B|176:90|176:90|208:117|208:117|213:176,1,161.999995056153,14|0,0:0|0:0,0:0:0:0:
74,297,29911,2,0,P|50:243|109:160,1,161.999995056153,10|0,3:2|0:0,0:0:0:0:
301,224,30254,2,0,L|125:239,1,161.999995056153,14|0,0:0|0:0,0:0:0:0:
139,238,30597,1,10,3:2:0:0:
473,38,30940,6,0,L|393:31,1,72,2|2,3:2|0:0,0:0:0:0:
500,125,31283,2,0,L|340:111,1,144,10|2,0:0|3:2,0:0:0:0:
276,27,31797,1,0,3:0:0:0:
361,124,31969,2,0,P|366:159|353:192,1,72,8|2,0:0|0:0,0:0:0:0:
184,157,32311,6,0,B|153:138|153:138|265:148,1,144,0|10,3:0|0:0,0:0:0:0:
265,327,32826,1,0,0:0:0:0:
273,233,32997,2,0,L|266:312,1,72,0|2,3:0|3:2,0:0:0:0:
167,344,33340,2,0,P|97:324|62:338,1,108,10|0,0:0|0:0,0:0:0:0:
69,344,33683,6,0,P|102:303|71:222,1,144,2|10,3:2|0:0,0:0:0:0:
0,135,34197,1,0,0:0:0:0:
154,179,34369,2,0,P|165:146|191:122,1,72,2|2,3:2|3:2,0:0:0:0:
67,138,34711,2,0,P|33:145|0:134,1,72,10|2,0:0|0:0,0:0:0:0:
185,33,35054,6,0,B|237:37|237:37|261:66|261:66|314:70,2,144,2|8|0,3:2|0:0|3:0,0:0:0:0:
263,172,35911,1,0,3:0:0:0:
390,111,36083,2,0,P|400:73|392:38,1,72,8|0,0:0|0:0,0:0:0:0:
190,221,36426,6,0,P|251:207|334:246,1,144,6|10,3:2|0:0,0:0:0:0:
385,338,36940,1,0,0:0:0:0:
242,378,37111,2,0,L|248:298,1,72,2|0,3:2|3:0,0:0:0:0:
412,178,37454,2,0,L|419:250,1,72,8|2,0:0|0:0,0:0:0:0:
336,98,37797,6,0,B|403:74|403:74|474:85,1,144,0|8,3:0|0:0,0:0:0:0:
412,178,38311,1,2,0:0:0:0:
260,143,38483,2,0,P|248:102|255:71,1,72,0|2,3:0|3:2,0:0:0:0:
317,200,38826,2,0,P|263:195|211:209,1,108,8|0,0:0|0:0,0:0:0:0:
184,302,39169,6,0,B|187:343|237:367|237:367|282:327|265:277,1,180,6|8,3:2|0:0,0:0:0:0:
111,216,39683,1,0,0:0:0:0:
83,353,39854,1,0,3:0:0:0:
211,209,40026,1,0,3:0:0:0:
34,174,40197,2,0,P|20:224|31:260,1,90,8|0,0:0|3:0,0:0:0:0:
211,209,40540,6,0,L|202:113,1,90,2|0,3:2|0:0,0:0:0:0:
284,70,40883,2,0,L|301:262,1,180,10|2,0:0|3:2,0:0:0:0:
310,334,41397,1,10,0:0:0:0:
386,177,41569,2,0,P|426:158|469:166,1,90,10|4,3:3|3:0,0:0:0:0:
437,247,41911,5,2,0:0:0:0:
435,248,43283,6,0,L|444:136,1,107.999996704102,2|2,0:0|0:0,0:0:0:0:
450,64,43797,1,2,0:0:0:0:
355,154,43969,2,0,L|350:207,1,53.9999983520508,2|2,0:0|0:0,0:0:0:0:
283,69,44311,2,0,B|243:47|194:58|194:58|198:96,1,107.999996704102,2|2,0:0|0:0,0:0:0:0:
230,187,44826,5,2,0:0:0:0:
238,175,44997,1,2,0:0:0:0:
142,152,45169,5,2,0:0:0:0:
139,137,45340,1,2,0:0:0:0:
64,208,45511,5,2,0:0:0:0:
54,200,45682,1,2,0:0:0:0:
156,263,45854,5,2,3:2:0:0:
156,263,45940,1,0,3:0:0:0:
156,263,46026,6,0,L|145:288,1,27,6|0,3:2|0:0,0:0:0:0:
244,69,46369,6,0,L|227:47,1,27,6|0,3:2|0:0,0:0:0:0:
367,243,46711,6,0,L|395:239,1,27,6|0,3:2|0:0,0:0:0:0:
393,239,47397,5,6,3:2:0:0:
361,49,47569,1,10,0:0:0:0:
228,247,47740,1,2,3:2:0:0:
228,247,47826,1,2,0:0:0:0:
228,247,47911,1,8,0:0:0:0:
468,292,48083,2,0,P|484:237|463:184,1,116.999994644165,0|8,3:0|0:0,0:0:0:0:
241,44,48426,2,0,L|246:107,1,58.4999973220826,2|0,3:2|3:2,0:0:0:0:
363,230,48597,6,0,B|344:214|344:214|159:230|159:230|144:249,1,233.999989288331,10|10,0:0|0:0,0:0:0:0:
39,376,49111,1,2,3:2:0:0:
256,325,49283,1,10,0:0:0:0:
63,164,49454,2,0,L|51:291,1,116.999994644165,0|10,3:0|0:0,0:0:0:0:
72,65,49797,1,10,0:0:0:0:
72,65,49883,1,8,0:0:0:0:
72,65,49969,1,10,0:0:0:0:
250,159,50140,6,0,B|286:116|356:108|413:147|413:147|378:155|365:196,1,233.999989288331,2|2,3:2|3:2,0:0:0:0:
203,271,50654,1,10,0:0:0:0:
273,46,50826,2,0,P|345:37|399:50,1,116.999994644165,0|10,3:0|0:0,0:0:0:0:
411,326,51169,1,0,3:0:0:0:
250,159,51340,1,8,0:0:0:0:
496,183,51511,5,14,0:0:0:0:
287,313,51683,1,2,3:2:0:0:
508,175,51854,5,14,0:0:0:0:
224,148,52026,1,2,3:2:0:0:
424,344,52197,5,14,0:0:0:0:
473,32,52369,1,2,3:2:0:0:
174,72,52540,1,14,0:0:0:0:
144,104,52625,1,8,0:0:0:0:
132,145,52711,1,0,3:0:0:0:
140,188,52797,1,8,3:0:0:0:
165,222,52883,6,0,B|220:230|231:171|221:146|176:125|117:131|87:187,1,233.999989288331,2|2,3:2|3:2,0:0:0:0:
179,384,53397,1,8,0:0:0:0:
284,235,53569,2,0,P|296:158|276:116,1,116.999994644165,0|10,3:0|0:0,0:0:0:0:
119,319,53911,1,2,3:2:0:0:
119,319,53997,1,0,3:0:0:0:
119,319,54083,6,0,B|145:346|145:346|345:329,1,233.999989288331,10|10,0:0|0:0,0:0:0:0:
423,112,54597,1,2,3:2:0:0:
178,142,54769,2,0,L|189:269,1,116.999994644165,10|0,0:0|3:0,0:0:0:0:
419,374,55111,1,10,0:0:0:0:
429,346,55196,1,8,0:0:0:0:
430,317,55282,1,10,3:2:0:0:
421,290,55368,1,8,0:0:0:0:
403,267,55453,1,8,0:0:0:0:
178,142,55626,5,2,3:2:0:0:
411,90,55797,1,10,0:0:0:0:
328,338,55969,1,2,3:2:0:0:
108,201,56140,2,0,P|88:141|110:89,1,116.999994644165,10|0,0:0|3:0,0:0:0:0:
331,13,56483,1,10,0:0:0:0:
262,249,56654,1,2,3:2:0:0:
262,249,56740,1,0,3:0:0:0:
262,249,56826,1,10,0:0:0:0:
55,4,56997,6,0,L|182:15,1,116.999994644165,2|8,3:2|0:0,0:0:0:0:
177,24,57254,1,8,0:0:0:0:
183,33,57340,2,0,L|310:44,1,116.999994644165,8|8,0:0|0:0,0:0:0:0:
504,277,57683,1,0,3:0:0:0:
262,249,57854,1,10,0:0:0:0:
417,63,58026,1,14,0:0:0:0:
414,92,58111,1,8,0:0:0:0:
411,121,58197,1,8,0:0:0:0:
409,150,58283,1,8,0:0:0:0:
406,179,58368,5,6,3:2:0:0:
314,359,58540,1,10,0:0:0:0:
504,277,58711,1,2,3:2:0:0:
504,277,58797,1,2,0:0:0:0:
504,277,58883,1,8,0:0:0:0:
296,145,59054,2,0,L|307:272,1,116.999994644165,0|10,3:0|0:0,0:0:0:0:
288,58,59397,2,0,L|282:0,1,58.4999973220826,2|0,3:2|3:0,0:0:0:0:
422,319,59569,6,0,B|403:303|403:303|218:319|218:319|203:338,1,233.999989288331,10|10,0:0|0:0,0:0:0:0:
0,384,60083,1,2,3:2:0:0:
71,164,60254,2,0,L|82:291,1,116.999994644165,10|0,0:0|3:0,0:0:0:0:
60,56,60597,1,10,0:0:0:0:
190,207,60769,1,10,0:0:0:0:
216,218,60854,1,8,0:0:0:0:
245,219,60940,1,10,0:0:0:0:
273,209,61026,1,8,0:0:0:0:
295,189,61111,6,0,B|309:30|309:30|265:89,1,233.999989288331,2|2,3:2|3:2,0:0:0:0:
289,313,61626,1,8,0:0:0:0:
404,114,61797,1,0,3:0:0:0:
171,184,61969,1,10,0:0:0:0:
367,369,62140,2,0,P|387:315|371:259,1,116.999994644165,2|10,3:2|0:0,0:0:0:0:
188,16,62483,5,14,0:0:0:0:
289,313,62654,1,2,3:2:0:0:
183,0,62826,5,14,0:0:0:0:
90,222,62997,1,2,3:2:0:0:
270,88,63169,5,14,0:0:0:0:
41,146,63340,1,10,0:0:0:0:
19,165,63425,1,8,0:0:0:0:
5,191,63511,1,14,0:0:0:0:
0,220,63597,1,8,0:0:0:0:
4,249,63682,1,10,0:0:0:0:
17,275,63768,1,8,0:0:0:0:
37,296,63854,5,2,3:2:0:0:
226,188,64026,1,10,0:0:0:0:
58,38,64197,1,2,3:2:0:0:
58,38,64283,1,2,0:0:0:0:
58,38,64369,1,8,0:0:0:0:
172,267,64540,2,0,B|228:291|228:291|278:266,1,116.999994644165,0|10,3:0|0:0,0:0:0:0:
415,108,64883,1,2,3:2:0:0:
415,108,64969,1,0,3:0:0:0:
415,108,65054,6,0,B|348:105|316:166|316:166|295:102|235:98,1,233.999989288331,10|8,0:0|0:0,0:0:0:0:
310,261,65569,1,2,3:2:0:0:
494,55,65740,2,0,P|510:110|492:165,1,116.999994644165,10|0,0:0|3:0,0:0:0:0:
310,283,66083,1,10,0:0:0:0:
333,34,66254,1,10,0:0:0:0:
333,34,66340,1,8,0:0:0:0:
333,34,66426,1,10,0:0:0:0:
512,260,66597,6,0,L|384:248,1,116.999994644165,4|10,3:2|0:0,0:0:0:0:
200,322,66940,1,2,3:2:0:0:
163,112,67111,2,0,B|248:104|248:104|295:143|295:143|381:136,1,233.999989288331,10|10,0:0|0:0,0:0:0:0:
92,50,67626,1,2,3:2:0:0:
92,50,67711,1,0,3:0:0:0:
92,50,67797,1,10,0:0:0:0:
201,218,67969,5,4,3:2:0:0:
335,41,68140,1,10,0:0:0:0:
92,50,68311,2,0,P|68:104|85:166,1,116.999994644165,2|10,3:2|0:0,0:0:0:0:
80,158,68569,1,8,0:0:0:0:
80,158,68654,1,0,3:0:0:0:
295,275,68826,1,10,0:0:0:0:
233,106,68997,6,0,L|169:111,1,58.4999973220826,10|8,3:3|3:0,0:0:0:0:
42,265,69169,2,0,L|105:270,1,58.4999973220826,4|4,3:0|3:0,0:0:0:0:
301,369,69340,5,6,3:2:0:0:
380,118,69511,1,8,0:0:0:0:
297,384,69683,5,6,3:2:0:0:
248,22,69854,1,8,0:0:0:0:
460,273,70026,5,6,3:2:0:0:
178,365,70197,1,8,0:0:0:0:
369,36,70369,5,6,3:2:0:0:
417,370,70540,1,8,0:0:0:0:
168,155,70711,5,6,3:2:0:0:
449,0,70883,1,0,3:0:0:0:
456,18,70969,1,0,3:0:0:0:
458,37,71054,1,8,0:0:0:0:
457,56,71140,1,0,3:0:0:0:
451,75,71226,1,8,3:0:0:0:
242,283,71397,1,8,0:0:0:0:
264,12,71569,1,8,3:0:0:0:
494,204,71740,2,0,L|238:181,1,233.999989288331,8|0,0:0|0:0,0:0:0:0:
174,372,72254,5,10,3:2:0:0:
99,168,72426,1,10,3:2:0:0:
303,94,72597,1,10,3:2:0:0:
377,297,72769,1,10,3:2:0:0:
377,297,73111,5,10,0:0:0:0:
377,297,73454,6,0,P|430:282|493:298,1,107.999996704102,10|8,3:1|0:0,0:0:0:0:
301,382,73797,2,0,B|267:366|267:366|250:176,1,215.999993408203,10|8,3:1|3:1,0:0:0:0:
233,21,74311,1,10,0:0:0:0:
330,106,74483,1,10,3:1:0:0:
330,106,74569,1,0,3:0:0:0:
330,106,74654,1,8,0:0:0:0:
149,233,74826,6,0,L|160:105,1,107.999996704102,10|8,3:1|0:0,0:0:0:0:
43,274,75169,2,0,L|65:18,1,215.999993408203,10|8,3:1|3:1,0:0:0:0:
41,294,75683,1,10,0:0:0:0:
166,133,75854,1,10,3:1:0:0:
166,133,75940,1,8,2:0:0:0:
166,133,76026,1,10,0:0:0:0:
311,291,76197,6,0,B|262:315|262:315|216:286,1,107.999996704102,10|8,3:1|0:0,0:0:0:0:
447,76,76540,2,0,L|427:299,1,215.999993408203,10|8,3:1|3:1,0:0:0:0:
154,349,77054,1,10,0:0:0:0:
137,327,77139,1,8,0:0:0:0:
129,302,77225,1,10,3:1:0:0:
128,275,77311,1,0,3:2:0:0:
136,249,77396,1,10,3:0:0:0:
151,227,77482,1,4,3:0:0:0:
172,210,77568,5,14,3:1:0:0:
172,210,77911,5,14,3:1:0:0:
172,210,78254,5,14,3:1:0:0:
172,210,78597,6,0,L|237:215,1,53.9999983520508,8|8,0:0|0:0,0:0:0:0:
34,196,78769,2,0,L|99:201,1,53.9999983520508,8|8,0:0|0:0,0:0:0:0:
317,219,78940,6,0,L|447:229,1,90,4|10,3:2|0:0,0:0:0:0:
387,329,79283,1,2,3:2:0:0:
333,128,79454,1,10,0:0:0:0:
486,186,79626,2,0,P|496:229|483:272,1,90,2|10,3:2|0:0,0:0:0:0:
291,319,79969,1,2,3:2:0:0:
291,319,80054,1,0,3:2:0:0:
291,319,80140,1,10,0:0:0:0:
223,92,80311,6,0,L|402:76,1,180,2|2,3:2|3:2,0:0:0:0:
483,272,80826,1,8,0:0:0:0:
361,170,80997,2,0,L|272:178,1,90,2|10,3:2|0:0,0:0:0:0:
93,190,81340,1,10,3:2:0:0:
122,187,81425,1,8,0:0:0:0:
152,184,81511,1,8,0:0:0:0:
311,84,81683,5,4,3:2:0:0:
311,84,81854,1,10,0:0:0:0:
171,17,82026,2,0,P|132:72|143:123,1,90,2|10,3:2|0:0,0:0:0:0:
232,266,82369,1,2,3:2:0:0:
311,84,82540,1,10,0:0:0:0:
62,192,82711,2,0,L|151:184,1,90,2|10,3:2|0:0,0:0:0:0:
424,165,83054,5,14,0:0:0:0:
232,266,83225,1,2,3:2:0:0:
450,151,83397,5,12,0:0:0:0:
212,95,83569,1,2,3:2:0:0:
381,309,83740,5,12,0:0:0:0:
441,20,83911,1,2,3:2:0:0:
147,35,84083,1,10,0:0:0:0:
128,63,84168,1,8,0:0:0:0:
122,96,84254,1,2,3:2:0:0:
127,129,84340,1,8,3:0:0:0:
145,158,84425,5,4,3:2:0:0:
386,293,84597,1,10,0:0:0:0:
166,354,84769,1,2,3:2:0:0:
274,140,84940,1,10,0:0:0:0:
429,372,85111,2,0,P|396:382|325:357,1,90,2|10,3:2|0:0,0:0:0:0:
117,272,85454,1,2,3:2:0:0:
117,272,85540,1,0,3:2:0:0:
117,272,85626,2,0,P|159:260|203:270,1,90,10|0,0:0|3:2,0:0:0:0:
0,331,85969,5,10,0:2:0:0:
118,108,86140,1,2,3:2:0:0:
160,357,86311,1,10,0:2:0:0:
211,71,86483,5,2,3:2:0:0:
259,360,86654,1,10,0:2:0:0:
44,213,86826,5,2,3:2:0:0:
44,213,86911,1,8,0:0:0:0:
44,213,86997,1,10,0:0:0:0:
261,0,87169,5,0,3:2:0:0:
283,13,87254,1,0,3:2:0:0:
297,36,87340,2,0,P|303:72|298:89,1,45,10|8,0:2|0:2,0:0:0:0:
350,156,87511,2,0,P|328:185|313:194,1,45,2|0,3:2|3:2,0:0:0:0:
60,203,87683,5,10,0:2:0:0:
96,177,87768,1,8,0:2:0:0:
139,164,87854,1,0,3:2:0:0:
184,166,87940,1,0,3:2:0:0:
226,182,88026,6,0,P|232:218|227:235,1,45,10|8,0:2|0:2,0:0:0:0:
279,302,88197,2,0,P|257:331|242:340,1,45,2|0,3:2|3:2,0:0:0:0:
126,349,88369,1,10,0:2:0:0:
134,305,88454,1,8,0:2:0:0:
143,260,88540,5,2,3:2:0:0:
178,81,88711,1,2,3:2:0:0:
371,296,88883,5,2,3:2:0:0:
319,21,89054,1,2,3:2:0:0:
256,358,89226,5,2,3:2:0:0:
