osu file format v14

[General]
AudioFilename: audio.ogg
AudioLeadIn: 0
PreviewTime: 47397
Countdown: 0
SampleSet: Soft
StackLeniency: 0.3
Mode: 0
LetterboxInBreaks: 0
WidescreenStoryboard: 0

[Editor]
DistanceSpacing: 1.1
BeatDivisor: 4
GridSize: 32
TimelineZoom: 1.6

[Metadata]
Title:KAREI ONE TURN (TV Size)
TitleUnicode:華麗ワンターン (TV Size)
Artist:TrySail
ArtistUnicode:TrySail
Creator:Sayuka
Version:My One-Hit Expert
Source:異世界ワンターンキル姉さん ~姉同伴の異世界生活はじめました~
Tags:tritobandito amats julie -nilou- jrock japanese female vocals anime Isekai One Turn Kill Neesan: Ane Douhan no Isekai Seikatsu Hajimemashita My One-Hit Kill Sister Ryo Tokumaru ArmySlick Akihiro Kawashima Sacra music brilliant one turn hit Syndicate_ opening op rock j-rock 一撃姉
BeatmapID:4228210
BeatmapSetID:2029130

[Difficulty]
HPDrainRate:5
CircleSize:4
OverallDifficulty:9
ApproachRate:9.3
SliderMultiplier:1.8
SliderTickRate:1

[Events]
//Background and Video events
0,0,"one-kill-sister.jpg",0,0
//Break Periods
//Storyboard Layer 0 (Background)
//Storyboard Layer 1 (Fail)
//Storyboard Layer 2 (Pass)
//Storyboard Layer 3 (Foreground)
//Storyboard Layer 4 (Overlay)
//Storyboard Sound Samples

[TimingPoints]
769,342.857142857143,4,2,1,40,1,0
3511,-89.2857142857143,4,2,1,60,0,0
10540,-89.2857142857143,4,2,1,65,0,0
11911,-89.2857142857143,4,2,1,70,0,0
12597,-89.2857142857143,4,2,1,75,0,0
13111,-89.2857142857143,4,2,1,60,0,0
13283,-89.2857142857143,4,2,1,65,0,0
13454,-89.2857142857143,4,2,1,60,0,0
13626,-89.2857142857143,4,2,1,55,0,0
13797,-89.2857142857143,4,2,1,50,0,0
14483,-89.2857142857143,4,2,1,65,0,0
17226,-89.2857142857143,4,2,1,55,0,0
19969,-89.2857142857143,4,2,1,65,0,0
22712,-89.2857142857143,4,2,1,55,0,0
25454,-89.2857142857143,4,2,1,65,0,0
28197,-89.2857142857143,4,2,1,55,0,0
30940,-161.290322580645,4,2,1,40,0,0
39169,-121.951219512195,4,2,1,50,0,0
41911,-121.951219512195,4,2,1,45,0,0
44826,-121.951219512195,4,2,1,50,0,0
46026,-98.0392156862744,4,2,1,60,0,0
47397,-75.7575757575758,4,2,1,80,0,1
50397,-75.7575757575758,4,2,1,5,0,1
50483,-75.7575757575758,4,2,1,80,0,1
53140,-75.7575757575758,4,2,1,5,0,1
53226,-75.7575757575758,4,2,1,80,0,1
58283,-75.7575757575758,4,2,1,5,0,1
58369,-75.7575757575758,4,2,1,80,0,1
61369,-75.7575757575758,4,2,1,5,0,1
61455,-75.7575757575758,4,2,1,80,0,1
65311,-75.7575757575758,4,2,1,5,0,1
65397,-75.7575757575758,4,2,1,80,0,1
66854,-75.7575757575758,4,2,1,5,0,1
66940,-75.7575757575758,4,2,1,80,0,1
73454,-89.2857142857143,4,2,1,65,0,0
74826,-89.2857142857143,4,2,1,70,0,0
76197,-89.2857142857143,4,2,1,75,0,0
76454,-75.7575757575758,4,2,1,5,0,0
76540,-75.7575757575758,4,2,1,75,0,0
77569,-89.2857142857143,4,2,1,80,0,0
78940,-89.2857142857143,4,2,1,60,0,0
84683,-75.7575757575758,4,2,1,5,0,0
84769,-75.7575757575758,4,2,1,60,0,0
85969,-89.2857142857143,4,2,1,65,0,0
87340,-89.2857142857143,4,2,1,70,0,0
88026,-89.2857142857143,4,2,1,75,0,0
88540,-89.2857142857143,4,2,1,60,0,0
88711,-89.2857142857143,4,2,1,65,0,0
88883,-89.2857142857143,4,2,1,70,0,0
89054,-89.2857142857143,4,2,1,75,0,0
89226,-161.290322580645,4,2,1,80,0,0
89569,-161.290322580645,4,2,1,5,0,0

[Colours]
Combo1 : 205,50,50
Combo2 : 156,0,179

[HitObjects]
198,72,2140,5,10,3:3:0:0:
229,40,2226,1,0,3:0:0:0:
273,28,2311,1,0,3:0:0:0:
316,40,2397,1,8,3:3:0:0:
348,72,2483,1,10,3:2:0:0:
380,102,2569,1,0,3:0:0:0:
423,114,2655,1,8,3:3:0:0:
467,102,2740,1,0,3:0:0:0:
498,71,2826,5,2,3:2:0:0:
493,63,3511,5,4,3:2:0:0:
317,180,3683,1,10,0:0:0:0:
406,262,3854,2,0,P|421:189|435:142,1,100.800001230469,2|10,3:2|0:0,0:0:0:0:
225,32,4197,2,0,P|237:80|247:130,1,100.800001230469,2|10,3:2|0:0,0:0:0:0:
208,251,4540,1,2,3:2:0:0:
208,251,4626,1,0,3:2:0:0:
208,251,4711,1,10,0:0:0:0:
357,111,4883,6,0,P|409:78|461:93,1,100.800001230469,2|8,3:2|0:0,0:0:0:0:
374,348,5226,2,0,P|306:310|273:297,1,100.800001230469,2|8,3:2|0:0,0:0:0:0:
122,172,5569,1,2,3:2:0:0:
328,130,5740,1,10,0:0:0:0:
207,338,5911,1,10,0:0:0:0:
207,338,5997,1,8,0:0:0:0:
207,338,6083,1,8,0:0:0:0:
122,172,6254,5,4,3:2:0:0:
312,285,6426,1,10,0:0:0:0:
103,384,6597,2,0,P|87:309|129:269,1,100.800001230469,2|10,3:2|0:0,0:0:0:0:
241,184,6940,1,2,3:2:0:0:
171,333,7111,1,10,0:0:0:0:
43,157,7283,2,0,P|93:151|143:150,1,100.800001230469,2|10,3:2|0:0,0:0:0:0:
406,334,7626,5,14,0:0:0:0:
483,57,7797,1,2,3:2:0:0:
493,356,7969,5,12,0:0:0:0:
311,92,8140,1,2,3:2:0:0:
335,381,8311,5,12,0:0:0:0:
405,117,8483,1,2,3:2:0:0:
253,366,8654,5,10,0:0:0:0:
203,355,8740,1,8,0:0:0:0:
167,320,8826,1,2,3:2:0:0:
158,272,8911,1,8,3:0:0:0:
171,224,8997,5,4,3:2:0:0:
393,144,9169,1,10,0:0:0:0:
240,288,9340,1,2,3:2:0:0:
112,56,9511,1,10,0:0:0:0:
237,160,9683,2,0,P|258:107|287:55,1,100.800001230469,2|10,3:2|0:0,0:0:0:0:
392,0,10026,1,2,3:2:0:0:
392,0,10111,1,0,3:2:0:0:
392,0,10197,1,10,0:0:0:0:
426,209,10369,6,0,P|373:190|298:179,1,100.800001230469,0|10,3:2|0:2,0:0:0:0:
496,82,10711,1,2,3:2:0:0:
359,333,10883,1,10,0:2:0:0:
366,26,11054,5,2,3:2:0:0:
459,366,11226,1,10,0:2:0:0:
411,102,11397,1,2,3:2:0:0:
411,102,11483,1,8,0:0:0:0:
411,102,11569,1,10,0:0:0:0:
260,357,11740,5,0,3:2:0:0:
205,384,11825,1,0,3:2:0:0:
145,377,11911,1,10,0:2:0:0:
101,334,11997,1,8,0:2:0:0:
91,274,12082,1,2,3:2:0:0:
119,220,12168,1,0,3:2:0:0:
173,193,12254,1,10,0:2:0:0:
201,138,12341,1,8,0:2:0:0:
190,78,12426,1,0,3:2:0:0:
147,36,12512,1,0,3:2:0:0:
87,28,12598,1,10,0:2:0:0:
34,57,12683,1,8,0:2:0:0:
8,114,12769,2,0,L|28:184,3,50.4000006152344,2|0|10|8,3:2|3:2|0:2|0:2,0:0:0:0:
184,298,13111,5,2,0:0:0:0:
108,122,13283,1,2,0:0:0:0:
284,46,13454,1,2,0:0:0:0:
360,222,13626,1,2,0:0:0:0:
232,168,13797,5,2,0:0:0:0:
434,18,14483,5,10,3:2:0:0:
429,42,14568,1,10,3:2:0:0:
424,67,14654,1,10,3:2:0:0:
419,92,14740,1,10,3:2:0:0:
414,116,14825,1,10,3:2:0:0:
331,33,14997,5,10,3:2:0:0:
326,57,15082,1,10,3:2:0:0:
321,82,15168,1,10,3:2:0:0:
316,107,15254,1,10,3:2:0:0:
311,131,15339,1,10,3:2:0:0:
228,48,15512,5,10,3:2:0:0:
223,72,15597,1,10,3:2:0:0:
218,97,15683,1,10,3:2:0:0:
213,122,15769,1,10,3:2:0:0:
208,146,15854,1,10,3:2:0:0:
125,63,16027,5,10,3:2:0:0:
120,87,16112,1,10,3:2:0:0:
115,112,16198,1,10,3:2:0:0:
110,137,16284,1,10,3:2:0:0:
105,161,16369,1,10,3:2:0:0:
22,78,16540,5,10,0:0:0:0:
0,183,16711,1,0,3:0:0:0:
0,183,16797,1,0,3:0:0:0:
0,183,16883,1,10,0:0:0:0:
0,183,17226,5,6,3:2:0:0:
125,63,17397,1,8,0:0:0:0:
181,246,17569,2,0,P|244:214|288:201,1,100.800001230469,2|8,3:2|0:0,0:0:0:0:
334,31,17911,5,0,3:2:0:0:
213,122,18083,1,8,0:0:0:0:
357,252,18254,2,0,P|372:186|342:146,1,100.800001230469,2|8,3:2|0:0,0:0:0:0:
230,24,18597,5,0,3:0:0:0:
415,91,18769,1,8,0:0:0:0:
272,204,18940,2,0,P|225:221|181:246,1,100.800001230469,2|8,3:2|0:0,0:0:0:0:
22,78,19283,5,0,3:0:0:0:
194,150,19454,1,10,0:0:0:0:
0,307,19626,1,10,0:0:0:0:
0,307,19711,1,8,0:0:0:0:
0,307,19797,1,8,0:0:0:0:
119,377,19969,5,10,3:2:0:0:
143,371,20054,1,8,3:2:0:0:
168,365,20140,1,10,3:2:0:0:
192,360,20226,1,8,3:2:0:0:
217,354,20311,1,10,3:2:0:0:
82,269,20483,5,10,3:2:0:0:
106,263,20568,1,8,3:2:0:0:
131,257,20654,1,10,3:2:0:0:
155,252,20740,1,8,3:2:0:0:
180,246,20825,1,10,3:2:0:0:
45,161,20997,5,10,3:2:0:0:
69,155,21082,1,8,3:2:0:0:
94,149,21168,1,10,3:2:0:0:
118,144,21254,1,8,3:2:0:0:
143,138,21339,1,10,3:2:0:0:
8,53,21512,5,10,3:2:0:0:
32,47,21597,1,8,3:2:0:0:
57,41,21683,1,10,3:2:0:0:
81,36,21769,1,8,3:2:0:0:
106,30,21854,1,10,3:2:0:0:
268,119,22026,5,10,0:0:0:0:
300,126,22111,1,0,3:0:0:0:
331,133,22197,1,0,3:0:0:0:
364,141,22283,1,0,3:0:0:0:
395,148,22369,1,10,0:0:0:0:
395,148,22711,5,6,3:2:0:0:
268,279,22883,1,8,0:0:0:0:
454,368,23054,2,0,P|481:311|449:256,1,100.800001230469,2|8,3:2|0:0,0:0:0:0:
287,170,23397,5,0,3:0:0:0:
491,135,23569,1,8,0:0:0:0:
397,308,23740,2,0,P|338:284|285:274,1,100.800001230469,2|8,3:2|0:0,0:0:0:0:
183,153,24083,5,0,3:0:0:0:
147,329,24254,1,8,0:0:0:0:
287,170,24426,2,0,P|306:112|322:67,1,100.800001230469,2|8,3:2|0:0,0:0:0:0:
191,6,24769,5,0,3:0:0:0:
211,244,24940,1,10,0:0:0:0:
87,126,25111,1,10,3:0:0:0:
87,126,25197,1,8,3:0:0:0:
87,126,25283,1,4,3:0:0:0:
198,79,25454,5,10,3:2:0:0:
189,102,25539,1,8,3:2:0:0:
181,126,25625,1,10,3:2:0:0:
173,150,25711,1,8,3:2:0:0:
165,174,25796,1,8,3:2:0:0:
319,74,25969,5,10,3:2:0:0:
310,98,26054,1,8,3:2:0:0:
302,122,26140,1,10,3:2:0:0:
294,145,26226,1,8,3:2:0:0:
287,170,26311,1,8,3:2:0:0:
59,380,26826,5,10,3:2:0:0:
42,361,26911,1,8,3:2:0:0:
32,338,26997,1,10,3:2:0:0:
31,313,27083,1,8,3:2:0:0:
37,288,27168,1,8,3:2:0:0:
158,357,27340,5,10,3:2:0:0:
141,338,27425,1,8,3:2:0:0:
131,315,27511,1,8,3:2:0:0:
130,290,27597,1,8,3:2:0:0:
136,265,27682,1,10,3:2:0:0:
165,174,27854,5,10,0:0:0:0:
223,304,28026,1,2,3:2:0:0:
223,304,28111,1,0,3:0:0:0:
223,304,28197,5,6,3:2:0:0:
65,193,28369,1,10,0:0:0:0:
222,99,28540,2,0,P|191:174|176:222,1,100.800001230469,2|8,3:2|0:0,0:0:0:0:
361,366,28883,5,0,3:0:0:0:
271,225,29054,1,8,0:0:0:0:
465,185,29226,1,10,2:0:0:0:
465,185,29311,1,8,2:0:0:0:
465,185,29397,1,0,3:0:0:0:
346,281,29569,5,14,0:0:0:0:
508,344,29911,5,10,3:2:0:0:
353,141,30254,5,14,0:0:0:0:
274,372,30597,5,10,3:2:0:0:
426,320,30940,6,0,L|440:259,1,55.799997786255,2|2,3:2|0:0,0:0:0:0:
358,226,31283,2,0,L|345:280,1,55.799997786255,10|0,0:0|0:0,0:0:0:0:
274,372,31626,1,2,3:2:0:0:
234,282,31797,1,0,3:0:0:0:
180,362,31969,2,0,L|125:349,1,55.799997786255,8|2,0:0|0:0,0:0:0:0:
31,236,32311,6,0,L|148:263,1,111.59999557251,0|10,3:0|0:0,0:0:0:0:
234,282,32826,1,0,0:0:0:0:
358,226,32997,5,0,3:0:0:0:
200,188,33169,1,2,3:2:0:0:
274,372,33340,2,0,L|328:359,1,55.799997786255,10|2,0:0|0:0,0:0:0:0:
439,195,33683,6,0,P|411:157|384:153,1,55.799997786255,2|0,3:2|0:0,0:0:0:0:
348,99,34026,2,0,P|304:116|293:141,1,55.799997786255,10|0,0:0|0:0,0:0:0:0:
277,208,34369,1,2,3:2:0:0:
217,100,34540,1,2,3:2:0:0:
200,188,34711,1,10,0:0:0:0:
140,80,34883,1,2,0:0:0:0:
123,168,35054,6,0,L|14:143,2,111.59999557251,2|8|0,3:2|0:0|3:0,0:0:0:0:
217,100,35911,1,0,3:0:0:0:
140,80,36083,2,0,L|85:67,1,55.799997786255,8|0,0:0|0:0,0:0:0:0:
325,12,36426,6,0,L|300:120,2,111.59999557251,6|10|2,3:2|0:0|3:2,0:0:0:0:
433,36,37283,1,0,3:0:0:0:
408,144,37454,2,0,L|395:198,1,55.799997786255,8|2,0:0|0:0,0:0:0:0:
264,262,37797,2,0,L|277:208,1,55.799997786255,0|2,3:0|0:0,0:0:0:0:
497,163,38140,6,0,L|472:271,1,111.59999557251,8|0,0:0|3:0,0:0:0:0:
446,368,38654,1,2,3:2:0:0:
395,198,38826,1,8,0:0:0:0:
351,323,38997,1,2,0:0:0:0:
351,323,39083,1,2,0:0:0:0:
351,323,39169,5,6,3:2:0:0:
472,271,39340,1,0,0:0:0:0:
326,143,39511,2,0,P|287:128|247:134,1,73.8000011260987,8|0,0:0|0:0,0:0:0:0:
198,208,39854,5,0,3:0:0:0:
85,67,40026,1,0,3:0:0:0:
45,253,40197,2,0,P|82:255|116:241,1,73.8000011260987,8|0,0:0|3:0,0:0:0:0:
17,26,40540,6,0,P|6:71|20:106,1,73.8000011260987,2|0,3:2|0:0,0:0:0:0:
201,278,40883,2,0,P|209:242|197:207,1,73.8000011260987,10|0,0:0|0:0,0:0:0:0:
104,149,41226,1,2,3:2:0:0:
296,10,41397,1,10,0:0:0:0:
296,10,41483,1,8,0:0:0:0:
296,10,41569,5,10,3:3:0:0:
321,42,41654,1,8,3:3:0:0:
320,84,41740,1,4,3:0:0:0:
297,120,41826,1,4,3:0:0:0:
255,130,41911,5,2,0:0:0:0:
457,367,43283,5,2,0:0:0:0:
490,303,43454,1,2,0:0:0:0:
465,228,43626,1,2,0:0:0:0:
383,197,43797,1,2,0:0:0:0:
304,239,43969,1,2,0:0:0:0:
207,223,44140,1,2,0:0:0:0:
161,129,44311,1,2,0:0:0:0:
212,36,44483,1,2,0:0:0:0:
327,39,44654,5,2,0:0:0:0:
220,204,44826,1,2,0:0:0:0:
186,18,44997,1,2,0:0:0:0:
333,168,45169,1,2,0:0:0:0:
154,295,45340,5,2,0:0:0:0:
258,126,45511,1,2,0:0:0:0:
307,347,45683,1,2,0:0:0:0:
121,182,45854,1,2,3:2:0:0:
121,182,45940,1,0,3:0:0:0:
121,182,46026,6,0,B|175:151|221:190|198:190|244:230|300:193,2,183.600001120605,6|6|6,3:2|3:2|3:2,0:0:0:0:
449,0,47397,5,6,3:2:0:0:
257,128,47569,1,10,0:0:0:0:
512,201,47740,1,2,3:2:0:0:
512,201,47826,1,2,0:0:0:0:
512,201,47911,1,8,0:0:0:0:
296,52,48083,6,0,P|238:41|189:71,1,118.799999637451,0|8,3:0|0:0,0:0:0:0:
159,269,48426,1,2,3:2:0:0:
159,269,48511,1,0,3:2:0:0:
159,269,48597,1,10,0:0:0:0:
257,128,48769,5,0,3:0:0:0:
12,53,48940,1,10,0:0:0:0:
260,239,49111,1,2,3:2:0:0:
51,311,49283,2,0,P|46:232|83:197,1,118.799999637451,10|0,0:0|3:0,0:0:0:0:
285,23,49626,5,10,0:0:0:0:
405,182,49797,1,10,0:0:0:0:
431,195,49882,1,8,0:0:0:0:
460,197,49968,1,10,0:0:0:0:
487,186,50054,1,8,0:0:0:0:
508,164,50140,6,0,P|485:99|361:101,1,178.199999456177,2|0,3:2|0:0,0:0:0:0:
345,113,50483,1,2,3:2:0:0:
392,310,50654,2,0,P|472:283|523:271,1,118.799999637451,10|0,0:0|3:0,0:0:0:0:
260,148,50997,1,10,0:0:0:0:
323,351,51169,1,0,3:0:0:0:
405,182,51340,1,8,0:0:0:0:
81,145,51511,5,14,0:0:0:0:
160,384,51683,1,2,3:2:0:0:
240,73,51854,5,14,0:0:0:0:
81,334,52026,1,2,3:2:0:0:
58,0,52197,5,14,0:0:0:0:
164,290,52369,1,2,3:2:0:0:
308,32,52540,5,14,0:0:0:0:
266,0,52625,1,8,0:0:0:0:
217,0,52711,1,0,3:0:0:0:
175,28,52797,1,8,3:0:0:0:
158,76,52883,6,0,P|192:148|239:260,1,178.199999456177,2|0,3:2|0:0,0:0:0:0:
254,263,53226,2,0,P|320:279|375:238,1,118.799999637451,2|8,3:2|0:0,0:0:0:0:
468,43,53569,1,0,3:0:0:0:
303,199,53740,1,10,0:0:0:0:
512,228,53911,1,2,3:2:0:0:
512,228,53997,1,0,3:0:0:0:
512,228,54083,1,10,0:0:0:0:
386,131,54254,5,0,3:0:0:0:
335,331,54426,1,10,0:0:0:0:
236,87,54597,1,2,3:2:0:0:
361,255,54769,2,0,P|437:231|482:224,1,118.799999637451,10|0,0:0|3:0,0:0:0:0:
291,39,55111,5,10,0:0:0:0:
255,12,55196,1,8,0:0:0:0:
212,12,55282,1,10,3:2:0:0:
176,36,55368,1,8,0:0:0:0:
161,78,55454,1,8,0:0:0:0:
303,179,55626,5,2,3:2:0:0:
113,293,55797,1,10,0:0:0:0:
236,87,55969,1,2,3:2:0:0:
291,265,56140,2,0,P|209:247|155:241,1,118.799999637451,10|0,0:0|3:0,0:0:0:0:
8,160,56483,1,10,0:0:0:0:
65,355,56654,2,0,P|133:368|181:322,1,118.799999637451,2|10,3:2|0:0,0:0:0:0:
128,69,56997,5,2,3:2:0:0:
112,109,57082,1,8,0:0:0:0:
114,156,57168,1,8,0:0:0:0:
138,195,57254,1,8,0:0:0:0:
176,219,57339,1,8,0:0:0:0:
225,234,57426,1,8,0:0:0:0:
281,224,57512,1,8,0:0:0:0:
329,193,57598,1,8,0:0:0:0:
354,145,57683,5,0,3:0:0:0:
437,347,57854,1,10,0:0:0:0:
512,57,58026,6,0,B|399:2|443:125|297:40,1,178.199999456177,14|0,0:0|0:0,0:0:0:0:
276,23,58369,5,6,3:2:0:0:
470,134,58540,1,10,0:0:0:0:
197,197,58711,1,2,3:2:0:0:
197,197,58797,1,2,0:0:0:0:
197,197,58883,1,8,0:0:0:0:
336,138,59054,6,0,P|316:202|294:296,1,118.799999637451,0|10,3:0|0:0,0:0:0:0:
450,378,59397,1,2,3:2:0:0:
450,378,59483,1,0,3:0:0:0:
450,378,59569,1,10,0:0:0:0:
303,252,59740,1,0,3:0:0:0:
512,199,59911,1,10,0:0:0:0:
341,352,60083,2,0,P|273:327|205:318,1,118.799999637451,2|10,3:2|0:0,0:0:0:0:
55,256,60426,1,0,3:0:0:0:
292,161,60597,5,10,0:0:0:0:
179,380,60769,1,10,0:0:0:0:
157,358,60854,1,8,0:0:0:0:
146,330,60940,1,10,0:0:0:0:
144,302,61026,1,8,0:0:0:0:
153,273,61111,6,0,B|221:258|221:258|262:278|262:278|342:263,1,178.199999456177,2|0,3:2|0:0,0:0:0:0:
357,258,61454,1,2,3:2:0:0:
274,78,61626,2,0,P|217:109|208:171,1,118.799999637451,8|0,0:0|3:0,0:0:0:0:
227,319,61969,1,10,0:0:0:0:
400,178,62140,2,0,P|322:160|272:153,1,118.799999637451,2|10,3:2|0:0,0:0:0:0:
41,52,62483,5,14,0:0:0:0:
291,249,62654,1,2,3:2:0:0:
17,248,62826,5,14,0:0:0:0:
300,30,62997,1,2,3:2:0:0:
237,372,63169,5,14,0:0:0:0:
59,72,63340,1,10,0:0:0:0:
21,363,63511,5,14,0:0:0:0:
64,354,63596,1,8,0:0:0:0:
99,327,63682,1,10,0:0:0:0:
119,288,63768,1,8,0:0:0:0:
120,244,63854,6,0,P|61:222|14:253,1,118.799999637451,2|10,3:2|0:0,0:0:0:0:
160,384,64197,1,2,3:2:0:0:
160,384,64283,1,2,0:0:0:0:
160,384,64369,1,8,0:0:0:0:
260,178,64540,1,0,3:0:0:0:
383,358,64711,1,10,0:0:0:0:
159,164,64883,1,2,3:2:0:0:
378,101,65054,6,0,B|357:184|357:184|362:191|362:191|344:275,1,178.199999456177,10|0,0:0|0:0,0:0:0:0:
307,298,65397,1,8,0:0:0:0:
484,348,65569,1,2,3:2:0:0:
277,147,65740,2,0,L|153:166,1,118.799999637451,10|0,0:0|3:0,0:0:0:0:
120,244,66083,1,10,0:0:0:0:
287,50,66254,1,10,0:0:0:0:
287,50,66340,1,8,0:0:0:0:
287,50,66426,1,10,0:0:0:0:
442,245,66597,6,0,B|459:162|459:162|454:155|454:155|475:72,1,178.199999456177,4|0,3:2|0:0,0:0:0:0:
489,33,66940,1,2,3:2:0:0:
339,122,67111,2,0,P|269:138|217:99,1,118.799999637451,10|0,0:0|3:0,0:0:0:0:
161,19,67454,1,10,0:0:0:0:
21,193,67626,1,2,3:2:0:0:
21,193,67711,1,0,3:0:0:0:
21,193,67797,1,10,0:0:0:0:
156,220,67969,6,0,P|126:146|99:86,1,118.799999637451,4|10,3:2|0:0,0:0:0:0:
23,40,68311,1,2,3:2:0:0:
105,288,68483,2,0,P|171:302|227:261,1,118.799999637451,10|0,0:0|3:0,0:0:0:0:
339,122,68826,1,10,0:0:0:0:
403,274,68997,1,2,3:2:0:0:
378,257,69082,1,8,3:0:0:0:
351,243,69168,1,4,3:0:0:0:
324,232,69254,1,4,3:0:0:0:
296,223,69340,5,6,3:2:0:0:
219,384,69511,1,8,0:0:0:0:
176,112,69683,5,6,3:2:0:0:
310,334,69854,1,8,0:0:0:0:
292,23,70026,5,6,3:2:0:0:
142,313,70197,1,8,0:0:0:0:
433,169,70369,5,6,3:2:0:0:
88,12,70540,1,8,0:0:0:0:
490,35,70711,5,6,3:2:0:0:
490,35,70797,1,0,3:0:0:0:
490,35,70883,2,0,L|480:104,1,59.3999998187256,0|0,3:0|3:0,0:0:0:0:
342,156,71054,5,8,0:0:0:0:
342,156,71140,1,0,3:0:0:0:
342,156,71226,2,0,L|352:225,1,59.3999998187256,8|0,3:0|0:0,0:0:0:0:
436,378,71397,5,8,0:0:0:0:
470,351,71482,1,0,3:0:0:0:
484,309,71568,1,8,3:0:0:0:
473,267,71654,1,0,0:0:0:0:
441,237,71739,5,8,0:0:0:0:
408,277,71826,1,0,3:0:0:0:
358,294,71912,1,8,3:0:0:0:
307,281,71998,1,4,3:0:0:0:
271,243,72083,5,0,0:0:0:0:
398,68,72254,1,10,3:2:0:0:
299,367,72426,1,10,3:2:0:0:
143,12,72597,1,10,3:2:0:0:
111,360,72769,5,10,3:2:0:0:
105,371,73111,6,0,P|86:288|66:240,1,118.799999637451,10|0,0:0|0:0,0:0:0:0:
15,152,73454,6,0,P|69:174|126:156,1,100.800001230469,10|8,3:1|0:0,0:0:0:0:
257,28,73797,2,0,P|311:6|368:24,1,100.800001230469,10|8,3:1|0:0,0:0:0:0:
447,123,74140,1,8,3:1:0:0:
500,0,74311,1,10,0:0:0:0:
317,95,74483,2,0,P|342:147|359:197,1,100.800001230469,10|8,3:1|0:0,0:0:0:0:
236,306,74826,5,10,3:1:0:0:
276,230,74997,1,8,0:0:0:0:
279,373,75169,1,10,3:1:0:0:
210,179,75340,1,8,0:0:0:0:
174,380,75511,5,8,3:1:0:0:
286,146,75683,1,10,0:0:0:0:
71,318,75854,5,10,3:1:0:0:
302,250,76026,1,10,0:0:0:0:
83,64,76197,6,0,B|63:87|50:95|50:95|72:134|106:196,1,151.200001845703,10|0,3:1|0:0,0:0:0:0:
121,226,76540,2,0,P|187:185|243:163,1,118.799999637451,10|0,3:1|0:0,0:0:0:0:
356,187,76883,1,8,3:1:0:0:
257,28,77054,1,10,0:0:0:0:
257,28,77140,1,8,0:0:0:0:
257,28,77226,5,10,3:1:0:0:
267,75,77311,1,0,3:2:0:0:
309,101,77397,1,10,3:0:0:0:
357,90,77483,1,4,3:0:0:0:
383,49,77568,5,14,3:1:0:0:
152,115,77911,5,14,3:1:0:0:
383,49,78254,5,14,3:1:0:0:
492,156,78597,1,8,0:0:0:0:
486,167,78682,1,8,0:0:0:0:
481,178,78768,1,8,0:0:0:0:
477,190,78854,1,8,0:0:0:0:
473,202,78939,5,4,3:2:0:0:
309,101,79111,1,10,0:0:0:0:
283,254,79283,2,0,P|354:226|400:216,1,100.800001230469,2|10,3:2|0:0,0:0:0:0:
411,119,79626,1,2,3:2:0:0:
361,323,79797,1,10,0:0:0:0:
202,194,79969,1,2,3:2:0:0:
202,194,80054,1,0,3:2:0:0:
202,194,80140,1,10,0:0:0:0:
283,254,80311,6,0,P|255:305|239:356,1,100.800001230469,2|8,3:2|0:0,0:0:0:0:
29,384,80654,2,0,P|4:331|27:286,1,100.800001230469,2|8,3:2|0:0,0:0:0:0:
232,185,80997,1,2,3:2:0:0:
29,52,81169,1,10,0:0:0:0:
81,250,81340,1,10,0:0:0:0:
81,250,81426,1,8,0:0:0:0:
81,250,81511,1,8,0:0:0:0:
257,109,81683,6,0,P|197:106|156:159,1,100.800001230469,4|10,3:2|0:0,0:0:0:0:
118,243,82026,1,2,3:2:0:0:
45,96,82197,1,10,0:0:0:0:
232,185,82369,2,0,P|207:250|198:299,1,100.800001230469,2|10,3:2|0:0,0:0:0:0:
52,379,82711,1,2,3:2:0:0:
142,130,82883,1,10,0:0:0:0:
296,375,83054,5,14,0:0:0:0:
0,240,83226,1,2,3:2:0:0:
325,104,83397,5,12,0:0:0:0:
177,384,83569,1,2,3:2:0:0:
142,22,83740,5,12,0:0:0:0:
293,355,83911,1,2,3:2:0:0:
323,20,84083,5,10,0:0:0:0:
369,9,84168,1,8,0:0:0:0:
418,23,84254,1,2,3:2:0:0:
455,55,84340,1,8,3:0:0:0:
472,101,84426,6,0,P|410:161|337:143,1,151.200001845703,4|0,3:2|0:0,0:0:0:0:
319,115,84769,1,2,3:2:0:0:
229,277,84940,1,10,0:0:0:0:
200,100,85111,2,0,P|249:162|269:200,1,118.799999637451,2|10,3:2|0:0,0:0:0:0:
304,346,85454,1,2,3:2:0:0:
304,346,85540,1,0,3:2:0:0:
304,346,85626,1,10,0:0:0:0:
389,89,85797,5,0,3:2:0:0:
508,325,85969,1,10,0:2:0:0:
512,27,86140,5,2,3:2:0:0:
390,282,86311,1,10,0:2:0:0:
183,21,86483,5,2,3:2:0:0:
510,170,86654,1,10,0:2:0:0:
141,225,86826,5,2,3:2:0:0:
431,21,86997,1,10,0:0:0:0:
99,0,87169,5,0,3:2:0:0:
45,23,87255,1,0,3:2:0:0:
11,70,87340,1,10,0:2:0:0:
5,126,87426,1,8,0:2:0:0:
27,180,87512,5,2,3:2:0:0:
78,218,87598,1,0,3:2:0:0:
141,225,87683,1,10,0:2:0:0:
199,199,87769,1,8,0:2:0:0:
237,149,87855,5,0,3:2:0:0:
294,105,87940,1,0,3:2:0:0:
367,96,88025,1,10,0:2:0:0:
433,126,88111,1,8,0:2:0:0:
479,188,88197,5,2,3:2:0:0:
477,265,88283,1,0,3:2:0:0:
438,331,88369,1,10,0:2:0:0:
365,358,88454,1,8,0:2:0:0:
289,340,88540,5,2,3:2:0:0:
509,116,88711,1,2,3:2:0:0:
165,134,88883,5,2,3:2:0:0:
378,279,89054,1,2,3:2:0:0:
149,384,89226,6,0,P|127:332|103:282,1,111.59999557251,2|0,3:2|0:0,0:0:0:0:
