osu file format v14

[General]
AudioFilename: kakawari cut.mp3
AudioLeadIn: 0
PreviewTime: 53376
Countdown: 0
SampleSet: Normal
StackLeniency: 0.7
Mode: 1
LetterboxInBreaks: 0
WidescreenStoryboard: 1

[Editor]
Bookmarks: 4568,5345,5656,7055,7832,8143,8920,12029,13117,18091,19335,25708,26796,31770,32547,34413,35345,39231,41874,43117,46848,47781,53065,54309,57884,58661,61770,62858,67832,68610,71718,72651,76692,77625,81667,82910,85863,86641,89128,90060,94102,95190,97521,98454,100008,100941,103117,104050
DistanceSpacing: 1.4
BeatDivisor: 2
GridSize: 4
TimelineZoom: 0.6999999

[Metadata]
Title:Kakawari
TitleUnicode:かかわり
Artist:TrySail
ArtistUnicode:TrySail
Creator:Volta
Version:Ura Kantan
Source:マギアレコード 魔法少女まどか☆マギカ外伝
Tags:Magia Record Puella Magi Madoka Magica Side Story Gaiden opening op cut short version MagiReco マギレコ Video Game Japanese Magical Girl 麻倉もも Asakura Momo 雨宮天 Amamiya Sora 夏川椎菜 Natsukawa Shiina 渡辺翔 watanabe sho anime pop jpop j-pop
BeatmapID:2498476
BeatmapSetID:1197879

[Difficulty]
HPDrainRate:7.5
CircleSize:2
OverallDifficulty:3
ApproachRate:10
SliderMultiplier:1.4
SliderTickRate:1

[Events]
//Background and Video events
0,0,"iroha2.jpg",0,60
//Break Periods
//Storyboard Layer 0 (Background)
//Storyboard Layer 1 (Fail)
//Storyboard Layer 2 (Pass)
//Storyboard Layer 3 (Foreground)
//Storyboard Layer 4 (Overlay)
//Storyboard Sound Samples

[TimingPoints]
838,310.880829015544,4,1,0,5,1,0
838,-105.263157894737,4,1,0,5,0,0
1148,-105.263157894737,4,1,0,10,0,0
1459,-105.263157894737,4,1,0,15,0,0
1770,-105.263157894737,4,1,0,20,0,0
2081,-105.263157894737,4,1,0,25,0,0
2392,-105.263157894737,4,1,0,30,0,0
2703,-105.263157894737,4,1,0,35,0,0
3014,-105.263157894737,4,1,0,40,0,0
3325,-105.263157894737,4,1,0,45,0,0
3635,-105.263157894737,4,1,0,50,0,0
3946,-105.263157894737,4,1,0,55,0,0
4257,-105.263157894737,4,1,0,60,0,0
4568,-105.263157894737,4,1,0,80,0,0
54309,-105.263157894737,4,1,0,90,0,1
84154,-105.263157894737,4,1,0,80,0,0

[HitObjects]
256,192,838,12,0,4257,0:0:0:0:
148,84,4568,5,12,0:0:0:0:
344,223,5345,1,12,0:0:0:0:
493,146,5656,1,12,0:0:0:0:
194,135,7055,1,12,0:0:0:0:
299,103,7832,1,12,0:0:0:0:
299,103,8143,1,4,0:0:0:0:
24,144,8920,1,0,0:0:0:0:
196,108,9231,1,0,0:0:0:0:
297,136,9542,1,12,0:0:0:0:
228,117,10164,1,8,0:0:0:0:
334,141,10630,1,0,0:0:0:0:
52,132,11097,1,0,0:0:0:0:
189,79,11407,1,8,0:0:0:0:
286,177,12029,1,12,0:0:0:0:
79,131,13117,1,0,0:0:0:0:
376,84,13428,1,8,0:0:0:0:
121,125,13894,1,8,0:0:0:0:
308,52,14205,1,8,0:0:0:0:
288,141,14516,1,4,0:0:0:0:
116,126,15138,1,8,0:0:0:0:
151,134,15604,1,0,0:0:0:0:
148,80,16071,1,0,0:0:0:0:
160,104,16382,1,8,0:0:0:0:
288,141,17003,1,12,0:0:0:0:
123,125,17625,1,8,0:0:0:0:
288,141,18091,1,4,0:0:0:0:
62,14,19335,1,4,0:0:0:0:
304,96,19801,1,4,0:0:0:0:
288,141,20112,1,4,0:0:0:0:
288,141,20734,1,4,0:0:0:0:
91,109,21356,1,12,0:0:0:0:
288,141,21822,1,12,0:0:0:0:
24,74,22288,1,0,0:0:0:0:
256,88,22599,1,8,0:0:0:0:
262,111,23221,1,0,0:0:0:0:
247,115,23843,5,8,0:0:0:0:
289,96,24154,1,0,0:0:0:0:
289,96,24464,1,0,0:0:0:0:
96,96,25086,1,8,0:0:0:0:
287,98,25708,1,8,0:0:0:0:
8,136,26796,1,8,0:0:0:0:
309,213,27262,1,0,0:0:0:0:
484,168,27573,1,8,0:0:0:0:
153,122,28195,1,0,0:0:0:0:
117,146,28817,1,8,0:0:0:0:
117,146,29128,1,0,0:0:0:0:
117,146,29439,1,0,0:0:0:0:
262,121,30060,1,8,0:0:0:0:
193,93,30682,1,0,0:0:0:0:
193,93,30993,1,0,0:0:0:0:
382,140,31304,1,8,0:0:0:0:
124,88,31770,1,8,0:0:0:0:
48,124,32547,1,8,0:0:0:0:
141,85,33169,1,0,0:0:0:0:
331,71,33791,1,8,0:0:0:0:
180,52,34102,1,8,0:0:0:0:
158,83,34413,1,0,0:0:0:0:
46,151,35345,1,0,0:0:0:0:
158,83,35656,1,8,0:0:0:0:
330,110,36278,1,0,0:0:0:0:
36,64,36744,1,8,0:0:0:0:
278,197,37211,1,0,0:0:0:0:
167,94,37521,1,0,0:0:0:0:
167,94,37988,1,8,0:0:0:0:
13,303,38454,1,0,0:0:0:0:
105,153,38765,1,8,0:0:0:0:
298,165,39231,1,8,0:0:0:0:
193,135,40008,1,8,0:0:0:0:
285,163,40630,1,0,0:0:0:0:
287,163,40941,1,8,0:0:0:0:
267,158,41252,1,0,0:0:0:0:
245,148,41874,5,4,0:0:0:0:
240,98,43117,1,8,0:0:0:0:
240,98,43739,1,8,0:0:0:0:
80,137,44361,1,0,0:0:0:0:
279,84,44983,1,8,0:0:0:0:
279,84,45293,1,0,0:0:0:0:
80,137,45604,1,8,0:0:0:0:
245,148,46226,1,8,0:0:0:0:
245,148,46848,1,4,0:0:0:0:
24,200,47781,1,0,0:0:0:0:
85,248,48091,1,8,0:0:0:0:
85,238,48713,1,8,0:0:0:0:
64,60,49024,1,0,0:0:0:0:
176,108,49335,5,12,0:0:0:0:
185,99,49957,1,8,0:0:0:0:
0,156,50268,1,8,0:0:0:0:
245,148,50578,5,4,0:0:0:0:
309,172,51200,5,8,0:0:0:0:
309,172,51822,5,0,0:0:0:0:
147,86,52133,1,0,0:0:0:0:
139,101,52444,1,8,0:0:0:0:
192,40,52755,5,8,0:0:0:0:
128,103,53065,1,0,0:0:0:0:
112,64,54309,1,4,0:0:0:0:
55,132,54931,1,0,0:0:0:0:
226,134,55242,1,8,0:0:0:0:
234,134,55553,1,0,0:0:0:0:
40,104,56019,1,8,0:0:0:0:
327,118,56485,1,8,0:0:0:0:
323,120,56796,1,0,0:0:0:0:
153,116,57262,1,8,0:0:0:0:
323,121,57573,1,0,0:0:0:0:
75,142,57884,1,0,0:0:0:0:
50,159,58661,1,0,0:0:0:0:
238,75,58972,1,8,0:0:0:0:
114,113,59283,1,4,0:0:0:0:
125,118,59905,1,0,0:0:0:0:
104,91,60216,1,8,0:0:0:0:
103,94,60527,1,8,0:0:0:0:
131,106,61148,1,0,0:0:0:0:
146,147,61770,1,12,0:0:0:0:
114,113,62858,1,0,0:0:0:0:
279,186,63169,1,0,0:0:0:0:
114,113,63635,1,8,0:0:0:0:
296,72,63946,1,8,0:0:0:0:
114,113,64257,1,4,0:0:0:0:
106,143,64879,1,0,0:0:0:0:
251,95,65190,1,8,0:0:0:0:
162,106,65501,1,8,0:0:0:0:
96,104,65967,1,0,0:0:0:0:
162,106,66433,1,8,0:0:0:0:
181,140,66744,1,0,0:0:0:0:
106,138,67211,1,8,0:0:0:0:
181,140,67521,1,0,0:0:0:0:
209,88,67832,1,8,0:0:0:0:
100,140,68610,1,0,0:0:0:0:
277,139,68920,1,8,0:0:0:0:
187,150,69231,1,8,0:0:0:0:
128,112,69698,1,8,0:0:0:0:
416,333,70164,1,0,0:0:0:0:
172,208,70630,1,0,0:0:0:0:
187,150,71097,1,8,0:0:0:0:
8,108,71407,1,8,0:0:0:0:
187,150,71718,1,4,0:0:0:0:
95,132,72651,1,8,0:0:0:0:
231,131,72962,1,0,0:0:0:0:
186,122,73584,1,0,0:0:0:0:
231,131,73894,1,8,0:0:0:0:
49,73,74205,1,4,0:0:0:0:
183,164,74827,1,0,0:0:0:0:
314,215,75138,1,12,0:0:0:0:
268,109,75760,1,8,0:0:0:0:
90,128,76071,1,0,0:0:0:0:
252,129,76382,1,8,0:0:0:0:
314,215,76692,1,4,0:0:0:0:
314,215,77625,1,12,0:0:0:0:
143,124,78247,1,8,0:0:0:0:
243,124,78869,1,8,0:0:0:0:
219,148,79179,1,4,0:0:0:0:
180,92,79490,1,8,0:0:0:0:
303,87,80112,1,8,0:0:0:0:
303,87,80423,1,0,0:0:0:0:
44,48,80889,1,0,0:0:0:0:
264,212,81356,1,8,0:0:0:0:
312,191,81667,5,4,0:0:0:0:
20,139,82910,1,8,0:0:0:0:
191,92,83532,1,8,0:0:0:0:
360,120,83843,1,8,0:0:0:0:
230,236,84154,5,4,0:0:0:0:
230,236,84620,1,0,0:0:0:0:
100,156,85242,1,12,0:0:0:0:
104,96,85553,1,8,0:0:0:0:
312,40,85863,1,8,0:0:0:0:
196,173,86641,1,4,0:0:0:0:
173,99,87262,1,8,0:0:0:0:
251,94,87573,1,0,0:0:0:0:
251,94,87884,1,8,0:0:0:0:
161,111,88506,1,8,0:0:0:0:
157,112,89128,1,0,0:0:0:0:
95,157,90060,1,8,0:0:0:0:
45,144,90371,1,0,0:0:0:0:
133,128,90993,1,8,0:0:0:0:
45,144,91304,1,0,0:0:0:0:
210,203,91615,1,12,0:0:0:0:
174,116,92236,1,0,0:0:0:0:
52,125,92858,1,8,0:0:0:0:
186,9,93169,1,8,0:0:0:0:
98,140,93480,1,0,0:0:0:0:
210,203,94102,1,4,0:0:0:0:
210,203,95190,1,0,0:0:0:0:
57,125,95501,1,0,0:0:0:0:
210,203,95967,1,8,0:0:0:0:
210,203,96278,1,8,0:0:0:0:
210,203,96589,1,4,0:0:0:0:
210,203,97055,1,0,0:0:0:0:
210,203,97521,1,12,0:0:0:0:
259,150,98454,1,0,0:0:0:0:
168,133,98765,1,8,0:0:0:0:
35,144,99076,5,4,0:0:0:0:
35,144,99542,1,0,0:0:0:0:
308,100,100008,1,12,0:0:0:0:
147,120,100941,1,8,0:0:0:0:
13,164,101252,1,0,0:0:0:0:
103,175,101563,5,8,0:0:0:0:
103,175,102029,1,8,0:0:0:0:
103,175,102340,1,8,0:0:0:0:
103,175,102651,1,0,0:0:0:0:
103,175,103117,1,0,0:0:0:0:
324,131,104050,5,12,0:0:0:0:
256,192,104361,12,8,107625,0:0:0:0:
