osu file format v14

[General]
AudioFilename: kakawari cut.mp3
AudioLeadIn: 0
PreviewTime: 53376
Countdown: 0
SampleSet: Normal
StackLeniency: 0.7
Mode: 1
LetterboxInBreaks: 0
WidescreenStoryboard: 1

[Editor]
DistanceSpacing: 1.4
BeatDivisor: 2
GridSize: 4
TimelineZoom: 0.6999999

[Metadata]
Title:Kakawari
TitleUnicode:かかわり
Artist:TrySail
ArtistUnicode:TrySail
Creator:Volta
Version:Kantan
Source:マギアレコード 魔法少女まどか☆マギカ外伝
Tags:Magia Record Puella Magi Madoka Magica Side Story Gaiden opening op cut short version MagiReco マギレコ Video Game Japanese Magical Girl 麻倉もも Asakura Momo 雨宮天 Amamiya Sora 夏川椎菜 Natsukawa Shiina 渡辺翔 watanabe sho anime pop jpop j-pop
BeatmapID:2498475
BeatmapSetID:1197879

[Difficulty]
HPDrainRate:8
CircleSize:2
OverallDifficulty:2.5
ApproachRate:10
SliderMultiplier:1.4
SliderTickRate:1

[Events]
//Background and Video events
0,0,"iroha1.jpg",0,69
//Break Periods
//Storyboard Layer 0 (Background)
//Storyboard Layer 1 (Fail)
//Storyboard Layer 2 (Pass)
//Storyboard Layer 3 (Foreground)
//Storyboard Layer 4 (Overlay)
//Storyboard Sound Samples

[TimingPoints]
838,310.880829015544,4,1,0,5,1,0
838,-111.111111111111,4,1,0,5,0,0
1148,-111.111111111111,4,1,0,10,0,0
1459,-111.111111111111,4,1,0,15,0,0
1770,-111.111111111111,4,1,0,20,0,0
2081,-111.111111111111,4,1,0,25,0,0
2392,-111.111111111111,4,1,0,30,0,0
2703,-111.111111111111,4,1,0,35,0,0
3014,-111.111111111111,4,1,0,40,0,0
3325,-111.111111111111,4,1,0,45,0,0
3635,-111.111111111111,4,1,0,50,0,0
3946,-111.111111111111,4,1,0,55,0,0
4257,-111.111111111111,4,1,0,60,0,0
4568,-111.111111111111,4,1,0,80,0,0
54309,-111.111111111111,4,1,0,90,0,1
84154,-111.111111111111,4,1,0,80,0,0

[HitObjects]
256,192,838,12,0,4257,0:0:0:0:
148,84,4568,5,12,0:0:0:0:
493,146,5345,1,12,0:0:0:0:
194,135,7055,1,12,0:0:0:0:
299,103,7832,1,4,0:0:0:0:
297,136,9542,1,12,0:0:0:0:
334,141,10786,1,0,0:0:0:0:
189,79,11407,1,8,0:0:0:0:
286,177,12029,1,12,0:0:0:0:
376,84,13273,1,8,0:0:0:0:
121,125,13894,1,8,0:0:0:0:
288,141,14516,1,4,0:0:0:0:
151,134,15760,1,0,0:0:0:0:
160,104,16382,1,8,0:0:0:0:
288,141,17003,1,4,0:0:0:0:
288,141,18091,1,12,0:0:0:0:
25,133,18869,1,8,0:0:0:0:
62,14,19335,1,4,0:0:0:0:
288,141,20734,1,4,0:0:0:0:
91,109,21356,1,12,0:0:0:0:
288,141,21822,1,12,0:0:0:0:
262,111,23221,1,0,0:0:0:0:
247,115,23843,5,8,0:0:0:0:
289,96,24464,1,0,0:0:0:0:
287,98,25708,1,8,0:0:0:0:
33,135,26330,1,0,0:0:0:0:
8,136,26796,1,8,0:0:0:0:
153,122,28195,1,0,0:0:0:0:
117,146,28817,1,8,0:0:0:0:
117,146,29439,1,0,0:0:0:0:
193,93,30682,1,0,0:0:0:0:
382,140,31304,1,8,0:0:0:0:
124,88,31770,1,8,0:0:0:0:
141,85,33169,1,0,0:0:0:0:
331,71,33791,1,8,0:0:0:0:
158,83,34413,1,0,0:0:0:0:
158,83,35656,1,8,0:0:0:0:
330,110,36278,1,0,0:0:0:0:
36,64,36744,1,8,0:0:0:0:
167,94,37988,1,8,0:0:0:0:
105,153,38765,1,0,0:0:0:0:
298,165,39231,1,8,0:0:0:0:
298,165,40008,1,8,0:0:0:0:
285,163,40630,1,8,0:0:0:0:
108,152,40941,1,0,0:0:0:0:
267,158,41252,1,8,0:0:0:0:
245,148,41874,5,4,0:0:0:0:
240,98,43117,1,8,0:0:0:0:
240,98,43739,1,8,0:0:0:0:
80,137,44361,1,0,0:0:0:0:
254,124,45293,1,0,0:0:0:0:
80,137,45604,1,8,0:0:0:0:
245,148,46226,1,8,0:0:0:0:
245,148,46848,1,4,0:0:0:0:
85,248,48091,1,8,0:0:0:0:
85,238,48713,1,8,0:0:0:0:
176,108,49335,5,4,0:0:0:0:
288,88,50268,5,0,0:0:0:0:
245,148,50578,5,12,0:0:0:0:
309,172,51200,5,8,0:0:0:0:
309,172,51822,5,0,0:0:0:0:
348,120,52444,1,8,0:0:0:0:
348,120,52755,1,8,0:0:0:0:
128,103,53065,1,0,0:0:0:0:
112,64,54309,5,4,0:0:0:0:
60,162,54931,1,0,0:0:0:0:
15,139,55242,1,8,0:0:0:0:
234,134,55553,1,0,0:0:0:0:
327,118,56174,1,0,0:0:0:0:
323,120,56796,1,8,0:0:0:0:
169,146,57884,1,8,0:0:0:0:
203,37,58661,5,8,0:0:0:0:
114,113,59283,1,4,0:0:0:0:
121,141,59905,1,0,0:0:0:0:
121,141,60216,1,8,0:0:0:0:
103,94,60527,1,8,0:0:0:0:
86,126,61148,1,0,0:0:0:0:
86,126,61770,1,12,0:0:0:0:
114,113,62858,1,0,0:0:0:0:
114,113,63635,1,8,0:0:0:0:
114,113,64257,1,4,0:0:0:0:
46,112,64879,1,0,0:0:0:0:
162,106,65190,5,8,0:0:0:0:
162,106,65501,1,8,0:0:0:0:
206,120,66122,1,0,0:0:0:0:
181,140,66744,1,8,0:0:0:0:
197,138,67832,1,8,0:0:0:0:
95,106,68610,1,0,0:0:0:0:
187,150,69231,1,8,0:0:0:0:
416,333,70164,1,0,0:0:0:0:
187,150,71097,1,8,0:0:0:0:
187,150,71718,1,4,0:0:0:0:
231,131,72962,1,0,0:0:0:0:
186,122,73584,1,0,0:0:0:0:
49,73,74205,1,4,0:0:0:0:
314,215,75138,1,12,0:0:0:0:
90,128,76071,1,8,0:0:0:0:
314,215,76692,1,4,0:0:0:0:
314,215,77625,1,12,0:0:0:0:
243,124,78558,1,8,0:0:0:0:
219,148,79179,1,4,0:0:0:0:
303,87,80423,1,0,0:0:0:0:
44,48,81045,1,8,0:0:0:0:
312,191,81667,5,4,0:0:0:0:
20,139,82910,1,8,0:0:0:0:
191,92,83532,1,8,0:0:0:0:
230,236,84154,5,4,0:0:0:0:
144,175,84620,1,0,0:0:0:0:
100,156,85242,1,12,0:0:0:0:
196,173,86641,1,4,0:0:0:0:
251,94,87884,1,8,0:0:0:0:
251,94,88506,1,8,0:0:0:0:
157,112,89128,1,0,0:0:0:0:
45,144,90371,1,0,0:0:0:0:
133,128,90993,1,8,0:0:0:0:
210,203,91615,1,12,0:0:0:0:
52,125,92858,1,0,0:0:0:0:
98,140,93480,1,8,0:0:0:0:
210,203,94102,1,4,0:0:0:0:
210,203,95190,1,8,0:0:0:0:
210,203,95967,1,8,0:0:0:0:
210,203,96589,1,4,0:0:0:0:
210,203,97521,1,12,0:0:0:0:
259,150,98454,1,0,0:0:0:0:
35,144,99076,5,4,0:0:0:0:
308,100,100008,1,12,0:0:0:0:
147,120,100941,1,8,0:0:0:0:
103,175,101563,5,8,0:0:0:0:
103,175,102651,1,0,0:0:0:0:
235,110,103117,1,0,0:0:0:0:
324,131,104050,5,12,0:0:0:0:
256,192,104361,12,8,107625,0:0:0:0:
