osu file format v14

[General]
AudioFilename: audio.mp3
AudioLeadIn: 0
PreviewTime: 53626
Countdown: 0
SampleSet: Soft
StackLeniency: 0.7
Mode: 3
LetterboxInBreaks: 0
SpecialStyle: 0
WidescreenStoryboard: 0

[Editor]
DistanceSpacing: 0.8
BeatDivisor: 4
GridSize: 8
TimelineZoom: 1.7

[Metadata]
Title:Kakawari
TitleUnicode:かかわり
Artist:TrySail
ArtistUnicode:TrySail
Creator:Mirsaaa
Version:Normal
Source:マギアレコード 魔法少女まどか☆マギカ外伝
Tags:Magia Record Puella Magi Madoka Magica Side Story Gaiden opening op MagiReco マギレコ Video Game short ver version Japanese Magical Girl 麻倉もも Asakura Momo 雨宮天 Amamiya Sora 夏川椎菜 Natsukawa Shiina 渡辺翔 watanabe sho anime pop jpop j-pop Amiichii 環いろは Tamaki Iroha
BeatmapID:3584065
BeatmapSetID:1751787

[Difficulty]
HPDrainRate:7
CircleSize:4
OverallDifficulty:7
ApproachRate:5
SliderMultiplier:1.4
SliderTickRate:1

[Events]
//Background and Video events
0,0,"Iroha.jpg",0,0
Video,0,"Video.mp4"
//Break Periods
//Storyboard Layer 0 (Background)
//Storyboard Layer 1 (Fail)
//Storyboard Layer 2 (Pass)
//Storyboard Layer 3 (Foreground)
//Storyboard Layer 4 (Overlay)
//Storyboard Sound Samples
Sample,4506,0,"Hat Open.wav",60
Sample,4662,0,"Hat Open.wav",60
Sample,5283,0,"Hat Open2.wav",60
Sample,5594,0,"Hat Open2.wav",60
Sample,6993,0,"Hat Open.wav",60
Sample,7149,0,"Hat Open.wav",60
Sample,7770,0,"Hat Open2.wav",60
Sample,30931,0,"Hat Open2.wav",40
Sample,43055,0,"Hat Open2.wav",40
Sample,44299,0,"Hat Open2.wav",40
Sample,45542,0,"Hat Open2.wav",40
Sample,46164,0,"Hat Open2.wav",40
Sample,46320,0,"Hat Open2.wav",40
Sample,47097,0,"Hat Open2.wav",40
Sample,47719,0,"Hat Open2.wav",40
Sample,48340,0,"Hat Open2.wav",40
Sample,48962,0,"Hat Open2.wav",40
Sample,49584,0,"Hat Open2.wav",40
Sample,50206,0,"Hat Open2.wav",40
Sample,59843,0,"Hat Open2.wav",40
Sample,62330,0,"Hat Open2.wav",40
Sample,63418,0,"Hat Open.wav",40
Sample,76164,0,"normal-hitclap.wav",40

[TimingPoints]
776,310.880829015544,4,2,1,10,1,0
2019,-100,4,2,1,20,0,0
3263,-100,4,2,1,30,0,0
4506,-100,4,2,1,40,0,0
54247,-100,4,2,1,40,0,1
62641,-100,4,2,1,40,0,0
64195,-100,4,2,1,40,0,1
74143,-100,4,2,1,40,0,0

[HitObjects]
192,192,4506,5,10,0:0:0:0:
192,192,4662,1,10,0:0:0:0:
64,192,5128,1,2,0:0:0:0:
448,192,5283,1,8,0:0:0:0:
192,192,5439,1,2,0:0:0:0:
448,192,5594,1,8,0:0:0:0:
64,192,6993,1,10,0:0:0:0:
64,192,7149,1,10,0:0:0:0:
192,192,7615,1,2,0:0:0:0:
448,192,7770,1,8,0:0:0:0:
64,192,7926,1,2,0:0:0:0:
320,192,8081,1,8,0:0:0:0:
448,192,8081,128,4,8858:0:0:0:0:
192,192,8858,1,2,1:1:0:0:
320,192,9014,1,8,1:1:0:0:
64,192,9169,1,4,1:1:0:0:
64,192,9325,1,4,1:1:0:0:
320,192,9480,128,6,9946:0:0:0:0:
448,192,9480,1,0,0:0:0:60:Wushh.wav
192,192,9946,1,2,0:0:0:0:
64,192,10102,1,8,0:0:0:0:
448,192,10102,1,0,0:0:0:0:
320,192,10257,1,0,0:0:0:0:
192,192,10413,1,0,0:0:0:0:
448,192,10568,1,2,0:0:0:0:
64,192,10879,1,2,0:0:0:0:
320,192,11035,1,2,0:0:0:0:
64,192,11345,1,8,0:0:0:0:
192,192,11345,1,0,0:0:0:0:
448,192,11501,1,2,0:0:0:0:
192,192,11656,1,0,0:0:0:40:Hat Open2.wav
320,192,11812,1,2,0:0:0:0:
64,192,11967,128,2,12434:0:0:0:0:
448,192,11967,1,4,0:0:0:0:
192,192,12434,1,2,0:0:0:0:
320,192,12589,1,8,0:0:0:0:
448,192,12589,1,0,0:0:0:0:
64,192,12744,1,0,0:0:0:0:
320,192,12900,1,0,0:0:0:40:Hat Open2.wav
192,192,13055,1,2,0:0:0:0:
320,192,13366,1,8,0:0:0:0:
64,192,13677,1,2,0:0:0:0:
192,192,13832,1,8,0:0:0:0:
448,192,13832,1,0,0:0:0:0:
320,192,13988,1,2,0:0:0:0:
64,192,14143,1,8,0:0:0:0:
192,192,14143,1,0,0:0:0:40:Hat Open2.wav
320,192,14454,1,6,0:0:0:0:
448,192,14454,128,0,14921:0:0:0:60:Wushh.wav
192,192,14921,1,2,0:0:0:0:
64,192,15076,1,8,0:0:0:0:
320,192,15076,1,0,0:0:0:0:
448,192,15231,1,0,0:0:0:0:
192,192,15387,1,0,0:0:0:40:Hat Open2.wav
320,192,15542,1,2,0:0:0:0:
64,192,15853,1,2,0:0:0:0:
192,192,16009,1,2,0:0:0:0:
448,192,16164,1,0,0:0:0:0:
64,192,16320,1,8,0:0:0:0:
320,192,16320,1,0,0:0:0:0:
448,192,16475,1,2,0:0:0:0:
192,192,16630,1,0,0:0:0:40:Hat Open2.wav
64,192,16786,1,2,0:0:0:0:
320,192,16941,128,4,17408:0:0:0:0:
448,192,16941,1,2,0:0:0:0:
64,192,17408,1,2,0:0:0:0:
192,192,17563,1,8,0:0:0:0:
448,192,17563,1,0,0:0:0:0:
320,192,17719,1,2,0:0:0:0:
64,192,18029,128,2,18340:0:0:0:0:
448,192,18029,1,4,0:0:0:0:
192,192,18340,1,2,0:0:0:0:
320,192,18496,1,8,0:0:0:0:
448,192,18496,1,0,0:0:0:0:
192,192,18651,1,2,0:0:0:0:
64,192,18807,1,8,0:0:0:0:
320,192,18807,1,0,0:0:0:0:
448,192,18962,1,8,0:0:0:0:
192,192,19117,1,8,0:0:0:0:
320,192,19273,1,2,0:0:0:0:
64,192,19584,1,2,0:0:0:0:
448,192,19739,1,2,0:0:0:0:
192,192,20050,1,2,0:0:0:0:
320,192,20361,1,2,0:0:0:0:
448,192,20672,1,2,0:0:0:0:
64,192,20983,1,2,0:0:0:0:
192,192,20983,1,0,0:0:0:40:Hat Open2.wav
320,192,21294,1,8,0:0:0:0:
448,192,21294,1,2,0:0:0:0:
64,192,21449,1,8,0:0:0:0:
192,192,21449,1,2,0:0:0:0:
192,192,21760,128,2,22226:0:0:0:0:
320,192,21760,1,4,0:0:0:0:
448,192,22226,128,2,22537:0:0:0:0:
64,192,22537,128,8,23003:0:0:0:0:
192,192,22537,1,0,0:0:0:0:
320,192,23003,1,2,0:0:0:0:
192,192,23159,128,2,23625:0:0:0:0:
320,192,23625,1,2,0:0:0:0:
64,192,23781,1,8,0:0:0:0:
448,192,23781,128,0,24247:0:0:0:0:
320,192,24247,1,2,0:0:0:0:
192,192,24402,128,2,24713:0:0:0:0:
448,192,24713,128,2,25024:0:0:0:0:
192,192,25024,1,8,0:0:0:0:
320,192,25024,1,0,0:0:0:0:
64,192,25180,1,2,0:0:0:0:
320,192,25335,1,0,0:0:0:0:
192,192,25491,1,8,0:0:0:0:
64,192,25646,128,2,25957:0:0:0:0:
320,192,25801,1,8,0:0:0:0:
448,192,25957,1,0,0:0:0:0:
192,192,26112,1,2,0:0:0:0:
320,192,26268,1,8,0:0:0:0:
448,192,26268,1,0,0:0:0:0:
320,192,26579,1,2,0:0:0:0:
64,192,26734,1,2,0:0:0:0:
192,192,26734,128,0,27200:0:0:0:40:Hat Open2.wav
448,192,27200,128,2,27511:0:0:0:0:
64,192,27511,128,8,27978:0:0:0:0:
320,192,27511,1,0,0:0:0:0:
192,192,27978,1,2,0:0:0:0:
320,192,28133,128,2,28599:0:0:0:0:
192,192,28599,1,2,0:0:0:0:
64,192,28755,128,8,29221:0:0:0:0:
448,192,28755,1,0,0:0:0:0:
192,192,29221,1,2,0:0:0:0:
448,192,29377,128,2,29687:0:0:0:0:
64,192,29687,128,2,29998:0:0:0:0:
320,192,29843,1,0,0:0:0:0:
192,192,29998,1,8,0:0:0:0:
448,192,29998,1,0,0:0:0:0:
320,192,30154,1,2,0:0:0:0:
192,192,30465,1,8,0:0:0:0:
64,192,30620,128,2,31242:0:0:0:0:
320,192,30620,1,0,0:0:0:40:Hat Open2.wav
320,192,30931,1,2,0:0:0:0:
192,192,31242,1,8,0:0:0:0:
448,192,31242,1,0,0:0:0:0:
320,192,31397,1,2,0:0:0:0:
64,192,31553,1,8,0:0:0:0:
192,192,31553,1,0,0:0:0:0:
320,192,31708,1,2,0:0:0:0:
448,192,31708,128,0,32796:0:0:0:40:Hat Open2.wav
64,192,32019,1,2,0:0:0:0:
192,192,32174,1,2,0:0:0:0:
320,192,32485,1,2,0:0:0:0:
64,192,32796,1,2,0:0:0:0:
192,192,32952,1,0,0:0:0:0:
320,192,33107,128,2,34040:0:0:0:0:
192,192,33418,1,2,0:0:0:0:
448,192,33729,1,2,0:0:0:0:
192,192,34040,1,2,0:0:0:0:
64,192,34195,1,0,0:0:0:0:
448,192,34351,128,2,35283:0:0:0:0:
64,192,34662,1,2,0:0:0:0:
320,192,34972,1,2,0:0:0:0:
64,192,35283,1,8,0:0:0:0:
192,192,35439,1,0,0:0:0:0:
320,192,35594,128,2,35905:0:0:0:0:
192,192,35905,128,2,36216:0:0:0:0:
448,192,36216,128,2,36527:0:0:0:0:
192,192,36527,1,2,0:0:0:0:
320,192,36682,1,8,0:0:0:0:
448,192,36682,1,0,0:0:0:40:Hat Open2.wav
64,192,36838,128,2,37770:0:0:0:0:
448,192,37149,1,2,0:0:0:0:
448,192,37459,1,2,0:0:0:0:
320,192,37770,1,2,0:0:0:0:
64,192,37926,1,8,0:0:0:0:
192,192,37926,1,0,0:0:0:0:
448,192,38081,128,2,39014:0:0:0:0:
64,192,38392,1,2,0:0:0:0:
320,192,38703,1,2,0:0:0:0:
64,192,39014,1,2,0:0:0:0:
320,192,39169,1,8,0:0:0:0:
448,192,39169,1,0,0:0:0:0:
192,192,39325,1,2,0:0:0:0:
320,192,39636,1,2,0:0:0:0:
64,192,39946,128,2,40568:0:0:0:0:
192,192,39946,1,4,0:0:0:0:
448,192,40102,1,8,0:1:0:0:
320,192,40257,1,2,0:0:0:0:
192,192,40413,1,8,0:1:0:0:
448,192,40568,128,8,41812:0:1:0:0:
320,192,40724,1,2,0:1:0:0:
64,192,40879,1,2,0:0:0:0:
192,192,41035,1,2,0:1:0:0:
320,192,41190,1,2,0:0:0:0:
64,192,41345,1,8,0:1:0:0:
192,192,41501,1,2,0:0:0:0:
64,192,41812,128,2,42278:0:0:0:0:
192,192,41812,1,4,0:0:0:0:
448,192,42278,1,2,0:0:0:0:
192,192,42434,128,8,42744:0:0:0:0:
320,192,42434,1,0,0:0:0:40:Hat Open2.wav
64,192,42744,1,0,0:0:0:0:
448,192,43055,128,2,43522:0:0:0:0:
192,192,43211,1,8,0:0:0:0:
64,192,43522,1,2,0:0:0:0:
192,192,43677,1,8,0:0:0:0:
320,192,43677,128,0,43988:0:0:0:40:Hat Open2.wav
64,192,43988,1,2,0:0:0:0:
192,192,44299,128,2,44765:0:0:0:0:
320,192,44765,1,2,0:0:0:0:
64,192,44921,128,8,45231:0:0:0:0:
448,192,44921,1,0,0:0:0:40:Hat Open2.wav
320,192,45231,128,2,45542:0:0:0:0:
192,192,45542,128,2,46009:0:0:0:0:
448,192,45698,1,8,0:0:0:0:
64,192,46009,1,2,0:0:0:0:
320,192,46164,1,8,0:0:0:0:
320,192,46320,1,8,0:0:0:0:
64,192,46786,1,2,0:0:0:0:
192,192,46786,1,4,0:0:0:0:
448,192,47097,1,2,0:0:0:0:
64,192,47408,1,8,0:0:0:0:
320,192,47408,1,2,0:0:0:0:
192,192,47719,1,2,0:0:0:0:
448,192,48029,1,2,0:0:0:0:
320,192,48340,1,2,0:0:0:0:
64,192,48651,1,2,0:0:0:0:
448,192,48651,1,8,0:0:0:0:
192,192,48962,1,2,0:0:0:0:
320,192,49273,1,2,0:0:0:0:
448,192,49273,1,4,0:0:0:0:
64,192,49584,1,2,0:0:0:0:
192,192,49895,1,2,0:0:0:0:
448,192,49895,1,8,0:0:0:0:
320,192,50206,1,2,0:0:0:0:
64,192,50516,1,2,0:0:0:0:
192,192,50516,1,4,0:0:0:0:
448,192,50827,1,2,0:0:0:0:
192,192,50983,1,2,0:0:0:0:
320,192,51138,1,8,0:0:0:0:
448,192,51138,1,0,0:0:0:0:
320,192,51449,128,0,51760:0:0:0:0:
64,192,51760,128,2,52382:0:0:0:0:
320,192,52382,1,8,0:0:0:0:
320,192,52537,1,8,0:0:0:0:
192,192,52693,1,8,0:0:0:0:
192,192,52848,1,8,0:0:0:0:
320,192,53003,1,10,0:0:0:0:
448,192,53003,1,0,0:0:0:40:Hat Open.wav
64,192,53159,1,10,0:0:0:0:
192,192,53159,1,0,0:0:0:40:Hat Open.wav
320,192,53625,128,0,53936:0:0:0:0:
64,192,53936,128,0,54247:0:0:0:0:
320,192,54247,1,6,0:0:0:0:
448,192,54247,1,0,0:0:0:60:Wushh.wav
64,192,54558,1,8,0:0:0:0:
192,192,54558,1,0,0:0:0:0:
320,192,54713,1,0,0:0:0:0:
64,192,54869,1,2,0:0:0:0:
448,192,55024,1,2,0:0:0:0:
192,192,55180,1,8,0:0:0:0:
320,192,55180,128,0,55491:0:0:0:0:
64,192,55491,1,2,0:0:0:0:
320,192,55801,1,8,0:0:0:0:
448,192,55801,1,0,0:0:0:40:Hat Open2.wav
192,192,55957,128,2,56268:0:0:0:0:
320,192,56268,1,2,0:0:0:0:
64,192,56423,1,8,0:0:0:0:
448,192,56423,1,0,0:0:0:40:Hat Open2.wav
320,192,56734,128,2,57045:0:0:0:0:
64,192,57045,1,8,0:0:0:0:
192,192,57045,1,0,0:0:0:40:Hat Open2.wav
448,192,57200,1,2,0:0:0:0:
192,192,57511,1,2,0:0:0:0:
320,192,57667,1,8,0:0:0:0:
448,192,57667,1,0,0:0:0:40:Hat Open2.wav
64,192,57822,128,2,58133:0:0:0:0:
320,192,58133,1,2,0:0:0:0:
192,192,58288,1,8,0:0:0:0:
448,192,58288,1,0,0:0:0:40:Hat Open2.wav
448,192,58599,128,2,58910:0:0:0:0:
64,192,58755,1,2,0:0:0:0:
192,192,58910,128,8,59221:0:0:0:0:
320,192,58910,1,4,0:0:0:0:
64,192,59221,1,2,0:0:0:0:
448,192,59221,1,4,0:0:0:0:
192,192,59532,1,8,0:0:0:0:
320,192,59532,1,0,0:0:0:40:Hat Open2.wav
64,192,59843,128,2,60154:0:0:0:0:
448,192,59998,1,2,0:0:0:0:
192,192,60154,1,8,0:0:0:0:
320,192,60154,128,0,60465:0:0:0:40:Hat Open2.wav
64,192,60465,1,2,0:0:0:0:
192,192,60775,1,8,0:0:0:0:
320,192,60775,1,0,0:0:0:0:
448,192,60931,1,2,0:0:0:0:
64,192,61086,1,0,0:0:0:0:
320,192,61242,1,2,0:0:0:0:
64,192,61397,128,8,61708:0:0:0:0:
192,192,61397,1,0,0:0:0:0:
320,192,61708,1,2,0:0:0:0:
448,192,61708,1,4,0:0:0:0:
64,192,62019,1,8,0:0:0:0:
192,192,62019,1,0,0:0:0:40:Hat Open2.wav
448,192,62174,1,0,0:0:0:0:
192,192,62330,1,2,0:0:0:0:
320,192,62485,1,2,0:0:0:0:
64,192,62641,1,8,0:0:0:0:
448,192,62641,1,0,0:0:0:40:Hat Open2.wav
192,192,62796,1,2,0:0:0:0:
320,192,62796,1,0,0:0:0:40:Hat Open.wav
64,192,63107,1,2,0:0:0:0:
192,192,63107,1,0,0:0:0:40:Hat Open.wav
320,192,63418,1,2,0:0:0:0:
448,192,63573,1,8,0:0:0:0:
64,192,63573,1,2,0:0:0:0:
192,192,63729,1,2,0:0:0:0:
320,192,63884,1,8,0:0:0:0:
448,192,63884,128,2,64195:0:0:0:0:
64,192,64195,1,6,0:0:0:0:
192,192,64195,1,0,0:0:0:60:Wushh.wav
320,192,64506,1,8,0:0:0:0:
448,192,64506,1,0,0:0:0:0:
192,192,64662,1,0,0:0:0:0:
448,192,64817,1,2,0:0:0:0:
64,192,64972,1,2,0:0:0:0:
192,192,65128,128,8,65439:0:0:0:0:
320,192,65128,1,0,0:0:0:0:
448,192,65439,1,2,0:0:0:0:
64,192,65750,1,8,0:0:0:0:
192,192,65750,1,0,0:0:0:40:Hat Open2.wav
320,192,65905,128,2,66216:0:0:0:0:
192,192,66216,1,2,0:0:0:0:
64,192,66371,1,8,0:0:0:0:
448,192,66371,1,0,0:0:0:40:Hat Open2.wav
320,192,66682,128,2,66993:0:0:0:0:
64,192,66993,1,8,0:0:0:0:
192,192,66993,1,0,0:0:0:0:
448,192,67149,1,0,0:0:0:0:
192,192,67304,1,2,0:0:0:0:
320,192,67459,1,2,0:0:0:0:
64,192,67615,1,8,0:0:0:0:
448,192,67615,1,0,0:0:0:0:
192,192,67770,1,4,0:0:0:0:
320,192,67770,1,2,0:0:0:0:
448,192,68081,1,2,0:0:0:0:
64,192,68237,1,8,0:0:0:0:
192,192,68237,1,0,0:0:0:40:Hat Open2.wav
192,192,68548,128,2,68858:0:0:0:0:
448,192,68703,1,2,0:0:0:0:
64,192,68858,1,8,0:0:0:0:
320,192,68858,128,0,69169:0:0:0:0:
64,192,69169,1,2,0:0:0:0:
192,192,69169,1,0,0:0:0:40:Hat Open.wav
320,192,69636,1,2,0:0:0:0:
448,192,69636,1,0,0:0:0:40:Hat Open.wav
64,192,70102,1,2,0:0:0:0:
192,192,70102,1,0,0:0:0:40:Hat Open.wav
320,192,70568,1,2,0:0:0:0:
448,192,70568,1,0,0:0:0:40:Hat Open.wav
192,192,70724,1,0,0:0:0:0:
64,192,71035,1,8,0:0:0:0:
320,192,71035,1,0,0:0:0:40:Hat Open2.wav
192,192,71190,1,2,0:0:0:0:
320,192,71345,1,8,0:0:0:0:
448,192,71345,1,0,0:0:0:40:Hat Open2.wav
64,192,71656,1,2,0:0:0:0:
192,192,71656,1,4,0:0:0:0:
192,192,71967,1,8,0:0:0:0:
448,192,71967,1,0,0:0:0:0:
320,192,72278,1,2,0:0:0:0:
64,192,72434,1,2,0:0:0:0:
192,192,72589,1,8,0:0:0:0:
448,192,72589,1,0,0:0:0:0:
320,192,72900,1,2,0:0:0:0:
448,192,72900,1,4,0:0:0:0:
64,192,73211,1,8,0:0:0:0:
192,192,73211,1,0,0:0:0:0:
320,192,73366,1,2,0:0:0:0:
192,192,73522,1,2,0:0:0:0:
64,192,73832,1,8,0:0:0:0:
448,192,73832,1,0,0:0:0:0:
64,192,74143,1,2,0:0:0:0:
192,192,74143,128,4,74454:0:0:0:0:
320,192,74454,1,8,0:0:0:0:
448,192,74454,128,0,74765:0:0:0:0:
64,192,74610,1,8,0:1:0:0:
320,192,74765,128,4,75076:0:1:0:0:
192,192,74921,1,2,0:0:0:0:
64,192,75076,128,8,75698:0:0:0:0:
448,192,75076,1,4,0:0:0:0:
192,192,75542,1,2,0:0:0:0:
320,192,75698,1,8,0:0:0:0:
448,192,75698,128,0,76630:0:0:0:0:
192,192,76009,1,2,0:0:0:0:
64,192,76164,1,2,0:0:0:0:
320,192,76320,1,8,0:0:0:0:
64,192,76630,1,2,0:0:0:0:
192,192,76630,128,4,76941:0:0:0:0:
320,192,76941,128,8,77252:0:0:0:0:
448,192,76941,1,0,0:0:0:0:
192,192,77097,1,2,0:0:0:0:
64,192,77252,128,0,77563:0:0:0:0:
320,192,77408,1,2,0:0:0:0:
192,192,77563,128,8,78185:0:0:0:0:
448,192,77563,1,4,0:0:0:0:
320,192,78029,1,2,0:0:0:0:
64,192,78185,1,8,0:0:0:0:
448,192,78185,1,0,0:0:0:0:
320,192,78340,1,0,0:0:0:0:
64,192,78496,128,2,78807:0:0:0:0:
192,192,78651,1,2,0:0:0:0:
320,192,78807,1,8,0:0:0:0:
448,192,78807,1,0,0:0:0:0:
64,192,78962,1,8,0:0:0:0:
192,192,78962,1,0,0:0:0:0:
320,192,79117,1,2,0:0:0:0:
448,192,79117,1,4,0:0:0:0:
192,192,79428,1,8,0:0:0:0:
320,192,79428,1,0,0:0:0:0:
64,192,79739,1,2,0:0:0:0:
320,192,79895,1,2,0:0:0:0:
64,192,80050,1,8,0:0:0:0:
192,192,80050,1,0,0:0:0:0:
448,192,80361,1,2,0:0:0:0:
64,192,80672,1,8,0:0:0:0:
320,192,80672,1,0,0:0:0:0:
192,192,80827,1,2,0:0:0:0:
320,192,81138,1,2,0:0:0:0:
64,192,81294,1,8,0:0:0:0:
448,192,81294,1,0,0:0:0:0:
192,192,81605,1,2,0:0:0:0:
448,192,81605,1,4,0:0:0:0:
320,192,81915,1,0,0:0:0:0:
64,192,82071,1,2,0:0:0:0:
448,192,82226,1,8,0:0:0:0:
320,192,82226,1,0,0:0:0:0:
192,192,82382,1,2,0:0:0:0:
448,192,82537,1,0,0:0:0:0:
64,192,82693,1,2,0:0:0:0:
192,192,82848,128,2,83470:0:0:0:0:
320,192,83470,1,8,0:0:0:0:
448,192,83470,128,0,84092:0:0:0:0:
64,192,83625,1,8,0:0:0:0:
64,192,84092,128,0,87667:0:0:0:0:
448,192,87667,1,0,0:0:0:0:
