osu file format v14

[General]
AudioFilename: audio.mp3
AudioLeadIn: 0
PreviewTime: 53626
Countdown: 0
SampleSet: Soft
StackLeniency: 0.7
Mode: 3
LetterboxInBreaks: 0
SpecialStyle: 0
WidescreenStoryboard: 1

[Editor]
DistanceSpacing: 0.8
BeatDivisor: 4
GridSize: 8
TimelineZoom: 1.7

[Metadata]
Title:Kakawari
TitleUnicode:かかわり
Artist:TrySail
ArtistUnicode:TrySail
Creator:Mirsaaa
Version:Easy
Source:マギアレコード 魔法少女まどか☆マギカ外伝
Tags:Magia Record Puella Magi Madoka Magica Side Story Gaiden opening op MagiReco マギレコ Video Game short ver version Japanese Magical Girl 麻倉もも Asakura Momo 雨宮天 Amamiya Sora 夏川椎菜 Natsukawa Shiina 渡辺翔 watanabe sho anime pop jpop j-pop Amiichii 環いろは Tamaki Iroha
BeatmapID:3584062
BeatmapSetID:1751787

[Difficulty]
HPDrainRate:6.5
CircleSize:4
OverallDifficulty:6.5
ApproachRate:5
SliderMultiplier:1.4
SliderTickRate:1

[Events]
//Background and Video events
0,0,"Iroha.jpg",0,0
Video,0,"Video.mp4"
//Break Periods
//Storyboard Layer 0 (Background)
//Storyboard Layer 1 (Fail)
//Storyboard Layer 2 (Pass)
//Storyboard Layer 3 (Foreground)
//Storyboard Layer 4 (Overlay)
//Storyboard Sound Samples
Sample,4506,0,"Hat Open.wav",60
Sample,4662,0,"Hat Open.wav",60
Sample,5283,0,"Hat Open2.wav",60
Sample,5594,0,"Hat Open2.wav",60
Sample,6993,0,"Hat Open.wav",60
Sample,7149,0,"Hat Open.wav",60
Sample,7770,0,"Hat Open2.wav",60
Sample,9480,0,"Wushh.wav",60
Sample,14454,0,"Wushh.wav",60
Sample,20983,0,"Hat Open2.wav",40
Sample,26734,0,"Hat Open2.wav",40
Sample,30620,0,"Hat Open2.wav",40
Sample,30931,0,"Hat Open2.wav",40
Sample,31708,0,"Hat Open2.wav",40
Sample,36682,0,"Hat Open2.wav",40
Sample,42434,0,"Hat Open2.wav",40
Sample,43055,0,"Hat Open2.wav",40
Sample,43677,0,"Hat Open2.wav",40
Sample,44299,0,"Hat Open2.wav",40
Sample,44921,0,"Hat Open2.wav",40
Sample,45542,0,"Hat Open2.wav",40
Sample,46164,0,"Hat Open2.wav",40
Sample,46320,0,"Hat Open2.wav",40
Sample,47097,0,"Hat Open2.wav",40
Sample,47719,0,"Hat Open2.wav",40
Sample,48340,0,"Hat Open2.wav",40
Sample,48962,0,"Hat Open2.wav",40
Sample,49584,0,"Hat Open2.wav",40
Sample,50206,0,"Hat Open2.wav",40
Sample,53003,0,"Hat Open.wav",40
Sample,53159,0,"Hat Open.wav",40
Sample,55801,0,"Hat Open2.wav",40
Sample,56423,0,"Hat Open2.wav",40
Sample,57045,0,"Hat Open2.wav",40
Sample,57667,0,"Hat Open2.wav",40
Sample,58288,0,"Hat Open2.wav",40
Sample,59532,0,"Hat Open2.wav",40
Sample,59843,0,"Hat Open2.wav",40
Sample,60154,0,"Hat Open2.wav",40
Sample,62019,0,"Hat Open2.wav",40
Sample,62330,0,"Hat Open2.wav",40
Sample,62641,0,"Hat Open2.wav",40
Sample,62796,0,"Hat Open.wav",40
Sample,63107,0,"Hat Open.wav",40
Sample,63418,0,"Hat Open.wav",40
Sample,65750,0,"Hat Open2.wav",40
Sample,66371,0,"Hat Open2.wav",40
Sample,68237,0,"Hat Open2.wav",40
Sample,69169,0,"Hat Open.wav",40
Sample,69636,0,"Hat Open.wav",40
Sample,70102,0,"Hat Open.wav",40
Sample,70568,0,"Hat Open.wav",40

[TimingPoints]
776,310.880829015544,4,2,1,10,1,0
2019,-100,4,2,1,20,0,0
3263,-100,4,2,1,30,0,0
4506,-100,4,2,1,40,0,0
54247,-100,4,2,1,40,0,1
62641,-100,4,2,1,40,0,0
64195,-100,4,2,1,40,0,1
74143,-100,4,2,1,40,0,0

[HitObjects]
320,192,4506,5,10,0:0:0:0:
64,192,4662,1,10,0:0:0:0:
448,192,5283,1,8,0:0:0:0:
448,192,5594,1,8,0:0:0:0:
192,192,6993,1,10,0:0:0:0:
448,192,7149,1,10,0:0:0:0:
64,192,7770,1,8,0:0:0:0:
192,192,8081,1,8,0:0:0:0:
320,192,8081,1,4,0:0:0:0:
64,192,8858,128,2,9169:1:1:0:0:
320,192,9169,128,4,9480:1:1:0:0:
192,192,9480,128,6,10102:0:0:0:0:
448,192,10102,1,8,0:0:0:0:
64,192,10257,1,0,0:0:0:0:
192,192,10413,1,0,0:0:0:0:
320,192,10568,128,2,11345:0:0:0:0:
64,192,11345,128,8,11967:0:0:0:0:
448,192,11967,128,6,12589:0:0:0:0:
192,192,12589,1,8,0:0:0:0:
64,192,12744,1,0,0:0:0:0:
320,192,12900,1,0,0:0:0:40:Hat Open2.wav
192,192,13055,128,2,14454:0:0:0:0:
448,192,14454,128,6,15076:0:0:0:0:
192,192,15076,1,8,0:0:0:0:
64,192,15231,1,0,0:0:0:0:
320,192,15387,1,0,0:0:0:40:Hat Open2.wav
192,192,15542,128,2,16164:0:0:0:0:
448,192,16164,128,0,16630:0:0:0:0:
320,192,16630,128,0,16941:0:0:0:40:Hat Open2.wav
64,192,16941,128,6,17563:0:0:0:0:
448,192,17563,128,8,18029:0:0:0:0:
192,192,18029,128,6,19273:0:0:0:0:
448,192,19273,1,2,0:0:0:0:
64,192,19584,1,2,0:0:0:0:
320,192,19739,1,2,0:0:0:0:
192,192,20050,1,2,0:0:0:0:
448,192,20361,1,2,0:0:0:0:
320,192,20672,1,2,0:0:0:0:
64,192,20983,1,2,0:0:0:0:
192,192,21294,1,10,0:0:0:0:
448,192,21449,1,10,0:0:0:0:
64,192,21760,1,2,0:0:0:0:
192,192,21760,1,4,0:0:0:0:
320,192,22537,1,8,0:0:0:0:
192,192,22848,1,0,0:0:0:0:
448,192,23003,1,2,0:0:0:0:
64,192,23159,1,2,0:0:0:0:
192,192,23781,1,8,0:0:0:0:
320,192,24092,1,0,0:0:0:0:
64,192,24247,1,2,0:0:0:0:
448,192,24402,1,2,0:0:0:0:
64,192,25024,1,8,0:0:0:0:
192,192,25180,1,2,0:0:0:0:
448,192,25335,1,0,0:0:0:0:
320,192,25491,1,8,0:0:0:0:
192,192,25646,1,2,0:0:0:0:
64,192,25957,1,0,0:0:0:0:
448,192,26268,1,8,0:0:0:0:
192,192,26579,1,2,0:0:0:0:
320,192,26734,1,2,0:0:0:0:
320,192,27511,1,8,0:0:0:0:
64,192,27822,1,0,0:0:0:0:
448,192,27978,1,2,0:0:0:0:
192,192,28133,1,2,0:0:0:0:
192,192,28755,1,8,0:0:0:0:
448,192,29066,1,0,0:0:0:0:
64,192,29221,1,2,0:0:0:0:
320,192,29377,1,2,0:0:0:0:
448,192,29843,1,0,0:0:0:0:
192,192,29998,1,8,0:0:0:0:
64,192,30465,1,8,0:0:0:0:
320,192,30620,1,2,0:0:0:0:
448,192,30931,1,2,0:0:0:0:
64,192,31242,1,8,0:0:0:0:
320,192,31397,1,2,0:0:0:0:
192,192,31553,1,8,0:0:0:0:
448,192,31708,1,2,0:0:0:0:
64,192,32019,1,2,0:0:0:0:
320,192,32174,1,2,0:0:0:0:
192,192,32485,128,2,32796:0:0:0:0:
448,192,32796,1,2,0:0:0:0:
320,192,32952,1,0,0:0:0:0:
64,192,33107,1,2,0:0:0:0:
192,192,33418,1,2,0:0:0:0:
320,192,33729,128,2,34040:0:0:0:0:
64,192,34040,1,2,0:0:0:0:
192,192,34195,1,0,0:0:0:0:
448,192,34351,1,2,0:0:0:0:
320,192,34662,1,2,0:0:0:0:
64,192,34972,1,2,0:0:0:0:
192,192,35128,1,0,0:0:0:0:
448,192,35283,1,8,0:0:0:0:
320,192,35439,1,0,0:0:0:0:
192,192,35594,1,2,0:0:0:0:
320,192,35905,1,2,0:0:0:0:
64,192,36216,1,2,0:0:0:0:
448,192,36527,1,2,0:0:0:0:
192,192,36682,1,8,0:0:0:0:
320,192,36838,1,2,0:0:0:0:
64,192,37149,1,2,0:0:0:0:
448,192,37459,1,2,0:0:0:0:
320,192,37770,1,2,0:0:0:0:
192,192,37926,1,8,0:0:0:0:
448,192,38081,1,2,0:0:0:0:
64,192,38392,1,2,0:0:0:0:
320,192,38703,1,2,0:0:0:0:
192,192,39014,1,2,0:0:0:0:
448,192,39169,1,8,0:0:0:0:
320,192,39325,1,2,0:0:0:0:
64,192,39636,1,2,0:0:0:0:
192,192,39946,128,6,40568:0:0:0:0:
448,192,40568,128,8,41812:0:1:0:0:
64,192,40879,1,2,0:0:0:0:
192,192,41190,1,2,0:0:0:0:
320,192,41501,1,2,0:0:0:0:
64,192,41812,1,2,0:0:0:0:
192,192,41812,1,4,0:0:0:0:
320,192,42278,1,2,0:0:0:0:
192,192,42434,128,8,42744:0:0:0:0:
64,192,43055,1,2,0:0:0:0:
192,192,43522,1,2,0:0:0:0:
448,192,43677,128,8,43988:0:0:0:0:
320,192,43988,1,2,0:0:0:0:
64,192,44299,1,2,0:0:0:0:
448,192,44765,1,2,0:0:0:0:
192,192,44921,128,8,45231:0:0:0:0:
320,192,45231,1,2,0:0:0:0:
448,192,45542,128,2,46164:0:0:0:0:
64,192,46164,1,8,0:0:0:0:
320,192,46320,1,8,0:0:0:0:
64,192,46786,1,2,0:0:0:0:
448,192,46786,1,4,0:0:0:0:
320,192,47097,1,2,0:0:0:0:
192,192,47408,1,10,0:0:0:0:
448,192,47719,1,2,0:0:0:0:
64,192,48029,1,2,0:0:0:0:
192,192,48340,1,2,0:0:0:0:
320,192,48651,1,10,0:0:0:0:
64,192,48962,1,2,0:0:0:0:
320,192,49273,1,2,0:0:0:0:
448,192,49273,1,4,0:0:0:0:
192,192,49584,1,2,0:0:0:0:
64,192,49895,1,10,0:0:0:0:
448,192,50206,1,2,0:0:0:0:
64,192,50516,1,2,0:0:0:0:
192,192,50516,1,4,0:0:0:0:
320,192,50827,1,2,0:0:0:0:
192,192,50983,1,2,0:0:0:0:
448,192,51138,128,8,51760:0:0:0:0:
192,192,51760,128,2,52382:0:0:0:0:
448,192,52382,1,8,0:0:0:0:
320,192,52693,1,8,0:0:0:0:
64,192,53003,1,10,0:0:0:0:
448,192,53159,1,10,0:0:0:0:
320,192,53625,128,0,53936:0:0:0:0:
192,192,53936,128,0,54247:0:0:0:0:
320,192,54247,1,6,0:0:0:0:
448,192,54247,1,0,0:0:0:60:Wushh.wav
64,192,54558,1,8,0:0:0:0:
320,192,54869,1,2,0:0:0:0:
192,192,55024,1,2,0:0:0:0:
448,192,55180,1,8,0:0:0:0:
64,192,55491,1,2,0:0:0:0:
320,192,55801,1,8,0:0:0:0:
192,192,55957,1,2,0:0:0:0:
64,192,56268,1,2,0:0:0:0:
448,192,56423,1,8,0:0:0:0:
320,192,56734,1,2,0:0:0:0:
192,192,57045,1,8,0:0:0:0:
448,192,57200,1,2,0:0:0:0:
64,192,57511,1,2,0:0:0:0:
320,192,57667,1,8,0:0:0:0:
192,192,57822,1,2,0:0:0:0:
448,192,58133,1,2,0:0:0:0:
64,192,58288,1,8,0:0:0:0:
320,192,58599,1,2,0:0:0:0:
192,192,58755,1,2,0:0:0:0:
448,192,58910,128,12,59221:0:0:0:0:
64,192,59221,1,2,0:0:0:0:
192,192,59221,1,4,0:0:0:0:
320,192,59532,1,8,0:0:0:0:
192,192,59843,1,2,0:0:0:0:
320,192,59998,1,2,0:0:0:0:
64,192,60154,128,8,60465:0:0:0:0:
448,192,60465,1,2,0:0:0:0:
192,192,60775,1,8,0:0:0:0:
320,192,60931,1,2,0:0:0:0:
448,192,61242,1,2,0:0:0:0:
64,192,61397,1,8,0:0:0:0:
192,192,61708,1,2,0:0:0:0:
320,192,61708,1,4,0:0:0:0:
448,192,62019,1,8,0:0:0:0:
64,192,62330,1,2,0:0:0:0:
320,192,62485,1,2,0:0:0:0:
192,192,62641,1,8,0:0:0:0:
448,192,62796,1,2,0:0:0:0:
64,192,63107,1,2,0:0:0:0:
448,192,63418,1,2,0:0:0:0:
192,192,63573,128,10,63884:0:0:0:0:
320,192,63884,128,10,64195:0:0:0:0:
64,192,64195,1,6,0:0:0:0:
192,192,64195,1,0,0:0:0:60:Wushh.wav
448,192,64506,1,8,0:0:0:0:
64,192,64817,1,2,0:0:0:0:
192,192,64972,1,2,0:0:0:0:
320,192,65128,1,8,0:0:0:0:
64,192,65439,1,2,0:0:0:0:
448,192,65750,1,8,0:0:0:0:
192,192,65905,1,2,0:0:0:0:
64,192,66216,1,2,0:0:0:0:
320,192,66371,1,8,0:0:0:0:
192,192,66682,1,2,0:0:0:0:
448,192,66993,1,8,0:0:0:0:
320,192,67304,1,2,0:0:0:0:
192,192,67459,1,2,0:0:0:0:
64,192,67615,1,8,0:0:0:0:
448,192,67770,128,6,68081:0:0:0:0:
64,192,68081,1,2,0:0:0:0:
320,192,68237,1,8,0:0:0:0:
192,192,68548,1,2,0:0:0:0:
448,192,68703,1,2,0:0:0:0:
64,192,68858,1,8,0:0:0:0:
320,192,69169,1,2,0:0:0:0:
192,192,69636,1,2,0:0:0:0:
448,192,70102,1,2,0:0:0:0:
64,192,70568,1,2,0:0:0:0:
320,192,71035,1,8,0:0:0:0:
448,192,71035,1,0,0:0:0:40:Hat Open2.wav
64,192,71345,1,8,0:0:0:0:
192,192,71345,1,0,0:0:0:40:Hat Open2.wav
192,192,71656,1,2,0:0:0:0:
320,192,71656,1,4,0:0:0:0:
448,192,71967,1,8,0:0:0:0:
64,192,72278,1,2,0:0:0:0:
192,192,72434,1,2,0:0:0:0:
320,192,72589,1,8,0:0:0:0:
64,192,72900,1,2,0:0:0:0:
448,192,72900,1,4,0:0:0:0:
192,192,73211,1,8,0:0:0:0:
320,192,73366,1,2,0:0:0:0:
64,192,73522,1,2,0:0:0:0:
448,192,73832,1,8,0:0:0:0:
64,192,74143,128,6,74454:0:0:0:0:
320,192,74454,128,8,74765:0:0:0:0:
192,192,74765,128,4,75076:0:1:0:0:
448,192,75076,128,12,75698:0:0:0:0:
64,192,75698,128,8,76630:0:0:0:0:
320,192,76009,1,2,0:0:0:0:
448,192,76320,1,8,0:0:0:0:
320,192,76630,128,6,76941:0:0:0:0:
192,192,76941,128,8,77252:0:0:0:0:
448,192,77252,128,0,77563:0:0:0:0:
64,192,77563,128,12,78185:0:0:0:0:
448,192,78185,1,8,0:0:0:0:
320,192,78340,1,0,0:0:0:0:
192,192,78496,1,2,0:0:0:0:
64,192,78807,1,8,0:0:0:0:
192,192,78962,1,8,0:0:0:0:
320,192,79117,1,2,0:0:0:0:
448,192,79117,1,4,0:0:0:0:
64,192,79428,1,8,0:0:0:0:
320,192,79739,1,2,0:0:0:0:
192,192,79895,1,2,0:0:0:0:
448,192,80050,1,8,0:0:0:0:
64,192,80361,1,2,0:0:0:0:
192,192,80672,1,8,0:0:0:0:
320,192,80827,1,2,0:0:0:0:
448,192,81138,1,2,0:0:0:0:
64,192,81294,1,8,0:0:0:0:
320,192,81605,1,2,0:0:0:0:
448,192,81605,1,4,0:0:0:0:
192,192,82071,1,2,0:0:0:0:
320,192,82226,1,8,0:0:0:0:
64,192,82382,1,2,0:0:0:0:
448,192,82693,1,2,0:0:0:0:
192,192,82848,128,2,83470:0:0:0:0:
320,192,83470,128,8,84092:0:0:0:0:
64,192,84092,128,0,87667:0:0:0:0:
320,192,87667,1,0,0:0:0:0:
