osu file format v14

[General]
AudioFilename: audio.mp3
AudioLeadIn: 0
PreviewTime: 126836
Countdown: 0
SampleSet: Normal
StackLeniency: 0.7
Mode: 1
LetterboxInBreaks: 0
WidescreenStoryboard: 0

[Editor]
Bookmarks: 1265,12236,23122,34179,45150,58779,91779,127436,160350,182293,183665,185036,186407,212465,234407,245379,266465
DistanceSpacing: 1
BeatDivisor: 4
GridSize: 32
TimelineZoom: 1.3

[Metadata]
Title:Honto da yo
TitleUnicode:ホントだよ
Artist:TrySail
ArtistUnicode:TrySail
Creator:Volta
Version:Oni
Source:
Tags:麻倉 もも Momo Asakura 雨宮 天 Amamiya Sora 夏川 椎菜 Natsukawa Shiina コバルト Sail Canvas 谷口尚久 naohisa taniguchi jpop j-pop japanese cobalt
BeatmapID:2188151
BeatmapSetID:1046720

[Difficulty]
HPDrainRate:6
CircleSize:5
OverallDifficulty:6
ApproachRate:5
SliderMultiplier:1.4
SliderTickRate:1

[Events]
//Background and Video events
0,0,"__original_drawn_by_kawai__427c1810a74f795736bbc89fec682fad.jpg",0,100
//Break Periods
//Storyboard Layer 0 (Background)
//Storyboard Layer 1 (Fail)
//Storyboard Layer 2 (Pass)
//Storyboard Layer 3 (Foreground)
//Storyboard Layer 4 (Overlay)
//Storyboard Sound Samples

[TimingPoints]
1259,342.857142857143,4,1,0,80,1,0
58859,-100,4,1,0,90,0,1
80801,-100,4,1,0,80,0,0
83544,-100,4,1,0,90,0,1
91773,-100,4,1,0,80,0,0
127430,-100,4,1,0,90,0,1
149373,-100,4,1,0,80,0,0
152116,-100,4,1,0,90,0,1
160344,-100,4,1,0,80,0,0
212459,-100,4,1,0,90,0,1
220687,-100,4,1,0,80,0,0
223430,-100,4,1,0,90,0,1
256344,-100,4,1,0,80,0,0
259087,-100,4,1,0,90,0,1
261830,-100,4,1,0,80,0,0
264573,-100,4,1,0,90,0,1
266459,-100,4,1,0,80,0,0

[HitObjects]
250,126,1259,5,4,0:0:0:0:
182,95,1601,1,8,0:0:0:0:
198,115,1773,1,8,0:0:0:0:
198,115,1944,1,0,0:0:0:0:
198,115,2287,1,0,0:0:0:0:
198,115,2459,1,8,0:0:0:0:
287,117,2630,1,4,0:0:0:0:
228,76,2801,1,8,0:0:0:0:
228,76,2973,1,8,0:0:0:0:
287,117,3144,1,4,0:0:0:0:
278,81,3487,1,8,0:0:0:0:
287,117,3659,1,0,0:0:0:0:
278,81,3830,1,0,0:0:0:0:
297,89,4001,1,12,0:0:0:0:
157,150,4344,1,8,0:0:0:0:
255,96,4516,1,8,0:0:0:0:
255,96,4687,1,0,0:0:0:0:
159,184,4859,1,0,0:0:0:0:
219,122,5030,1,8,0:0:0:0:
255,96,5201,1,0,0:0:0:0:
219,122,5373,1,12,0:0:0:0:
56,145,5544,1,0,0:0:0:0:
219,122,5716,1,0,0:0:0:0:
219,122,5887,1,12,0:0:0:0:
292,118,6230,1,0,0:0:0:0:
292,118,6401,1,8,0:0:0:0:
292,118,6573,1,4,0:0:0:0:
171,131,6916,1,8,0:0:0:0:
171,131,7087,1,0,0:0:0:0:
171,131,7259,1,4,0:0:0:0:
195,115,7601,1,8,0:0:0:0:
195,115,7773,1,0,0:0:0:0:
260,104,7944,1,12,0:0:0:0:
238,91,8287,1,0,0:0:0:0:
239,90,8459,1,0,0:0:0:0:
239,90,8630,1,12,0:0:0:0:
374,113,8887,1,0,0:0:0:0:
374,113,8973,1,8,0:0:0:0:
260,86,9144,1,0,0:0:0:0:
262,86,9316,1,8,0:0:0:0:
182,17,9401,1,8,0:0:0:0:
262,86,9487,1,0,0:0:0:0:
94,128,9830,1,0,0:0:0:0:
401,202,10173,1,0,0:0:0:0:
401,202,10516,1,0,0:0:0:0:
94,135,10859,1,8,0:0:0:0:
94,135,11030,1,0,0:0:0:0:
94,135,11201,1,8,0:0:0:0:
94,135,11373,1,8,0:0:0:0:
182,124,11544,1,0,0:0:0:0:
219,135,11630,1,0,0:0:0:0:
182,124,11716,1,8,0:0:0:0:
293,117,11887,1,0,0:0:0:0:
315,76,12059,1,8,0:0:0:0:
87,166,12230,1,4,0:0:0:0:
186,123,12401,1,0,0:0:0:0:
182,124,12487,1,0,0:0:0:0:
106,171,12573,1,8,0:0:0:0:
106,171,12744,1,0,0:0:0:0:
106,171,12916,1,8,0:0:0:0:
106,171,13087,1,8,0:0:0:0:
165,139,13430,1,0,0:0:0:0:
165,139,13601,1,8,0:0:0:0:
201,137,13773,1,0,0:0:0:0:
124,137,13859,1,0,0:0:0:0:
201,137,13944,1,8,0:0:0:0:
201,137,14116,1,8,0:0:0:0:
325,157,14287,1,0,0:0:0:0:
86,133,14459,1,0,0:0:0:0:
407,199,14630,1,8,0:0:0:0:
148,137,14973,1,4,0:0:0:0:
152,69,15144,1,0,0:0:0:0:
155,157,15316,1,8,0:0:0:0:
155,157,15487,1,0,0:0:0:0:
77,148,15573,1,0,0:0:0:0:
155,157,15659,1,8,0:0:0:0:
236,91,15830,1,8,0:0:0:0:
155,157,16001,1,0,0:0:0:0:
155,157,16173,1,8,0:0:0:0:
37,153,16259,1,8,0:0:0:0:
155,157,16344,1,0,0:0:0:0:
155,157,16516,1,0,0:0:0:0:
155,157,16687,1,8,0:0:0:0:
155,157,16859,1,8,0:0:0:0:
121,146,16944,1,8,0:0:0:0:
236,91,17030,1,0,0:0:0:0:
155,157,17201,1,0,0:0:0:0:
132,149,17287,1,0,0:0:0:0:
155,157,17373,1,0,0:0:0:0:
155,157,17544,1,8,0:0:0:0:
223,96,17887,1,8,0:0:0:0:
447,161,17973,1,0,0:0:0:0:
210,89,18059,1,8,0:0:0:0:
210,89,18230,1,0,0:0:0:0:
213,103,18401,1,8,0:0:0:0:
213,103,18573,1,0,0:0:0:0:
132,137,18916,1,8,0:0:0:0:
464,268,19001,1,0,0:0:0:0:
132,137,19087,1,8,0:0:0:0:
132,137,19259,1,0,0:0:0:0:
132,137,19430,1,8,0:0:0:0:
132,137,19601,1,0,0:0:0:0:
239,126,19944,1,0,0:0:0:0:
239,126,20116,1,8,0:0:0:0:
239,126,20287,1,0,0:0:0:0:
132,137,20630,1,8,0:0:0:0:
174,126,20716,1,0,0:0:0:0:
132,137,20801,1,8,0:0:0:0:
132,137,20973,1,0,0:0:0:0:
132,137,21144,1,8,0:0:0:0:
132,137,21316,1,0,0:0:0:0:
272,140,21659,1,8,0:0:0:0:
272,140,21744,1,0,0:0:0:0:
272,140,21830,1,8,0:0:0:0:
204,124,22001,1,0,0:0:0:0:
204,124,22173,1,8,0:0:0:0:
280,148,22344,1,0,0:0:0:0:
211,126,22516,1,0,0:0:0:0:
244,136,22601,1,0,0:0:0:0:
244,136,22687,1,8,0:0:0:0:
305,102,22859,1,8,0:0:0:0:
337,85,22944,1,8,0:0:0:0:
305,102,23030,1,8,0:0:0:0:
183,153,23201,1,4,0:0:0:0:
244,136,23544,1,0,0:0:0:0:
244,136,23887,1,0,0:0:0:0:
293,88,24059,1,8,0:0:0:0:
244,136,24230,1,0,0:0:0:0:
244,136,24573,1,0,0:0:0:0:
285,95,24744,1,8,0:0:0:0:
244,136,24916,1,0,0:0:0:0:
279,101,25087,1,8,0:0:0:0:
244,136,25259,1,0,0:0:0:0:
279,101,25601,1,8,0:0:0:0:
355,60,25944,1,0,0:0:0:0:
252,130,26287,1,0,0:0:0:0:
252,130,26630,1,0,0:0:0:0:
298,81,26801,1,8,0:0:0:0:
252,130,26973,1,0,0:0:0:0:
252,130,27316,1,0,0:0:0:0:
289,90,27487,1,8,0:0:0:0:
357,200,27659,1,8,0:0:0:0:
312,154,27830,1,0,0:0:0:0:
326,158,28001,1,0,0:0:0:0:
340,123,28087,1,8,0:0:0:0:
340,123,28173,1,8,0:0:0:0:
340,123,28344,1,0,0:0:0:0:
275,135,28516,1,8,0:0:0:0:
243,141,28601,1,8,0:0:0:0:
243,141,28687,1,0,0:0:0:0:
359,65,29030,1,8,0:0:0:0:
312,89,29201,1,0,0:0:0:0:
238,96,29373,1,8,0:0:0:0:
286,118,29544,1,0,0:0:0:0:
136,173,29716,1,8,0:0:0:0:
183,137,29887,1,8,0:0:0:0:
183,137,30059,1,0,0:0:0:0:
183,137,30230,1,0,0:0:0:0:
183,137,30401,1,8,0:0:0:0:
221,88,30573,5,8,0:0:0:0:
221,88,30744,1,0,0:0:0:0:
221,88,31087,1,0,0:0:0:0:
221,88,31259,1,0,0:0:0:0:
110,144,31430,1,8,0:0:0:0:
94,155,31773,1,0,0:0:0:0:
148,129,31944,1,8,0:0:0:0:
94,155,32116,1,0,0:0:0:0:
94,155,32459,1,0,0:0:0:0:
147,129,32630,1,0,0:0:0:0:
94,155,32801,1,8,0:0:0:0:
94,155,32973,1,0,0:0:0:0:
94,155,33144,1,8,0:0:0:0:
94,155,33316,1,0,0:0:0:0:
337,168,33487,1,0,0:0:0:0:
337,168,33573,1,8,0:0:0:0:
337,168,33659,1,8,0:0:0:0:
337,168,33830,1,0,0:0:0:0:
266,163,34001,1,8,0:0:0:0:
239,161,34087,1,8,0:0:0:0:
216,160,34173,1,0,0:0:0:0:
118,69,34516,1,0,0:0:0:0:
135,127,34687,1,8,0:0:0:0:
213,158,34859,1,0,0:0:0:0:
214,81,35030,1,0,0:0:0:0:
122,72,35201,1,8,0:0:0:0:
211,156,35544,1,0,0:0:0:0:
213,100,35716,1,8,0:0:0:0:
112,63,35887,1,0,0:0:0:0:
161,55,36059,1,8,0:0:0:0:
210,155,36230,1,0,0:0:0:0:
112,63,36573,1,8,0:0:0:0:
208,153,36916,1,0,0:0:0:0:
114,65,37259,1,0,0:0:0:0:
140,102,37430,1,8,0:0:0:0:
209,154,37601,1,0,0:0:0:0:
167,105,37773,1,0,0:0:0:0:
116,56,37944,1,8,0:0:0:0:
182,168,38287,1,0,0:0:0:0:
187,97,38459,1,8,0:0:0:0:
182,168,38630,1,0,0:0:0:0:
187,99,38801,1,8,0:0:0:0:
182,168,38973,1,0,0:0:0:0:
197,145,39059,5,8,0:0:0:0:
197,145,39144,1,8,0:0:0:0:
182,168,39316,1,0,0:0:0:0:
230,138,39487,1,8,0:0:0:0:
256,123,39573,1,8,0:0:0:0:
256,123,39659,1,0,0:0:0:0:
359,65,40001,1,8,0:0:0:0:
312,89,40173,1,0,0:0:0:0:
238,96,40344,1,8,0:0:0:0:
286,118,40516,1,0,0:0:0:0:
136,173,40687,1,8,0:0:0:0:
183,137,40859,1,8,0:0:0:0:
183,137,41030,1,0,0:0:0:0:
183,137,41201,1,0,0:0:0:0:
183,137,41373,1,8,0:0:0:0:
221,88,41544,5,8,0:0:0:0:
221,88,41716,1,0,0:0:0:0:
221,88,42059,1,0,0:0:0:0:
221,88,42230,1,0,0:0:0:0:
110,144,42401,1,8,0:0:0:0:
258,145,42744,1,8,0:0:0:0:
187,145,42916,1,0,0:0:0:0:
253,145,43087,1,8,0:0:0:0:
111,145,43430,1,8,0:0:0:0:
176,145,43601,1,8,0:0:0:0:
233,145,43773,1,0,0:0:0:0:
154,145,43944,1,0,0:0:0:0:
110,99,44116,1,8,0:0:0:0:
148,139,44287,1,0,0:0:0:0:
217,173,44459,1,0,0:0:0:0:
217,173,44544,1,8,0:0:0:0:
217,173,44630,1,8,0:0:0:0:
217,173,44801,1,0,0:0:0:0:
217,173,44973,1,8,0:0:0:0:
217,173,45059,1,8,0:0:0:0:
251,173,45144,1,0,0:0:0:0:
118,17,45659,1,0,0:0:0:0:
159,65,45830,1,0,0:0:0:0:
280,123,46173,1,8,0:0:0:0:
229,143,46344,1,8,0:0:0:0:
139,113,46516,1,0,0:0:0:0:
331,126,47030,1,0,0:0:0:0:
274,122,47201,1,0,0:0:0:0:
140,109,47544,1,8,0:0:0:0:
265,121,47887,1,0,0:0:0:0:
74,103,48401,1,0,0:0:0:0:
125,107,48573,1,0,0:0:0:0:
256,120,48916,1,8,0:0:0:0:
203,78,49087,1,8,0:0:0:0:
203,115,49259,1,0,0:0:0:0:
203,115,49773,1,0,0:0:0:0:
203,115,49944,1,0,0:0:0:0:
83,158,50287,1,8,0:0:0:0:
222,141,50630,1,4,0:0:0:0:
256,192,50801,12,0,51659,0:0:0:0:
135,146,52001,5,0,0:0:0:0:
135,146,52087,1,8,0:0:0:0:
135,146,52173,1,8,0:0:0:0:
135,146,52259,1,8,0:0:0:0:
135,146,52344,1,0,0:0:0:0:
50,160,52516,1,0,0:0:0:0:
217,98,52601,1,0,0:0:0:0:
217,98,52687,1,8,0:0:0:0:
217,98,52773,1,8,0:0:0:0:
217,98,52859,1,0,0:0:0:0:
149,140,53030,1,8,0:0:0:0:
177,145,53116,1,0,0:0:0:0:
177,145,53201,1,8,0:0:0:0:
177,145,53287,1,8,0:0:0:0:
99,141,53373,1,0,0:0:0:0:
157,120,53544,1,8,0:0:0:0:
217,98,53716,1,8,0:0:0:0:
217,98,54059,1,8,0:0:0:0:
217,98,54230,1,0,0:0:0:0:
217,98,54401,1,0,0:0:0:0:
217,98,54573,1,8,0:0:0:0:
164,143,54916,1,8,0:0:0:0:
164,143,55087,1,0,0:0:0:0:
94,143,55259,1,0,0:0:0:0:
94,143,55430,1,8,0:0:0:0:
94,143,55601,1,8,0:0:0:0:
94,143,55773,1,0,0:0:0:0:
94,143,55944,1,12,0:0:0:0:
215,164,56287,1,8,0:0:0:0:
153,153,56459,1,8,0:0:0:0:
215,164,56630,1,8,0:0:0:0:
407,291,56801,1,0,0:0:0:0:
367,243,56973,1,8,0:0:0:0:
288,234,57144,1,0,0:0:0:0:
229,206,57316,1,8,0:0:0:0:
112,151,57659,1,0,0:0:0:0:
112,151,57830,1,8,0:0:0:0:
112,151,58001,1,8,0:0:0:0:
112,151,58173,1,0,0:0:0:0:
112,151,58259,1,0,0:0:0:0:
112,151,58344,1,8,0:0:0:0:
177,128,58516,1,8,0:0:0:0:
146,138,58601,1,8,0:0:0:0:
146,138,58687,1,8,0:0:0:0:
146,138,58859,1,4,0:0:0:0:
205,140,59030,1,0,0:0:0:0:
264,145,59201,1,8,0:0:0:0:
239,143,59287,1,0,0:0:0:0:
204,140,59373,1,8,0:0:0:0:
139,149,59544,1,8,0:0:0:0:
115,153,59630,1,0,0:0:0:0:
115,153,59716,1,0,0:0:0:0:
115,153,59887,1,8,0:0:0:0:
115,153,60059,1,0,0:0:0:0:
115,153,60144,1,0,0:0:0:0:
115,153,60230,1,8,0:0:0:0:
115,153,60401,1,0,0:0:0:0:
106,217,60573,1,8,0:0:0:0:
115,155,60744,1,8,0:0:0:0:
170,119,60916,1,0,0:0:0:0:
234,131,61087,1,0,0:0:0:0:
193,123,61173,1,0,0:0:0:0:
193,123,61259,1,8,0:0:0:0:
193,123,61344,1,8,0:0:0:0:
193,123,61430,1,0,0:0:0:0:
432,169,61601,1,8,0:0:0:0:
369,168,61773,1,0,0:0:0:0:
300,167,61944,1,8,0:0:0:0:
269,159,62030,1,8,0:0:0:0:
245,153,62116,1,0,0:0:0:0:
177,121,62287,1,0,0:0:0:0:
144,106,62373,1,8,0:0:0:0:
144,106,62459,1,0,0:0:0:0:
144,106,62630,1,8,0:0:0:0:
114,171,62801,1,0,0:0:0:0:
127,141,62887,1,0,0:0:0:0:
127,141,62973,1,8,0:0:0:0:
127,141,63144,1,0,0:0:0:0:
127,141,63316,1,8,0:0:0:0:
127,141,63487,1,8,0:0:0:0:
62,162,63659,1,0,0:0:0:0:
127,141,63830,1,8,0:0:0:0:
127,141,63916,1,0,0:0:0:0:
127,141,64001,1,8,0:0:0:0:
84,144,64173,1,4,0:0:0:0:
127,141,64516,1,0,0:0:0:0:
127,141,64687,1,8,0:0:0:0:
84,144,64859,1,4,0:0:0:0:
127,141,65201,1,0,0:0:0:0:
127,141,65287,1,0,0:0:0:0:
127,141,65373,1,0,0:0:0:0:
84,144,65544,1,12,0:0:0:0:
207,102,65887,1,8,0:0:0:0:
150,121,66059,1,0,0:0:0:0:
84,144,66230,1,12,0:0:0:0:
150,121,66401,1,0,0:0:0:0:
150,121,66487,1,8,0:0:0:0:
150,121,66573,1,8,0:0:0:0:
85,139,66744,1,0,0:0:0:0:
25,166,66916,1,8,0:0:0:0:
51,154,67001,1,8,0:0:0:0:
51,154,67087,1,0,0:0:0:0:
184,136,67430,1,0,0:0:0:0:
54,156,67773,1,0,0:0:0:0:
180,136,68116,1,0,0:0:0:0:
113,139,68287,1,8,0:0:0:0:
44,161,68459,1,0,0:0:0:0:
101,161,68630,1,8,0:0:0:0:
101,161,68801,1,8,0:0:0:0:
167,151,68973,1,0,0:0:0:0:
236,181,69144,1,0,0:0:0:0:
231,157,69230,1,0,0:0:0:0:
227,137,69316,1,8,0:0:0:0:
229,108,69401,1,0,0:0:0:0:
305,124,69487,1,8,0:0:0:0:
274,129,69573,1,8,0:0:0:0:
167,151,69659,1,0,0:0:0:0:
95,153,69830,1,12,0:0:0:0:
205,140,70001,1,0,0:0:0:0:
264,145,70173,1,8,0:0:0:0:
239,143,70259,1,8,0:0:0:0:
204,140,70344,1,8,0:0:0:0:
139,149,70516,1,0,0:0:0:0:
115,153,70601,1,0,0:0:0:0:
115,153,70687,1,8,0:0:0:0:
115,153,70859,1,0,0:0:0:0:
115,153,71030,1,8,0:0:0:0:
115,153,71116,1,0,0:0:0:0:
115,153,71201,1,8,0:0:0:0:
115,153,71373,1,0,0:0:0:0:
106,217,71544,1,8,0:0:0:0:
115,155,71716,1,8,0:0:0:0:
170,119,71887,1,0,0:0:0:0:
234,131,72059,1,0,0:0:0:0:
193,123,72144,1,0,0:0:0:0:
193,123,72230,1,8,0:0:0:0:
193,123,72316,1,8,0:0:0:0:
193,123,72401,1,0,0:0:0:0:
432,169,72573,1,8,0:0:0:0:
369,168,72744,1,0,0:0:0:0:
300,167,72916,1,8,0:0:0:0:
269,159,73001,1,0,0:0:0:0:
245,153,73087,1,8,0:0:0:0:
177,121,73259,1,8,0:0:0:0:
144,106,73344,1,8,0:0:0:0:
144,106,73430,1,0,0:0:0:0:
144,106,73601,1,8,0:0:0:0:
114,171,73773,1,0,0:0:0:0:
127,141,73859,1,0,0:0:0:0:
127,141,73944,1,8,0:0:0:0:
127,141,74116,1,0,0:0:0:0:
127,141,74287,1,8,0:0:0:0:
127,141,74459,1,8,0:0:0:0:
62,162,74630,1,0,0:0:0:0:
127,141,74801,1,8,0:0:0:0:
127,141,74887,1,0,0:0:0:0:
127,141,74973,1,8,0:0:0:0:
84,144,75144,1,4,0:0:0:0:
127,141,75487,1,0,0:0:0:0:
127,141,75659,1,8,0:0:0:0:
84,144,75830,1,4,0:0:0:0:
127,141,76173,1,0,0:0:0:0:
127,141,76259,1,0,0:0:0:0:
127,141,76344,1,0,0:0:0:0:
84,144,76516,1,12,0:0:0:0:
207,102,76859,1,8,0:0:0:0:
150,121,77030,1,0,0:0:0:0:
84,144,77201,1,12,0:0:0:0:
150,121,77373,1,0,0:0:0:0:
150,121,77459,1,8,0:0:0:0:
150,121,77544,1,8,0:0:0:0:
85,139,77716,1,0,0:0:0:0:
25,166,77887,1,8,0:0:0:0:
51,154,77973,1,8,0:0:0:0:
51,154,78059,1,0,0:0:0:0:
184,136,78401,1,0,0:0:0:0:
54,156,78744,1,0,0:0:0:0:
186,165,79087,1,0,0:0:0:0:
49,156,79430,1,8,0:0:0:0:
117,160,79601,1,0,0:0:0:0:
196,160,79773,1,8,0:0:0:0:
196,160,79944,1,8,0:0:0:0:
123,168,80116,1,0,0:0:0:0:
152,168,80201,1,0,0:0:0:0:
178,163,80287,1,8,0:0:0:0:
251,173,80459,1,0,0:0:0:0:
188,143,80630,1,8,0:0:0:0:
251,173,80801,1,4,0:0:0:0:
178,163,80973,1,0,0:0:0:0:
178,163,81059,1,0,0:0:0:0:
131,111,81144,1,8,0:0:0:0:
266,89,81316,1,0,0:0:0:0:
266,89,81487,1,8,0:0:0:0:
202,105,81659,1,8,0:0:0:0:
131,161,82001,1,0,0:0:0:0:
156,22,82173,1,8,0:0:0:0:
168,88,82344,1,0,0:0:0:0:
162,149,82430,1,0,0:0:0:0:
131,161,82516,1,8,0:0:0:0:
144,87,82687,1,8,0:0:0:0:
135,145,82859,1,0,0:0:0:0:
69,170,82944,1,0,0:0:0:0:
69,170,83030,1,8,0:0:0:0:
104,156,83201,1,8,0:0:0:0:
123,147,83287,1,0,0:0:0:0:
137,140,83373,1,0,0:0:0:0:
104,156,83544,1,4,0:0:0:0:
152,69,83716,1,0,0:0:0:0:
155,157,83887,1,8,0:0:0:0:
155,157,84059,1,0,0:0:0:0:
77,148,84144,1,0,0:0:0:0:
155,157,84230,1,8,0:0:0:0:
236,91,84401,1,8,0:0:0:0:
155,157,84573,1,0,0:0:0:0:
155,157,84744,1,8,0:0:0:0:
37,153,84830,1,8,0:0:0:0:
155,157,84916,1,0,0:0:0:0:
155,157,85087,1,0,0:0:0:0:
155,157,85259,1,8,0:0:0:0:
160,174,85344,1,0,0:0:0:0:
155,157,85430,1,8,0:0:0:0:
120,150,85516,1,8,0:0:0:0:
236,91,85601,1,0,0:0:0:0:
155,157,85773,1,0,0:0:0:0:
294,93,85859,1,0,0:0:0:0:
155,157,85944,1,0,0:0:0:0:
155,157,86116,1,8,0:0:0:0:
223,96,86459,1,8,0:0:0:0:
447,161,86544,1,0,0:0:0:0:
210,89,86630,1,8,0:0:0:0:
210,89,86801,1,0,0:0:0:0:
213,103,86973,1,8,0:0:0:0:
213,103,87144,1,8,0:0:0:0:
239,126,87230,1,8,0:0:0:0:
239,126,87316,1,0,0:0:0:0:
132,137,87487,1,8,0:0:0:0:
464,268,87573,1,0,0:0:0:0:
132,137,87659,1,8,0:0:0:0:
132,137,87830,1,0,0:0:0:0:
132,137,88001,1,8,0:0:0:0:
132,137,88173,1,8,0:0:0:0:
223,117,88259,1,8,0:0:0:0:
195,123,88344,1,0,0:0:0:0:
239,126,88516,1,0,0:0:0:0:
239,126,88687,1,8,0:0:0:0:
239,126,88859,1,0,0:0:0:0:
132,137,89201,1,8,0:0:0:0:
174,126,89287,1,0,0:0:0:0:
132,137,89373,1,8,0:0:0:0:
132,137,89544,1,0,0:0:0:0:
132,137,89716,1,8,0:0:0:0:
132,137,89887,1,8,0:0:0:0:
229,124,89973,1,8,0:0:0:0:
198,128,90059,1,0,0:0:0:0:
258,121,90230,1,8,0:0:0:0:
272,140,90316,1,0,0:0:0:0:
272,140,90401,1,8,0:0:0:0:
204,124,90573,1,0,0:0:0:0:
204,124,90744,1,8,0:0:0:0:
280,148,90916,1,0,0:0:0:0:
229,124,91087,1,0,0:0:0:0:
229,124,91173,1,0,0:0:0:0:
229,124,91259,1,8,0:0:0:0:
229,124,91344,1,0,0:0:0:0:
229,124,91430,1,8,0:0:0:0:
229,124,91516,1,8,0:0:0:0:
229,124,91601,1,0,0:0:0:0:
296,127,91773,1,4,0:0:0:0:
12,92,92459,1,0,0:0:0:0:
275,124,93144,1,8,0:0:0:0:
92,103,93659,1,8,0:0:0:0:
440,142,94516,1,0,0:0:0:0:
188,13,95201,1,0,0:0:0:0:
434,138,95887,1,8,0:0:0:0:
259,49,96401,1,8,0:0:0:0:
192,71,96573,1,0,0:0:0:0:
175,102,96659,1,8,0:0:0:0:
151,117,96744,1,8,0:0:0:0:
148,50,96916,1,0,0:0:0:0:
152,126,97087,1,8,0:0:0:0:
150,86,97173,1,8,0:0:0:0:
150,86,97259,1,0,0:0:0:0:
359,65,97601,1,8,0:0:0:0:
312,89,97773,1,0,0:0:0:0:
238,96,97944,1,8,0:0:0:0:
286,118,98116,1,0,0:0:0:0:
136,173,98287,1,8,0:0:0:0:
183,137,98459,1,8,0:0:0:0:
183,137,98630,1,0,0:0:0:0:
183,137,98801,1,0,0:0:0:0:
183,137,98973,1,8,0:0:0:0:
221,88,99144,5,8,0:0:0:0:
221,88,99316,1,0,0:0:0:0:
221,88,99659,1,0,0:0:0:0:
221,88,99830,1,0,0:0:0:0:
110,144,100001,1,8,0:0:0:0:
94,155,100344,1,0,0:0:0:0:
148,129,100516,1,8,0:0:0:0:
94,155,100687,1,0,0:0:0:0:
94,155,101030,1,0,0:0:0:0:
147,129,101201,1,0,0:0:0:0:
94,155,101373,1,8,0:0:0:0:
94,155,101544,1,8,0:0:0:0:
94,155,101716,1,0,0:0:0:0:
94,155,101887,1,8,0:0:0:0:
337,168,102059,1,0,0:0:0:0:
337,168,102144,1,8,0:0:0:0:
337,168,102230,1,8,0:0:0:0:
337,168,102401,1,0,0:0:0:0:
266,163,102573,1,8,0:0:0:0:
239,161,102659,1,8,0:0:0:0:
216,160,102744,1,0,0:0:0:0:
177,164,103430,1,0,0:0:0:0:
197,149,104116,1,8,0:0:0:0:
197,149,104630,1,8,0:0:0:0:
190,200,105487,1,0,0:0:0:0:
190,200,106173,1,0,0:0:0:0:
190,200,106859,1,8,0:0:0:0:
190,200,107373,1,8,0:0:0:0:
190,200,107544,1,0,0:0:0:0:
206,119,107630,1,8,0:0:0:0:
171,127,107716,1,8,0:0:0:0:
103,143,107887,1,0,0:0:0:0:
34,159,108059,1,8,0:0:0:0:
68,152,108144,1,8,0:0:0:0:
68,152,108230,1,0,0:0:0:0:
359,65,108573,1,8,0:0:0:0:
312,89,108744,1,0,0:0:0:0:
238,96,108916,1,8,0:0:0:0:
286,118,109087,1,0,0:0:0:0:
136,173,109259,1,8,0:0:0:0:
183,137,109430,1,8,0:0:0:0:
183,137,109601,1,0,0:0:0:0:
183,137,109773,1,0,0:0:0:0:
183,137,109944,1,8,0:0:0:0:
221,88,110116,5,8,0:0:0:0:
221,88,110287,1,0,0:0:0:0:
221,88,110630,1,0,0:0:0:0:
221,88,110801,1,0,0:0:0:0:
110,144,110973,1,8,0:0:0:0:
258,145,111316,1,8,0:0:0:0:
187,145,111487,1,0,0:0:0:0:
253,145,111659,1,8,0:0:0:0:
111,145,112001,1,8,0:0:0:0:
176,145,112173,1,8,0:0:0:0:
233,145,112344,1,0,0:0:0:0:
154,145,112516,1,0,0:0:0:0:
110,99,112687,1,8,0:0:0:0:
148,139,112859,1,0,0:0:0:0:
217,173,113030,1,0,0:0:0:0:
217,173,113116,1,8,0:0:0:0:
217,173,113201,1,8,0:0:0:0:
217,173,113373,1,0,0:0:0:0:
217,173,113544,1,8,0:0:0:0:
217,173,113630,1,8,0:0:0:0:
251,173,113716,1,0,0:0:0:0:
118,17,114230,1,0,0:0:0:0:
159,65,114401,1,0,0:0:0:0:
280,123,114744,1,8,0:0:0:0:
229,143,114916,1,8,0:0:0:0:
139,113,115087,1,0,0:0:0:0:
331,126,115601,1,0,0:0:0:0:
274,122,115773,1,0,0:0:0:0:
140,109,116116,1,8,0:0:0:0:
265,121,116459,1,0,0:0:0:0:
74,103,116973,1,0,0:0:0:0:
125,107,117144,1,0,0:0:0:0:
256,120,117487,1,8,0:0:0:0:
203,78,117659,1,8,0:0:0:0:
203,115,117830,1,0,0:0:0:0:
203,115,118344,1,0,0:0:0:0:
203,115,118516,1,0,0:0:0:0:
83,158,118859,1,8,0:0:0:0:
222,141,119201,1,4,0:0:0:0:
256,192,119373,12,0,120230,0:0:0:0:
202,66,120573,5,0,0:0:0:0:
191,99,120659,1,8,0:0:0:0:
181,129,120744,1,8,0:0:0:0:
181,129,120830,1,8,0:0:0:0:
181,129,120916,1,0,0:0:0:0:
112,145,121087,1,0,0:0:0:0:
150,126,121173,1,8,0:0:0:0:
183,110,121259,1,0,0:0:0:0:
200,102,121344,1,0,0:0:0:0:
234,87,121430,1,8,0:0:0:0:
150,126,121601,1,0,0:0:0:0:
150,126,121687,1,0,0:0:0:0:
150,126,121773,1,8,0:0:0:0:
112,145,121859,1,8,0:0:0:0:
112,145,121944,1,0,0:0:0:0:
184,165,122116,1,8,0:0:0:0:
245,183,122287,1,8,0:0:0:0:
217,98,122630,1,8,0:0:0:0:
217,98,122801,1,0,0:0:0:0:
217,98,122973,1,0,0:0:0:0:
217,98,123144,1,8,0:0:0:0:
164,143,123487,1,8,0:0:0:0:
164,143,123659,1,0,0:0:0:0:
94,143,123830,1,0,0:0:0:0:
94,143,124001,1,8,0:0:0:0:
94,143,124173,1,8,0:0:0:0:
94,143,124344,1,0,0:0:0:0:
94,143,124516,1,12,0:0:0:0:
215,164,124859,1,8,0:0:0:0:
153,153,125030,1,8,0:0:0:0:
407,291,125373,1,0,0:0:0:0:
367,243,125544,1,8,0:0:0:0:
288,234,125716,1,0,0:0:0:0:
229,206,125887,1,8,0:0:0:0:
112,151,126230,1,0,0:0:0:0:
112,151,126401,1,8,0:0:0:0:
112,151,126573,1,8,0:0:0:0:
233,118,126916,1,8,0:0:0:0:
173,134,127087,1,8,0:0:0:0:
211,131,127259,1,0,0:0:0:0:
233,118,127430,1,4,0:0:0:0:
205,140,127601,1,0,0:0:0:0:
264,145,127773,1,8,0:0:0:0:
239,143,127859,1,0,0:0:0:0:
204,140,127944,1,8,0:0:0:0:
139,149,128116,1,8,0:0:0:0:
115,153,128201,1,0,0:0:0:0:
115,153,128287,1,0,0:0:0:0:
115,153,128459,1,8,0:0:0:0:
115,153,128630,1,0,0:0:0:0:
115,153,128716,1,0,0:0:0:0:
115,153,128801,1,8,0:0:0:0:
115,153,128973,1,0,0:0:0:0:
106,217,129144,1,8,0:0:0:0:
115,155,129316,1,8,0:0:0:0:
170,119,129487,1,0,0:0:0:0:
234,131,129659,1,0,0:0:0:0:
193,123,129744,1,0,0:0:0:0:
193,123,129830,1,8,0:0:0:0:
193,123,129916,1,8,0:0:0:0:
193,123,130001,1,0,0:0:0:0:
432,169,130173,1,8,0:0:0:0:
369,168,130344,1,0,0:0:0:0:
300,167,130516,1,8,0:0:0:0:
269,159,130601,1,8,0:0:0:0:
245,153,130687,1,0,0:0:0:0:
177,121,130859,1,0,0:0:0:0:
144,106,130944,1,8,0:0:0:0:
144,106,131030,1,0,0:0:0:0:
144,106,131201,1,8,0:0:0:0:
114,171,131373,1,0,0:0:0:0:
127,141,131459,1,0,0:0:0:0:
127,141,131544,1,8,0:0:0:0:
127,141,131716,1,0,0:0:0:0:
127,141,131887,1,8,0:0:0:0:
127,141,132059,1,8,0:0:0:0:
62,162,132230,1,0,0:0:0:0:
127,141,132401,1,8,0:0:0:0:
127,141,132487,1,0,0:0:0:0:
127,141,132573,1,8,0:0:0:0:
84,144,132744,1,4,0:0:0:0:
127,141,133087,1,0,0:0:0:0:
127,141,133259,1,8,0:0:0:0:
84,144,133430,1,4,0:0:0:0:
127,141,133773,1,0,0:0:0:0:
127,141,133859,1,0,0:0:0:0:
127,141,133944,1,0,0:0:0:0:
84,144,134116,1,12,0:0:0:0:
207,102,134459,1,8,0:0:0:0:
150,121,134630,1,0,0:0:0:0:
84,144,134801,1,12,0:0:0:0:
150,121,134973,1,0,0:0:0:0:
150,121,135059,1,8,0:0:0:0:
150,121,135144,1,8,0:0:0:0:
85,139,135316,1,0,0:0:0:0:
25,166,135487,1,8,0:0:0:0:
51,154,135573,1,8,0:0:0:0:
51,154,135659,1,0,0:0:0:0:
184,136,136001,1,0,0:0:0:0:
54,156,136344,1,0,0:0:0:0:
180,136,136687,1,0,0:0:0:0:
113,139,136859,1,8,0:0:0:0:
44,161,137030,1,0,0:0:0:0:
101,161,137201,1,8,0:0:0:0:
101,161,137373,1,8,0:0:0:0:
167,151,137544,1,0,0:0:0:0:
236,181,137716,1,0,0:0:0:0:
231,157,137801,1,0,0:0:0:0:
227,137,137887,1,8,0:0:0:0:
167,151,137973,1,0,0:0:0:0:
167,151,138059,1,8,0:0:0:0:
167,151,138144,1,8,0:0:0:0:
167,151,138230,1,0,0:0:0:0:
95,153,138401,1,12,0:0:0:0:
205,140,138573,1,0,0:0:0:0:
264,145,138744,1,8,0:0:0:0:
239,143,138830,1,8,0:0:0:0:
204,140,138916,1,0,0:0:0:0:
139,149,139087,1,8,0:0:0:0:
115,153,139173,1,0,0:0:0:0:
115,153,139259,1,8,0:0:0:0:
115,153,139430,1,0,0:0:0:0:
115,153,139601,1,0,0:0:0:0:
115,153,139687,1,0,0:0:0:0:
115,153,139773,1,8,0:0:0:0:
115,153,139944,1,0,0:0:0:0:
106,217,140116,1,8,0:0:0:0:
115,155,140287,1,8,0:0:0:0:
170,119,140459,1,0,0:0:0:0:
234,131,140630,1,0,0:0:0:0:
193,123,140716,1,0,0:0:0:0:
193,123,140801,1,8,0:0:0:0:
193,123,140887,1,8,0:0:0:0:
193,123,140973,1,0,0:0:0:0:
432,169,141144,1,8,0:0:0:0:
369,168,141316,1,0,0:0:0:0:
300,167,141487,1,8,0:0:0:0:
269,159,141573,1,0,0:0:0:0:
245,153,141659,1,8,0:0:0:0:
177,121,141830,1,0,0:0:0:0:
144,106,141916,1,0,0:0:0:0:
144,106,142001,1,0,0:0:0:0:
144,106,142173,1,8,0:0:0:0:
114,171,142344,1,0,0:0:0:0:
127,141,142430,1,0,0:0:0:0:
127,141,142516,1,8,0:0:0:0:
127,141,142687,1,0,0:0:0:0:
127,141,142859,1,8,0:0:0:0:
127,141,143030,1,8,0:0:0:0:
62,162,143201,1,0,0:0:0:0:
127,141,143373,1,8,0:0:0:0:
127,141,143459,1,8,0:0:0:0:
127,141,143544,1,8,0:0:0:0:
84,144,143716,1,4,0:0:0:0:
127,141,144059,1,0,0:0:0:0:
127,141,144230,1,8,0:0:0:0:
84,144,144401,1,4,0:0:0:0:
127,141,144744,1,0,0:0:0:0:
127,141,144830,1,0,0:0:0:0:
127,141,144916,1,0,0:0:0:0:
84,144,145087,1,12,0:0:0:0:
207,102,145430,1,8,0:0:0:0:
150,121,145601,1,0,0:0:0:0:
84,144,145773,1,12,0:0:0:0:
150,121,145944,1,0,0:0:0:0:
150,121,146030,1,8,0:0:0:0:
150,121,146116,1,8,0:0:0:0:
85,139,146287,1,0,0:0:0:0:
25,166,146459,1,8,0:0:0:0:
51,154,146544,1,8,0:0:0:0:
51,154,146630,1,0,0:0:0:0:
184,136,146973,1,0,0:0:0:0:
54,156,147316,1,0,0:0:0:0:
186,165,147659,1,0,0:0:0:0:
49,156,148001,1,8,0:0:0:0:
117,160,148173,1,0,0:0:0:0:
196,160,148344,1,8,0:0:0:0:
196,160,148516,1,8,0:0:0:0:
123,168,148687,1,0,0:0:0:0:
152,168,148773,1,0,0:0:0:0:
178,163,148859,1,8,0:0:0:0:
251,173,149030,1,0,0:0:0:0:
188,143,149201,1,8,0:0:0:0:
251,173,149373,1,4,0:0:0:0:
178,163,149544,1,0,0:0:0:0:
178,163,149630,1,0,0:0:0:0:
131,111,149716,1,8,0:0:0:0:
266,89,149887,1,0,0:0:0:0:
266,89,150059,1,8,0:0:0:0:
202,105,150230,1,8,0:0:0:0:
131,161,150573,1,0,0:0:0:0:
156,22,150744,1,8,0:0:0:0:
168,88,150916,1,0,0:0:0:0:
162,149,151001,1,0,0:0:0:0:
131,161,151087,1,8,0:0:0:0:
144,87,151259,1,8,0:0:0:0:
135,145,151430,1,0,0:0:0:0:
69,170,151516,1,0,0:0:0:0:
69,170,151601,1,8,0:0:0:0:
104,156,151773,1,8,0:0:0:0:
123,147,151859,1,0,0:0:0:0:
137,140,151944,1,0,0:0:0:0:
104,156,152116,1,4,0:0:0:0:
152,69,152287,1,0,0:0:0:0:
155,157,152459,1,8,0:0:0:0:
155,157,152630,1,0,0:0:0:0:
77,148,152716,1,0,0:0:0:0:
155,157,152801,1,8,0:0:0:0:
236,91,152973,1,8,0:0:0:0:
155,157,153144,1,0,0:0:0:0:
155,157,153316,1,8,0:0:0:0:
37,153,153401,1,8,0:0:0:0:
155,157,153487,1,0,0:0:0:0:
155,157,153659,1,0,0:0:0:0:
155,157,153830,1,8,0:0:0:0:
187,147,153916,1,0,0:0:0:0:
155,157,154001,1,8,0:0:0:0:
195,132,154087,1,8,0:0:0:0:
236,91,154173,1,0,0:0:0:0:
155,157,154344,1,0,0:0:0:0:
294,93,154430,1,0,0:0:0:0:
155,157,154516,1,0,0:0:0:0:
155,157,154687,1,8,0:0:0:0:
223,96,155030,1,8,0:0:0:0:
447,161,155116,1,0,0:0:0:0:
210,89,155201,1,8,0:0:0:0:
210,89,155373,1,0,0:0:0:0:
213,103,155544,1,8,0:0:0:0:
213,103,155716,1,8,0:0:0:0:
239,126,155801,1,8,0:0:0:0:
239,126,155887,1,0,0:0:0:0:
132,137,156059,1,8,0:0:0:0:
464,268,156144,1,0,0:0:0:0:
132,137,156230,1,8,0:0:0:0:
132,137,156401,1,0,0:0:0:0:
132,137,156573,1,8,0:0:0:0:
132,137,156744,1,8,0:0:0:0:
223,117,156830,1,8,0:0:0:0:
195,123,156916,1,0,0:0:0:0:
239,126,157087,1,0,0:0:0:0:
239,126,157259,1,8,0:0:0:0:
239,126,157430,1,0,0:0:0:0:
132,137,157773,1,8,0:0:0:0:
174,126,157859,1,0,0:0:0:0:
132,137,157944,1,8,0:0:0:0:
132,137,158116,1,0,0:0:0:0:
132,137,158287,1,8,0:0:0:0:
132,137,158459,1,8,0:0:0:0:
96,140,158544,1,8,0:0:0:0:
195,128,158630,1,0,0:0:0:0:
258,121,158801,1,8,0:0:0:0:
272,140,158887,1,0,0:0:0:0:
272,140,158973,1,8,0:0:0:0:
204,124,159144,1,0,0:0:0:0:
204,124,159316,1,8,0:0:0:0:
280,148,159487,1,0,0:0:0:0:
211,144,159659,1,0,0:0:0:0:
211,144,159744,1,0,0:0:0:0:
211,144,159830,1,8,0:0:0:0:
183,153,159916,1,0,0:0:0:0:
153,163,160001,1,8,0:0:0:0:
119,175,160087,1,8,0:0:0:0:
119,175,160173,1,0,0:0:0:0:
204,124,160344,1,4,0:0:0:0:
410,60,160859,1,0,0:0:0:0:
347,79,161030,1,0,0:0:0:0:
213,121,161373,1,8,0:0:0:0:
343,81,161716,1,0,0:0:0:0:
168,217,162230,1,0,0:0:0:0:
226,171,162401,1,0,0:0:0:0:
267,143,162573,1,8,0:0:0:0:
305,117,162744,1,0,0:0:0:0:
372,74,162916,1,8,0:0:0:0:
305,117,163087,1,0,0:0:0:0:
94,130,163601,1,0,0:0:0:0:
158,127,163773,1,0,0:0:0:0:
18,133,164116,1,8,0:0:0:0:
148,127,164459,1,0,0:0:0:0:
338,94,164973,1,0,0:0:0:0:
286,103,165144,1,0,0:0:0:0:
229,113,165316,1,8,0:0:0:0:
229,113,165487,1,0,0:0:0:0:
229,113,165659,1,8,0:0:0:0:
154,126,165830,1,0,0:0:0:0:
196,88,166344,1,0,0:0:0:0:
196,88,166516,1,0,0:0:0:0:
196,88,166859,1,8,0:0:0:0:
230,86,167201,1,0,0:0:0:0:
118,262,167716,1,0,0:0:0:0:
153,206,167887,1,0,0:0:0:0:
230,86,168059,1,8,0:0:0:0:
189,149,168230,1,0,0:0:0:0:
230,86,168401,1,8,0:0:0:0:
192,145,168573,1,0,0:0:0:0:
110,140,169087,1,0,0:0:0:0:
110,140,169259,1,0,0:0:0:0:
231,92,169601,1,8,0:0:0:0:
80,152,169944,1,0,0:0:0:0:
281,145,170459,1,0,0:0:0:0:
217,147,170630,1,0,0:0:0:0:
154,149,170801,1,8,0:0:0:0:
154,149,170973,1,0,0:0:0:0:
221,119,171144,1,8,0:0:0:0:
193,142,171230,1,8,0:0:0:0:
265,170,171316,1,0,0:0:0:0:
153,77,171659,1,0,0:0:0:0:
213,92,171830,1,8,0:0:0:0:
263,169,172001,1,0,0:0:0:0:
221,137,172173,1,8,0:0:0:0:
154,75,172344,1,0,0:0:0:0:
221,137,172687,1,0,0:0:0:0:
154,135,172859,1,0,0:0:0:0:
154,135,173030,1,8,0:0:0:0:
154,135,173201,1,8,0:0:0:0:
154,135,173373,1,0,0:0:0:0:
235,145,173544,1,8,0:0:0:0:
155,152,173716,1,0,0:0:0:0:
235,145,173887,1,8,0:0:0:0:
235,145,173973,1,8,0:0:0:0:
235,145,174059,1,0,0:0:0:0:
123,230,174401,1,0,0:0:0:0:
155,152,174573,1,8,0:0:0:0:
134,100,174744,1,0,0:0:0:0:
155,152,174916,1,0,0:0:0:0:
184,146,175087,1,8,0:0:0:0:
293,77,175430,1,8,0:0:0:0:
238,111,175601,1,0,0:0:0:0:
187,145,175773,1,8,0:0:0:0:
226,119,175944,1,8,0:0:0:0:
226,119,176116,1,0,0:0:0:0:
320,103,176287,1,8,0:0:0:0:
226,119,176459,1,0,0:0:0:0:
181,126,176630,1,8,0:0:0:0:
187,160,176716,1,8,0:0:0:0:
226,119,176801,1,0,0:0:0:0:
170,100,176973,1,0,0:0:0:0:
219,149,177144,1,8,0:0:0:0:
176,102,177316,1,0,0:0:0:0:
172,34,177487,1,8,0:0:0:0:
172,34,177659,1,8,0:0:0:0:
172,34,177830,1,0,0:0:0:0:
172,34,178001,1,0,0:0:0:0:
172,34,178173,1,8,0:0:0:0:
172,34,178344,1,0,0:0:0:0:
172,34,178516,1,8,0:0:0:0:
172,34,178687,1,0,0:0:0:0:
172,34,178859,1,0,0:0:0:0:
198,106,179030,1,8,0:0:0:0:
198,106,179201,1,8,0:0:0:0:
198,106,179373,1,8,0:0:0:0:
259,81,179544,1,0,0:0:0:0:
259,81,179630,1,0,0:0:0:0:
259,81,179716,1,0,0:0:0:0:
259,81,179801,1,0,0:0:0:0:
259,81,179887,1,8,0:0:0:0:
259,81,180059,1,0,0:0:0:0:
259,81,180230,1,8,0:0:0:0:
259,81,180316,1,8,0:0:0:0:
259,81,180401,1,8,0:0:0:0:
228,90,180487,1,8,0:0:0:0:
259,81,180573,1,0,0:0:0:0:
259,81,180659,1,0,0:0:0:0:
259,81,180744,1,0,0:0:0:0:
259,81,180830,1,0,0:0:0:0:
259,81,180916,1,8,0:0:0:0:
298,141,181087,1,0,0:0:0:0:
334,197,181259,1,8,0:0:0:0:
369,251,181430,1,0,0:0:0:0:
320,219,181601,1,0,0:0:0:0:
199,140,181944,1,8,0:0:0:0:
301,179,182287,1,0,0:0:0:0:
229,159,182459,1,8,0:0:0:0:
187,148,182544,1,0,0:0:0:0:
187,148,182630,1,8,0:0:0:0:
187,148,182716,1,8,0:0:0:0:
501,195,182801,1,0,0:0:0:0:
431,189,182973,1,0,0:0:0:0:
363,183,183144,1,8,0:0:0:0:
310,173,183316,1,0,0:0:0:0:
279,168,183401,1,8,0:0:0:0:
247,162,183487,1,8,0:0:0:0:
216,157,183573,1,0,0:0:0:0:
216,157,183659,1,8,0:0:0:0:
231,137,185030,5,0,0:0:0:0:
231,137,185201,1,0,0:0:0:0:
231,137,185287,1,8,0:0:0:0:
367,77,185373,1,8,0:0:0:0:
336,90,185459,1,8,0:0:0:0:
222,86,185716,1,8,0:0:0:0:
149,86,185887,1,0,0:0:0:0:
222,86,185973,1,8,0:0:0:0:
132,150,186059,1,0,0:0:0:0:
222,86,186144,1,0,0:0:0:0:
222,86,186230,1,8,0:0:0:0:
222,86,186316,1,8,0:0:0:0:
222,86,186401,1,0,0:0:0:0:
309,187,186744,1,8,0:0:0:0:
132,150,186916,1,0,0:0:0:0:
132,150,187001,1,8,0:0:0:0:
184,110,187087,1,0,0:0:0:0:
243,146,187259,1,0,0:0:0:0:
243,146,187430,1,8,0:0:0:0:
183,131,187601,1,0,0:0:0:0:
156,149,187687,1,0,0:0:0:0:
173,144,187773,1,8,0:0:0:0:
203,137,187944,1,0,0:0:0:0:
203,137,188116,1,8,0:0:0:0:
164,141,188201,1,0,0:0:0:0:
203,137,188287,1,8,0:0:0:0:
187,140,188373,1,8,0:0:0:0:
203,137,188459,1,0,0:0:0:0:
132,146,188630,1,0,0:0:0:0:
203,137,188801,1,8,0:0:0:0:
141,144,188973,1,8,0:0:0:0:
142,107,189144,1,0,0:0:0:0:
278,128,189487,1,8,0:0:0:0:
204,116,189659,1,0,0:0:0:0:
204,116,189830,1,8,0:0:0:0:
242,132,189916,1,8,0:0:0:0:
258,144,190001,1,0,0:0:0:0:
330,168,190173,1,8,0:0:0:0:
295,159,190259,1,0,0:0:0:0:
206,95,190344,1,8,0:0:0:0:
150,122,190516,1,0,0:0:0:0:
242,132,190687,1,8,0:0:0:0:
242,132,190859,1,8,0:0:0:0:
242,132,190944,1,8,0:0:0:0:
258,144,191030,1,0,0:0:0:0:
258,144,191116,1,0,0:0:0:0:
258,144,191201,1,8,0:0:0:0:
243,144,191373,1,0,0:0:0:0:
174,145,191544,1,8,0:0:0:0:
102,141,191716,1,0,0:0:0:0:
102,141,191887,1,0,0:0:0:0:
222,118,192230,1,8,0:0:0:0:
174,154,192401,1,0,0:0:0:0:
176,127,192487,1,0,0:0:0:0:
179,104,192573,1,8,0:0:0:0:
179,104,192744,1,0,0:0:0:0:
179,104,192916,1,8,0:0:0:0:
179,104,193087,1,0,0:0:0:0:
179,104,193173,1,0,0:0:0:0:
146,116,193259,1,8,0:0:0:0:
115,132,193344,1,8,0:0:0:0:
84,149,193430,1,0,0:0:0:0:
146,116,193601,1,8,0:0:0:0:
146,116,193773,1,0,0:0:0:0:
183,100,193859,1,8,0:0:0:0:
205,130,193944,1,0,0:0:0:0:
205,130,194116,1,0,0:0:0:0:
205,130,194287,1,8,0:0:0:0:
205,130,194459,1,8,0:0:0:0:
205,130,194630,1,0,0:0:0:0:
83,78,194973,1,8,0:0:0:0:
126,98,195144,1,0,0:0:0:0:
138,165,195316,1,8,0:0:0:0:
145,131,195401,1,8,0:0:0:0:
153,97,195487,1,0,0:0:0:0:
153,97,195659,1,8,0:0:0:0:
77,137,195744,1,0,0:0:0:0:
143,163,195830,1,8,0:0:0:0:
143,163,196001,1,0,0:0:0:0:
110,150,196173,1,8,0:0:0:0:
143,163,196344,1,8,0:0:0:0:
171,142,196430,1,8,0:0:0:0:
143,163,196516,5,0,0:0:0:0:
143,163,196601,1,0,0:0:0:0:
143,163,196687,1,8,0:0:0:0:
82,161,196859,1,0,0:0:0:0:
82,161,197030,1,8,0:0:0:0:
82,161,197201,1,8,0:0:0:0:
182,146,197373,5,4,0:0:0:0:
298,89,197716,1,8,0:0:0:0:
241,102,197887,1,0,0:0:0:0:
244,124,197973,1,0,0:0:0:0:
176,149,198059,1,8,0:0:0:0:
234,169,198230,1,0,0:0:0:0:
299,89,198401,1,8,0:0:0:0:
244,115,198573,1,8,0:0:0:0:
244,115,198744,1,0,0:0:0:0:
113,145,198830,1,0,0:0:0:0:
178,130,198916,1,0,0:0:0:0:
113,145,199001,1,0,0:0:0:0:
244,115,199087,1,8,0:0:0:0:
113,145,199259,1,0,0:0:0:0:
113,145,199430,1,8,0:0:0:0:
113,145,199516,1,0,0:0:0:0:
113,145,199601,1,8,0:0:0:0:
113,145,199773,1,0,0:0:0:0:
113,145,199944,1,8,0:0:0:0:
180,141,200116,1,0,0:0:0:0:
315,133,200459,5,8,0:0:0:0:
259,136,200630,1,0,0:0:0:0:
254,165,200716,1,8,0:0:0:0:
194,140,200801,1,0,0:0:0:0:
253,137,200973,1,8,0:0:0:0:
184,140,201144,1,0,0:0:0:0:
243,138,201316,1,8,0:0:0:0:
18,150,201401,5,8,0:0:0:0:
53,148,201487,1,0,0:0:0:0:
88,146,201573,1,0,0:0:0:0:
63,128,201659,1,8,0:0:0:0:
112,104,201830,1,8,0:0:0:0:
101,110,202001,1,0,0:0:0:0:
158,98,202173,1,8,0:0:0:0:
145,107,202259,1,0,0:0:0:0:
158,98,202344,1,8,0:0:0:0:
227,109,202516,1,0,0:0:0:0:
227,109,202687,1,8,0:0:0:0:
192,114,202773,1,8,0:0:0:0:
227,109,202859,1,0,0:0:0:0:
63,165,203201,1,8,0:0:0:0:
63,165,203373,1,0,0:0:0:0:
63,165,203544,1,0,0:0:0:0:
63,165,203887,1,8,0:0:0:0:
63,165,204059,1,0,0:0:0:0:
63,165,204230,1,8,0:0:0:0:
63,165,204573,1,8,0:0:0:0:
63,165,204744,1,0,0:0:0:0:
118,114,204916,1,0,0:0:0:0:
89,140,205001,1,8,0:0:0:0:
89,140,205087,1,8,0:0:0:0:
155,108,205259,1,0,0:0:0:0:
155,108,205430,1,8,0:0:0:0:
155,108,205516,1,8,0:0:0:0:
155,108,205601,1,0,0:0:0:0:
155,108,205944,1,0,0:0:0:0:
155,108,206287,1,0,0:0:0:0:
309,187,206459,5,0,0:0:0:0:
309,187,206544,1,0,0:0:0:0:
287,161,206630,1,8,0:0:0:0:
269,140,206716,1,8,0:0:0:0:
269,140,206801,1,0,0:0:0:0:
269,140,206973,1,12,0:0:0:0:
196,148,207144,1,12,0:0:0:0:
196,148,207316,1,12,0:0:0:0:
196,148,207487,1,12,0:0:0:0:
265,142,207659,1,0,0:0:0:0:
210,107,207830,1,12,0:0:0:0:
153,70,208001,1,12,0:0:0:0:
153,70,208173,1,12,0:0:0:0:
256,192,208344,12,0,209716,0:0:0:0:
186,157,210401,5,8,0:0:0:0:
186,157,211087,1,8,0:0:0:0:
255,93,211773,1,8,0:0:0:0:
255,93,212459,1,4,0:0:0:0:
293,163,212630,1,0,0:0:0:0:
238,157,212801,1,8,0:0:0:0:
209,154,212887,1,0,0:0:0:0:
180,151,212973,1,8,0:0:0:0:
114,137,213144,1,8,0:0:0:0:
146,143,213230,1,0,0:0:0:0:
146,143,213316,1,0,0:0:0:0:
206,124,213487,1,8,0:0:0:0:
270,106,213659,1,0,0:0:0:0:
239,114,213744,1,0,0:0:0:0:
239,114,213830,1,8,0:0:0:0:
239,114,214001,1,0,0:0:0:0:
239,114,214173,1,8,0:0:0:0:
239,114,214344,1,8,0:0:0:0:
165,129,214516,1,0,0:0:0:0:
165,129,214687,1,0,0:0:0:0:
165,129,214773,1,0,0:0:0:0:
165,129,214859,1,8,0:0:0:0:
177,88,214944,1,8,0:0:0:0:
104,152,215030,1,0,0:0:0:0:
169,131,215201,1,8,0:0:0:0:
369,168,215373,1,0,0:0:0:0:
300,167,215544,1,8,0:0:0:0:
269,159,215630,1,8,0:0:0:0:
245,153,215716,1,0,0:0:0:0:
177,121,215887,1,0,0:0:0:0:
144,106,215973,1,8,0:0:0:0:
144,106,216059,1,0,0:0:0:0:
144,106,216230,1,8,0:0:0:0:
114,171,216401,1,0,0:0:0:0:
127,141,216487,1,0,0:0:0:0:
127,141,216573,1,8,0:0:0:0:
127,141,216744,1,0,0:0:0:0:
127,141,216916,1,8,0:0:0:0:
127,141,217087,1,8,0:0:0:0:
62,162,217259,1,0,0:0:0:0:
127,141,217430,1,8,0:0:0:0:
127,141,217516,1,0,0:0:0:0:
127,141,217601,1,8,0:0:0:0:
126,162,217773,1,4,0:0:0:0:
235,100,218116,1,0,0:0:0:0:
186,127,218287,1,8,0:0:0:0:
126,162,218459,1,4,0:0:0:0:
247,91,218801,1,0,0:0:0:0:
237,107,218887,1,0,0:0:0:0:
189,124,218973,1,0,0:0:0:0:
139,155,219144,1,12,0:0:0:0:
139,155,219487,1,8,0:0:0:0:
139,155,219659,1,0,0:0:0:0:
126,162,219830,1,12,0:0:0:0:
193,152,220001,1,0,0:0:0:0:
193,152,220087,1,8,0:0:0:0:
193,152,220173,1,8,0:0:0:0:
193,152,220344,1,0,0:0:0:0:
193,152,220430,1,0,0:0:0:0:
193,152,220516,1,0,0:0:0:0:
485,162,220687,1,12,0:0:0:0:
74,160,222059,5,4,0:0:0:0:
74,160,222230,1,4,0:0:0:0:
74,160,222401,1,12,0:0:0:0:
74,160,222573,1,12,0:0:0:0:
146,148,222744,1,0,0:0:0:0:
218,138,222916,1,8,0:0:0:0:
191,126,223001,1,0,0:0:0:0:
218,138,223087,1,8,0:0:0:0:
218,138,223173,1,8,0:0:0:0:
218,138,223259,1,0,0:0:0:0:
294,108,223430,1,12,0:0:0:0:
205,140,223601,1,0,0:0:0:0:
264,145,223773,1,8,0:0:0:0:
239,143,223859,1,8,0:0:0:0:
204,140,223944,1,8,0:0:0:0:
139,149,224116,1,0,0:0:0:0:
115,153,224201,1,0,0:0:0:0:
115,153,224287,1,8,0:0:0:0:
115,153,224459,1,0,0:0:0:0:
115,153,224630,1,8,0:0:0:0:
115,153,224716,1,0,0:0:0:0:
115,153,224801,1,8,0:0:0:0:
115,153,224973,1,0,0:0:0:0:
106,217,225144,1,8,0:0:0:0:
115,155,225316,1,8,0:0:0:0:
170,119,225487,1,0,0:0:0:0:
234,131,225659,1,0,0:0:0:0:
193,123,225744,1,0,0:0:0:0:
193,123,225830,1,8,0:0:0:0:
193,123,225916,1,8,0:0:0:0:
193,123,226001,1,0,0:0:0:0:
432,169,226173,1,8,0:0:0:0:
369,168,226344,1,0,0:0:0:0:
300,167,226516,1,8,0:0:0:0:
269,159,226601,1,0,0:0:0:0:
245,153,226687,1,8,0:0:0:0:
177,121,226859,1,8,0:0:0:0:
144,106,226944,1,8,0:0:0:0:
144,106,227030,1,0,0:0:0:0:
144,106,227201,1,8,0:0:0:0:
114,171,227373,1,0,0:0:0:0:
127,141,227459,1,0,0:0:0:0:
127,141,227544,1,8,0:0:0:0:
127,141,227716,1,0,0:0:0:0:
127,141,227887,1,8,0:0:0:0:
127,141,228059,1,8,0:0:0:0:
62,162,228230,1,0,0:0:0:0:
127,141,228401,1,8,0:0:0:0:
127,141,228487,1,0,0:0:0:0:
127,141,228573,1,8,0:0:0:0:
84,144,228744,1,4,0:0:0:0:
127,141,229087,1,0,0:0:0:0:
127,141,229259,1,8,0:0:0:0:
84,144,229430,1,4,0:0:0:0:
127,141,229773,1,0,0:0:0:0:
127,141,229859,1,0,0:0:0:0:
127,141,229944,1,0,0:0:0:0:
84,144,230116,1,12,0:0:0:0:
207,102,230459,1,8,0:0:0:0:
150,121,230630,1,0,0:0:0:0:
84,144,230801,1,12,0:0:0:0:
149,151,230973,1,0,0:0:0:0:
190,155,231059,1,8,0:0:0:0:
224,159,231144,1,8,0:0:0:0:
277,114,231316,1,0,0:0:0:0:
277,114,231487,1,8,0:0:0:0:
277,114,231573,1,8,0:0:0:0:
277,114,231659,1,0,0:0:0:0:
224,159,232001,1,0,0:0:0:0:
224,159,232344,1,0,0:0:0:0:
224,159,232687,1,0,0:0:0:0:
224,159,233030,1,0,0:0:0:0:
224,159,233201,1,8,0:0:0:0:
224,159,233373,1,8,0:0:0:0:
224,159,233544,1,0,0:0:0:0:
224,159,233716,1,0,0:0:0:0:
14,178,233801,1,8,0:0:0:0:
224,159,233887,1,0,0:0:0:0:
224,159,234059,1,8,0:0:0:0:
239,127,234144,1,8,0:0:0:0:
172,146,234230,1,0,0:0:0:0:
224,159,234401,1,4,0:0:0:0:
205,140,234573,1,0,0:0:0:0:
264,145,234744,1,8,0:0:0:0:
239,143,234830,1,0,0:0:0:0:
204,140,234916,1,8,0:0:0:0:
139,149,235087,1,8,0:0:0:0:
115,153,235173,1,0,0:0:0:0:
115,153,235259,1,0,0:0:0:0:
115,153,235430,1,8,0:0:0:0:
115,153,235601,1,0,0:0:0:0:
115,153,235687,1,0,0:0:0:0:
115,153,235773,1,8,0:0:0:0:
115,153,235944,1,0,0:0:0:0:
106,217,236116,1,8,0:0:0:0:
115,155,236287,1,8,0:0:0:0:
170,119,236459,1,0,0:0:0:0:
234,131,236630,1,0,0:0:0:0:
193,123,236716,1,0,0:0:0:0:
193,123,236801,1,8,0:0:0:0:
193,123,236887,1,8,0:0:0:0:
193,123,236973,1,0,0:0:0:0:
432,169,237144,1,8,0:0:0:0:
369,168,237316,1,0,0:0:0:0:
300,167,237487,1,8,0:0:0:0:
269,159,237573,1,8,0:0:0:0:
245,153,237659,1,0,0:0:0:0:
177,121,237830,1,0,0:0:0:0:
144,106,237916,1,8,0:0:0:0:
144,106,238001,1,0,0:0:0:0:
144,106,238173,1,8,0:0:0:0:
114,171,238344,1,0,0:0:0:0:
127,141,238430,1,0,0:0:0:0:
127,141,238516,1,8,0:0:0:0:
127,141,238687,1,0,0:0:0:0:
127,141,238859,1,8,0:0:0:0:
127,141,239030,1,8,0:0:0:0:
62,162,239201,1,0,0:0:0:0:
127,141,239373,1,8,0:0:0:0:
127,141,239459,1,0,0:0:0:0:
127,141,239544,1,8,0:0:0:0:
84,144,239716,1,4,0:0:0:0:
127,141,240059,1,0,0:0:0:0:
127,141,240230,1,8,0:0:0:0:
84,144,240401,1,4,0:0:0:0:
127,141,240744,1,0,0:0:0:0:
127,141,240830,1,0,0:0:0:0:
127,141,240916,1,0,0:0:0:0:
84,144,241087,1,12,0:0:0:0:
207,102,241430,1,8,0:0:0:0:
150,121,241601,1,0,0:0:0:0:
84,144,241773,1,12,0:0:0:0:
150,121,241944,1,0,0:0:0:0:
150,121,242030,1,8,0:0:0:0:
150,121,242116,1,8,0:0:0:0:
85,139,242287,1,0,0:0:0:0:
25,166,242459,1,8,0:0:0:0:
51,154,242544,1,8,0:0:0:0:
51,154,242630,1,0,0:0:0:0:
184,136,242973,1,0,0:0:0:0:
54,156,243316,1,0,0:0:0:0:
180,136,243659,1,0,0:0:0:0:
113,139,243830,1,8,0:0:0:0:
44,161,244001,1,0,0:0:0:0:
101,161,244173,1,8,0:0:0:0:
101,161,244344,1,8,0:0:0:0:
167,151,244516,1,0,0:0:0:0:
129,199,244687,1,0,0:0:0:0:
154,180,244773,1,0,0:0:0:0:
178,162,244859,1,8,0:0:0:0:
167,151,244944,1,0,0:0:0:0:
167,151,245030,1,8,0:0:0:0:
167,151,245116,1,8,0:0:0:0:
167,151,245201,1,0,0:0:0:0:
232,103,245373,1,12,0:0:0:0:
205,140,245544,1,0,0:0:0:0:
264,145,245716,1,8,0:0:0:0:
239,143,245801,1,8,0:0:0:0:
204,140,245887,1,0,0:0:0:0:
139,149,246059,1,8,0:0:0:0:
115,153,246144,1,0,0:0:0:0:
115,153,246230,1,8,0:0:0:0:
115,153,246401,1,0,0:0:0:0:
115,153,246573,1,0,0:0:0:0:
115,153,246659,1,0,0:0:0:0:
115,153,246744,1,8,0:0:0:0:
115,153,246916,1,0,0:0:0:0:
106,217,247087,1,8,0:0:0:0:
115,155,247259,1,8,0:0:0:0:
170,119,247430,1,0,0:0:0:0:
234,131,247601,1,0,0:0:0:0:
193,123,247687,1,0,0:0:0:0:
193,123,247773,1,8,0:0:0:0:
193,123,247859,1,8,0:0:0:0:
193,123,247944,1,0,0:0:0:0:
432,169,248116,1,8,0:0:0:0:
369,168,248287,1,0,0:0:0:0:
300,167,248459,1,8,0:0:0:0:
269,159,248544,1,0,0:0:0:0:
245,153,248630,1,8,0:0:0:0:
177,121,248801,1,0,0:0:0:0:
144,106,248887,1,0,0:0:0:0:
144,106,248973,1,0,0:0:0:0:
144,106,249144,1,8,0:0:0:0:
114,171,249316,1,0,0:0:0:0:
127,141,249401,1,0,0:0:0:0:
127,141,249487,1,8,0:0:0:0:
127,141,249659,1,0,0:0:0:0:
127,141,249830,1,8,0:0:0:0:
127,141,250001,1,8,0:0:0:0:
62,162,250173,1,0,0:0:0:0:
127,141,250344,1,8,0:0:0:0:
127,141,250430,1,8,0:0:0:0:
127,141,250516,1,8,0:0:0:0:
84,144,250687,1,4,0:0:0:0:
127,141,251030,1,0,0:0:0:0:
127,141,251201,1,8,0:0:0:0:
84,144,251373,1,4,0:0:0:0:
127,141,251716,1,0,0:0:0:0:
127,141,251801,1,0,0:0:0:0:
127,141,251887,1,0,0:0:0:0:
84,144,252059,1,12,0:0:0:0:
207,102,252401,1,8,0:0:0:0:
150,121,252573,1,0,0:0:0:0:
84,144,252744,1,12,0:0:0:0:
150,121,252916,1,0,0:0:0:0:
150,121,253001,1,8,0:0:0:0:
150,121,253087,1,8,0:0:0:0:
85,139,253259,1,0,0:0:0:0:
25,166,253430,1,8,0:0:0:0:
51,154,253516,1,8,0:0:0:0:
51,154,253601,1,0,0:0:0:0:
184,136,253944,1,0,0:0:0:0:
54,156,254287,1,0,0:0:0:0:
186,165,254630,1,0,0:0:0:0:
49,156,254973,1,8,0:0:0:0:
117,160,255144,1,0,0:0:0:0:
196,160,255316,1,8,0:0:0:0:
196,160,255487,1,8,0:0:0:0:
123,168,255659,1,0,0:0:0:0:
152,168,255744,1,0,0:0:0:0:
178,163,255830,1,8,0:0:0:0:
251,173,256001,1,0,0:0:0:0:
188,143,256173,1,8,0:0:0:0:
251,173,256344,1,4,0:0:0:0:
178,163,256516,1,0,0:0:0:0:
178,163,256601,1,0,0:0:0:0:
131,111,256687,1,8,0:0:0:0:
266,89,256859,1,0,0:0:0:0:
266,89,257030,1,8,0:0:0:0:
202,105,257201,1,8,0:0:0:0:
131,161,257544,1,0,0:0:0:0:
156,22,257716,1,8,0:0:0:0:
168,88,257887,1,0,0:0:0:0:
162,149,257973,1,0,0:0:0:0:
131,161,258059,1,8,0:0:0:0:
144,87,258230,1,8,0:0:0:0:
135,145,258401,1,0,0:0:0:0:
69,170,258487,1,0,0:0:0:0:
69,170,258573,1,8,0:0:0:0:
104,156,258744,1,8,0:0:0:0:
123,147,258830,1,0,0:0:0:0:
137,140,258916,1,0,0:0:0:0:
104,156,259087,1,4,0:0:0:0:
152,69,259259,1,0,0:0:0:0:
155,157,259430,1,8,0:0:0:0:
155,157,259601,1,0,0:0:0:0:
77,148,259687,1,0,0:0:0:0:
155,157,259773,1,8,0:0:0:0:
236,91,259944,1,8,0:0:0:0:
155,157,260116,1,0,0:0:0:0:
155,157,260287,1,8,0:0:0:0:
37,153,260373,1,8,0:0:0:0:
155,157,260459,1,0,0:0:0:0:
155,157,260630,1,0,0:0:0:0:
155,157,260801,1,8,0:0:0:0:
187,147,260887,1,0,0:0:0:0:
155,157,260973,1,8,0:0:0:0:
195,132,261059,1,8,0:0:0:0:
236,91,261144,1,0,0:0:0:0:
155,157,261316,1,0,0:0:0:0:
294,93,261401,1,0,0:0:0:0:
155,157,261487,1,0,0:0:0:0:
216,149,261659,1,8,0:0:0:0:
191,154,261830,1,0,0:0:0:0:
157,26,262001,1,8,0:0:0:0:
279,61,262173,1,8,0:0:0:0:
260,143,262516,1,0,0:0:0:0:
195,136,262687,1,8,0:0:0:0:
131,122,262859,1,0,0:0:0:0:
208,116,263030,1,8,0:0:0:0:
250,156,263373,1,8,0:0:0:0:
195,136,263544,1,0,0:0:0:0:
255,118,263716,1,0,0:0:0:0:
260,143,263887,1,8,0:0:0:0:
260,143,264059,1,0,0:0:0:0:
260,143,264230,1,8,0:0:0:0:
260,143,264401,1,0,0:0:0:0:
121,155,264573,5,12,0:0:0:0:
121,155,264744,1,12,0:0:0:0:
121,155,264916,1,12,0:0:0:0:
121,155,265087,1,12,0:0:0:0:
121,155,265430,1,12,0:0:0:0:
121,155,265601,1,12,0:0:0:0:
121,155,265773,1,12,0:0:0:0:
121,155,266116,1,12,0:0:0:0:
121,155,266287,1,12,0:0:0:0:
121,155,266459,1,12,0:0:0:0:
