osu file format v14

[General]
AudioFilename: audio.mp3
AudioLeadIn: 0
PreviewTime: 126836
Countdown: 0
SampleSet: Normal
StackLeniency: 0.7
Mode: 1
LetterboxInBreaks: 0
WidescreenStoryboard: 0

[Editor]
Bookmarks: 1265,12236,23122,34179,45150,58779,91779,127436,160350,182293,183665,185036,186407,212465,234407,245379,266465
DistanceSpacing: 1
BeatDivisor: 4
GridSize: 32
TimelineZoom: 1.3

[Metadata]
Title:Honto da yo
TitleUnicode:ホントだよ
Artist:TrySail
ArtistUnicode:TrySail
Creator:Volta
Version:Muzukashii
Source:
Tags:麻倉 もも Momo Asakura 雨宮 天 Amamiya Sora 夏川 椎菜 Natsukawa Shiina コバルト Sail Canvas 谷口尚久 naohisa taniguchi jpop j-pop japanese cobalt
BeatmapID:2191652
BeatmapSetID:1046720

[Difficulty]
HPDrainRate:5
CircleSize:5
OverallDifficulty:5
ApproachRate:5
SliderMultiplier:1.4
SliderTickRate:1

[Events]
//Background and Video events
0,0,"__original_drawn_by_kawai__427c1810a74f795736bbc89fec682fad.jpg",0,100
//Break Periods
//Storyboard Layer 0 (Background)
//Storyboard Layer 1 (Fail)
//Storyboard Layer 2 (Pass)
//Storyboard Layer 3 (Foreground)
//Storyboard Layer 4 (Overlay)
//Storyboard Sound Samples

[TimingPoints]
1259,342.857142857143,4,1,0,80,1,0
58859,-100,4,1,0,90,0,1
80801,-100,4,1,0,80,0,0
83544,-100,4,1,0,90,0,1
91773,-100,4,1,0,80,0,0
127430,-100,4,1,0,90,0,1
149373,-100,4,1,0,80,0,0
152116,-100,4,1,0,90,0,1
160344,-100,4,1,0,80,0,0
212459,-100,4,1,0,90,0,1
220687,-100,4,1,0,80,0,0
223430,-100,4,1,0,90,0,1
256344,-100,4,1,0,80,0,0
259087,-100,4,1,0,90,0,1
261830,-100,4,1,0,80,0,0
264573,-100,4,1,0,90,0,1
266459,-100,4,1,0,80,0,0

[HitObjects]
249,125,1259,5,4,0:0:0:0:
181,94,1601,1,8,0:0:0:0:
197,114,1773,1,8,0:0:0:0:
197,114,1944,1,0,0:0:0:0:
197,114,2287,1,0,0:0:0:0:
197,114,2459,1,8,0:0:0:0:
286,116,2630,1,4,0:0:0:0:
286,116,3144,1,4,0:0:0:0:
277,80,3487,1,8,0:0:0:0:
286,116,3659,1,0,0:0:0:0:
277,80,3830,1,0,0:0:0:0:
296,88,4001,1,12,0:0:0:0:
156,149,4344,1,8,0:0:0:0:
254,95,4687,1,0,0:0:0:0:
158,183,4859,1,0,0:0:0:0:
218,121,5030,1,8,0:0:0:0:
254,95,5201,1,0,0:0:0:0:
218,121,5373,1,12,0:0:0:0:
218,121,5887,1,12,0:0:0:0:
291,117,6230,1,0,0:0:0:0:
291,117,6401,1,8,0:0:0:0:
291,117,6573,1,4,0:0:0:0:
170,130,7259,1,4,0:0:0:0:
194,114,7601,1,8,0:0:0:0:
194,114,7773,1,0,0:0:0:0:
259,103,7944,1,12,0:0:0:0:
238,89,8630,1,12,0:0:0:0:
373,112,8973,1,8,0:0:0:0:
259,85,9144,1,0,0:0:0:0:
261,85,9316,1,8,0:0:0:0:
261,85,9487,1,0,0:0:0:0:
93,127,9830,1,0,0:0:0:0:
400,201,10173,1,0,0:0:0:0:
400,201,10516,1,0,0:0:0:0:
93,134,10859,1,8,0:0:0:0:
93,134,11030,1,0,0:0:0:0:
93,134,11201,1,8,0:0:0:0:
93,134,11373,1,8,0:0:0:0:
181,123,11716,1,8,0:0:0:0:
292,116,11887,1,0,0:0:0:0:
314,75,12059,1,8,0:0:0:0:
86,165,12230,1,4,0:0:0:0:
105,170,12573,1,8,0:0:0:0:
105,170,12744,1,0,0:0:0:0:
105,170,12916,1,8,0:0:0:0:
105,170,13087,1,8,0:0:0:0:
164,138,13430,1,0,0:0:0:0:
164,138,13601,1,8,0:0:0:0:
200,136,13944,1,8,0:0:0:0:
200,136,14116,1,8,0:0:0:0:
324,156,14287,1,0,0:0:0:0:
406,198,14630,1,8,0:0:0:0:
147,136,14973,1,4,0:0:0:0:
151,68,15144,1,8,0:0:0:0:
154,156,15316,1,8,0:0:0:0:
154,156,15487,1,0,0:0:0:0:
154,156,15659,1,8,0:0:0:0:
235,90,15830,1,8,0:0:0:0:
154,156,16173,1,0,0:0:0:0:
154,156,16344,1,8,0:0:0:0:
154,156,16516,1,0,0:0:0:0:
154,156,16687,1,8,0:0:0:0:
154,156,16859,1,8,0:0:0:0:
235,90,17030,1,0,0:0:0:0:
154,156,17201,1,0,0:0:0:0:
131,148,17287,1,0,0:0:0:0:
154,156,17373,1,0,0:0:0:0:
154,156,17544,1,8,0:0:0:0:
209,88,18059,1,8,0:0:0:0:
209,88,18230,1,0,0:0:0:0:
212,102,18401,1,8,0:0:0:0:
212,102,18573,1,0,0:0:0:0:
131,136,18916,1,8,0:0:0:0:
131,136,19087,1,8,0:0:0:0:
131,136,19259,1,0,0:0:0:0:
131,136,19430,1,8,0:0:0:0:
131,136,19601,1,0,0:0:0:0:
238,125,19944,1,0,0:0:0:0:
238,125,20116,1,8,0:0:0:0:
238,125,20287,1,0,0:0:0:0:
131,136,20801,1,8,0:0:0:0:
131,136,20973,1,0,0:0:0:0:
131,136,21144,1,8,0:0:0:0:
131,136,21316,1,0,0:0:0:0:
271,139,21659,1,8,0:0:0:0:
271,139,21830,1,8,0:0:0:0:
203,123,22001,1,0,0:0:0:0:
203,123,22173,1,8,0:0:0:0:
279,147,22344,1,0,0:0:0:0:
243,135,22687,1,8,0:0:0:0:
304,101,22859,1,8,0:0:0:0:
336,84,22944,1,8,0:0:0:0:
304,101,23030,1,8,0:0:0:0:
182,152,23201,1,4,0:0:0:0:
243,135,23887,1,0,0:0:0:0:
243,135,24230,1,0,0:0:0:0:
243,135,24573,1,0,0:0:0:0:
195,147,24744,1,8,0:0:0:0:
243,135,24916,1,0,0:0:0:0:
243,135,25259,1,0,0:0:0:0:
269,103,25601,1,8,0:0:0:0:
354,59,25944,1,0,0:0:0:0:
251,129,26630,1,0,0:0:0:0:
251,129,26973,1,0,0:0:0:0:
179,128,27144,1,0,0:0:0:0:
251,129,27316,1,8,0:0:0:0:
356,199,27659,1,8,0:0:0:0:
322,166,27830,1,0,0:0:0:0:
339,122,28173,1,8,0:0:0:0:
339,122,28344,1,8,0:0:0:0:
307,124,28430,1,8,0:0:0:0:
274,134,28516,1,8,0:0:0:0:
242,140,28687,1,0,0:0:0:0:
358,64,29030,1,8,0:0:0:0:
237,95,29373,1,8,0:0:0:0:
285,117,29544,1,0,0:0:0:0:
135,172,29716,1,8,0:0:0:0:
182,136,30059,1,0,0:0:0:0:
182,136,30230,1,0,0:0:0:0:
182,136,30401,1,8,0:0:0:0:
220,87,30573,5,8,0:0:0:0:
220,87,30744,1,0,0:0:0:0:
220,87,31087,1,0,0:0:0:0:
109,143,31430,1,8,0:0:0:0:
93,154,31773,1,0,0:0:0:0:
147,128,31944,1,8,0:0:0:0:
93,154,32116,1,0,0:0:0:0:
93,154,32459,1,0,0:0:0:0:
146,128,32630,1,0,0:0:0:0:
93,154,32801,1,8,0:0:0:0:
93,154,33144,1,8,0:0:0:0:
93,154,33316,1,0,0:0:0:0:
336,167,33487,1,0,0:0:0:0:
336,167,33659,1,8,0:0:0:0:
336,167,33830,1,0,0:0:0:0:
265,162,34001,1,8,0:0:0:0:
215,159,34173,1,0,0:0:0:0:
212,157,34859,1,0,0:0:0:0:
121,71,35201,1,8,0:0:0:0:
210,155,35544,1,0,0:0:0:0:
250,104,35716,1,8,0:0:0:0:
111,62,35887,1,0,0:0:0:0:
209,154,36230,1,0,0:0:0:0:
111,62,36573,1,8,0:0:0:0:
207,152,36916,1,0,0:0:0:0:
208,153,37601,1,0,0:0:0:0:
115,55,37944,1,0,0:0:0:0:
115,110,38116,5,0,0:0:0:0:
181,167,38287,1,8,0:0:0:0:
181,167,38630,1,8,0:0:0:0:
186,98,38801,1,0,0:0:0:0:
196,144,39144,1,8,0:0:0:0:
181,167,39316,1,8,0:0:0:0:
207,164,39401,1,8,0:0:0:0:
133,147,39487,1,8,0:0:0:0:
255,122,39659,1,0,0:0:0:0:
358,64,40001,1,8,0:0:0:0:
237,95,40344,1,8,0:0:0:0:
285,117,40516,1,0,0:0:0:0:
135,172,40687,1,8,0:0:0:0:
182,136,41030,1,0,0:0:0:0:
182,136,41201,1,0,0:0:0:0:
182,136,41373,1,8,0:0:0:0:
220,87,41544,5,8,0:0:0:0:
220,87,41716,1,0,0:0:0:0:
220,87,42059,1,0,0:0:0:0:
220,87,42230,1,0,0:0:0:0:
109,143,42401,1,8,0:0:0:0:
257,144,42744,1,8,0:0:0:0:
186,144,42916,1,0,0:0:0:0:
252,144,43087,1,8,0:0:0:0:
110,144,43430,1,8,0:0:0:0:
175,144,43601,1,8,0:0:0:0:
232,144,43773,1,0,0:0:0:0:
153,144,43944,1,0,0:0:0:0:
109,98,44116,1,8,0:0:0:0:
147,138,44287,1,0,0:0:0:0:
216,172,44630,1,8,0:0:0:0:
216,172,44801,1,8,0:0:0:0:
147,138,44887,1,8,0:0:0:0:
216,172,44973,1,8,0:0:0:0:
250,172,45144,1,0,0:0:0:0:
117,16,45659,1,0,0:0:0:0:
158,64,45830,1,0,0:0:0:0:
279,122,46173,1,8,0:0:0:0:
138,112,46516,1,0,0:0:0:0:
330,125,47030,1,0,0:0:0:0:
273,121,47201,1,0,0:0:0:0:
139,108,47544,1,8,0:0:0:0:
264,120,47887,1,0,0:0:0:0:
73,102,48401,1,0,0:0:0:0:
124,106,48573,1,0,0:0:0:0:
255,119,48916,1,8,0:0:0:0:
202,114,49259,1,0,0:0:0:0:
202,114,49773,1,0,0:0:0:0:
202,114,49944,1,0,0:0:0:0:
82,157,50287,1,8,0:0:0:0:
221,140,50630,1,4,0:0:0:0:
195,123,51659,1,8,0:0:0:0:
151,134,52001,5,8,0:0:0:0:
134,145,52087,1,8,0:0:0:0:
134,145,52173,1,8,0:0:0:0:
134,145,52344,1,8,0:0:0:0:
247,66,52516,1,0,0:0:0:0:
216,97,52859,1,0,0:0:0:0:
146,104,53030,1,8,0:0:0:0:
176,144,53201,1,0,0:0:0:0:
192,102,53287,1,0,0:0:0:0:
98,140,53373,1,0,0:0:0:0:
156,119,53544,1,8,0:0:0:0:
216,97,53716,1,8,0:0:0:0:
216,97,54059,1,8,0:0:0:0:
216,97,54230,1,0,0:0:0:0:
216,97,54573,1,8,0:0:0:0:
163,142,54916,1,8,0:0:0:0:
163,142,55087,1,0,0:0:0:0:
147,76,55259,1,0,0:0:0:0:
93,142,55430,1,8,0:0:0:0:
93,142,55601,1,8,0:0:0:0:
93,142,55944,1,12,0:0:0:0:
406,290,56801,1,0,0:0:0:0:
366,242,56973,1,8,0:0:0:0:
287,233,57144,1,0,0:0:0:0:
228,205,57316,1,8,0:0:0:0:
111,150,57659,1,0,0:0:0:0:
111,150,57830,1,8,0:0:0:0:
111,150,58001,1,8,0:0:0:0:
111,150,58344,1,8,0:0:0:0:
176,127,58516,1,8,0:0:0:0:
145,137,58601,1,8,0:0:0:0:
145,137,58687,1,8,0:0:0:0:
145,137,58859,1,4,0:0:0:0:
263,144,59201,1,8,0:0:0:0:
203,139,59373,1,8,0:0:0:0:
138,148,59544,1,0,0:0:0:0:
114,152,59630,1,0,0:0:0:0:
114,152,59716,1,0,0:0:0:0:
114,152,59887,1,8,0:0:0:0:
114,152,60059,1,0,0:0:0:0:
114,152,60230,1,8,0:0:0:0:
114,152,60401,1,0,0:0:0:0:
105,216,60573,1,8,0:0:0:0:
114,154,60744,1,8,0:0:0:0:
233,130,61087,1,0,0:0:0:0:
192,122,61259,1,8,0:0:0:0:
192,122,61430,1,0,0:0:0:0:
431,168,61601,1,8,0:0:0:0:
299,166,61944,1,8,0:0:0:0:
176,120,62287,1,8,0:0:0:0:
143,105,62373,1,8,0:0:0:0:
143,105,62459,1,8,0:0:0:0:
143,105,62630,1,8,0:0:0:0:
113,170,62801,1,0,0:0:0:0:
126,140,62973,1,8,0:0:0:0:
126,140,63144,1,0,0:0:0:0:
126,140,63316,1,0,0:0:0:0:
126,140,63487,1,8,0:0:0:0:
126,140,63830,1,8,0:0:0:0:
126,140,64001,1,8,0:0:0:0:
83,143,64173,1,4,0:0:0:0:
83,143,64859,1,4,0:0:0:0:
126,140,65201,1,0,0:0:0:0:
126,140,65373,1,0,0:0:0:0:
83,143,65544,1,12,0:0:0:0:
83,143,66230,1,12,0:0:0:0:
149,120,66573,1,8,0:0:0:0:
84,138,66744,1,0,0:0:0:0:
24,165,66916,1,8,0:0:0:0:
50,153,67087,1,0,0:0:0:0:
183,135,67430,1,0,0:0:0:0:
53,155,67773,1,0,0:0:0:0:
179,135,68116,1,0,0:0:0:0:
112,138,68287,1,8,0:0:0:0:
43,160,68459,1,0,0:0:0:0:
100,160,68630,1,8,0:0:0:0:
100,160,68801,1,8,0:0:0:0:
166,150,68973,1,0,0:0:0:0:
226,136,69316,1,0,0:0:0:0:
228,107,69401,1,0,0:0:0:0:
304,123,69487,1,0,0:0:0:0:
166,150,69659,1,0,0:0:0:0:
94,152,69830,1,12,0:0:0:0:
263,144,70173,1,8,0:0:0:0:
138,148,70516,1,0,0:0:0:0:
114,152,70601,1,0,0:0:0:0:
114,152,70687,1,0,0:0:0:0:
114,152,70859,1,8,0:0:0:0:
114,152,71030,1,0,0:0:0:0:
114,152,71201,1,8,0:0:0:0:
114,152,71373,1,0,0:0:0:0:
105,216,71544,1,8,0:0:0:0:
114,154,71716,1,8,0:0:0:0:
233,130,72059,1,0,0:0:0:0:
192,122,72230,1,8,0:0:0:0:
192,122,72401,1,0,0:0:0:0:
431,168,72573,1,8,0:0:0:0:
299,166,72916,1,8,0:0:0:0:
244,152,73087,1,0,0:0:0:0:
176,120,73259,1,8,0:0:0:0:
143,105,73344,1,8,0:0:0:0:
143,105,73430,1,8,0:0:0:0:
143,105,73601,1,0,0:0:0:0:
113,170,73773,1,8,0:0:0:0:
126,140,73944,1,8,0:0:0:0:
126,140,74116,1,0,0:0:0:0:
126,140,74287,1,8,0:0:0:0:
126,140,74459,1,0,0:0:0:0:
126,140,74801,1,8,0:0:0:0:
126,140,74973,1,8,0:0:0:0:
83,143,75144,1,4,0:0:0:0:
83,143,75830,1,4,0:0:0:0:
126,140,76173,1,0,0:0:0:0:
126,140,76344,1,0,0:0:0:0:
83,143,76516,1,12,0:0:0:0:
83,143,77201,1,12,0:0:0:0:
149,120,77544,1,8,0:0:0:0:
84,138,77716,1,0,0:0:0:0:
24,165,77887,1,8,0:0:0:0:
50,153,78059,1,0,0:0:0:0:
183,135,78401,1,0,0:0:0:0:
53,155,78744,1,0,0:0:0:0:
185,164,79087,1,0,0:0:0:0:
48,155,79430,1,8,0:0:0:0:
116,159,79601,1,0,0:0:0:0:
195,159,79773,1,8,0:0:0:0:
195,159,79944,1,8,0:0:0:0:
177,162,80287,1,8,0:0:0:0:
250,172,80459,1,0,0:0:0:0:
187,142,80630,1,8,0:0:0:0:
250,172,80801,1,4,0:0:0:0:
105,170,81144,1,8,0:0:0:0:
105,170,81316,1,0,0:0:0:0:
105,170,81487,1,8,0:0:0:0:
105,170,81659,1,8,0:0:0:0:
164,138,82001,1,0,0:0:0:0:
164,138,82173,1,8,0:0:0:0:
200,136,82516,1,8,0:0:0:0:
200,136,82687,1,8,0:0:0:0:
324,156,82859,1,0,0:0:0:0:
406,198,83201,1,8,0:0:0:0:
147,136,83544,1,4,0:0:0:0:
151,68,83716,1,8,0:0:0:0:
154,156,83887,1,8,0:0:0:0:
154,156,84059,1,0,0:0:0:0:
154,156,84230,1,8,0:0:0:0:
235,90,84401,1,8,0:0:0:0:
154,156,84744,1,0,0:0:0:0:
154,156,84916,1,8,0:0:0:0:
154,156,85087,1,0,0:0:0:0:
154,156,85259,1,8,0:0:0:0:
154,156,85430,1,8,0:0:0:0:
235,90,85601,1,0,0:0:0:0:
154,156,85773,1,0,0:0:0:0:
131,148,85859,1,0,0:0:0:0:
154,156,85944,1,0,0:0:0:0:
154,156,86116,1,8,0:0:0:0:
209,88,86630,1,8,0:0:0:0:
209,88,86801,1,0,0:0:0:0:
212,102,86973,1,8,0:0:0:0:
212,102,87144,1,0,0:0:0:0:
131,136,87487,1,8,0:0:0:0:
131,136,87659,1,8,0:0:0:0:
131,136,87830,1,0,0:0:0:0:
131,136,88001,1,8,0:0:0:0:
131,136,88173,1,0,0:0:0:0:
238,125,88516,1,0,0:0:0:0:
238,125,88687,1,8,0:0:0:0:
238,125,88859,1,0,0:0:0:0:
131,136,89373,1,8,0:0:0:0:
131,136,89544,1,0,0:0:0:0:
131,136,89716,1,8,0:0:0:0:
131,136,89887,1,0,0:0:0:0:
271,139,90230,5,8,0:0:0:0:
271,139,90401,1,8,0:0:0:0:
203,123,90573,1,0,0:0:0:0:
203,123,90744,1,8,0:0:0:0:
279,147,90916,1,0,0:0:0:0:
228,123,91259,5,0,0:0:0:0:
228,123,91430,1,8,0:0:0:0:
228,123,91516,1,8,0:0:0:0:
228,123,91601,1,8,0:0:0:0:
295,126,91773,1,4,0:0:0:0:
11,91,92459,1,0,0:0:0:0:
274,123,93144,1,8,0:0:0:0:
91,102,93659,1,8,0:0:0:0:
439,141,94516,1,0,0:0:0:0:
187,12,95201,1,0,0:0:0:0:
433,137,95887,1,8,0:0:0:0:
258,48,96401,1,8,0:0:0:0:
150,116,96744,1,8,0:0:0:0:
150,116,96916,1,8,0:0:0:0:
147,49,97001,1,8,0:0:0:0:
151,125,97087,1,8,0:0:0:0:
149,85,97259,1,0,0:0:0:0:
358,64,97601,1,8,0:0:0:0:
237,95,97944,1,8,0:0:0:0:
311,88,98116,1,0,0:0:0:0:
135,172,98287,1,8,0:0:0:0:
182,136,98630,1,0,0:0:0:0:
182,136,98801,1,0,0:0:0:0:
182,136,98973,1,8,0:0:0:0:
252,110,99144,1,8,0:0:0:0:
220,87,99316,1,0,0:0:0:0:
220,87,99659,1,0,0:0:0:0:
109,143,100001,1,8,0:0:0:0:
93,154,100344,1,0,0:0:0:0:
147,128,100516,1,8,0:0:0:0:
93,154,100687,1,0,0:0:0:0:
93,154,101030,1,0,0:0:0:0:
146,128,101201,1,0,0:0:0:0:
93,154,101373,1,8,0:0:0:0:
93,154,101716,1,8,0:0:0:0:
93,154,101887,1,0,0:0:0:0:
336,167,102059,1,8,0:0:0:0:
336,167,102230,1,8,0:0:0:0:
336,167,102401,1,0,0:0:0:0:
265,162,102573,1,8,0:0:0:0:
215,159,102744,1,0,0:0:0:0:
176,163,103430,1,0,0:0:0:0:
196,148,104116,1,8,0:0:0:0:
196,148,104630,1,8,0:0:0:0:
189,199,105487,1,0,0:0:0:0:
189,199,106173,1,0,0:0:0:0:
189,199,106859,1,8,0:0:0:0:
189,199,107373,1,8,0:0:0:0:
170,126,107716,1,8,0:0:0:0:
102,142,107887,1,8,0:0:0:0:
67,151,107973,1,8,0:0:0:0:
33,158,108059,1,8,0:0:0:0:
67,151,108230,1,0,0:0:0:0:
358,64,108573,1,8,0:0:0:0:
237,95,108916,1,8,0:0:0:0:
285,117,109087,1,0,0:0:0:0:
135,172,109259,1,8,0:0:0:0:
182,136,109601,1,0,0:0:0:0:
182,136,109773,1,0,0:0:0:0:
182,136,109944,1,8,0:0:0:0:
220,87,110116,5,8,0:0:0:0:
220,87,110287,1,0,0:0:0:0:
220,87,110630,1,0,0:0:0:0:
109,143,110973,1,8,0:0:0:0:
257,144,111316,1,8,0:0:0:0:
186,144,111487,1,0,0:0:0:0:
252,144,111659,1,8,0:0:0:0:
110,144,112001,1,8,0:0:0:0:
175,144,112173,1,8,0:0:0:0:
232,144,112344,1,0,0:0:0:0:
153,144,112516,1,0,0:0:0:0:
109,98,112687,1,8,0:0:0:0:
147,138,112859,1,0,0:0:0:0:
216,172,113201,1,8,0:0:0:0:
216,172,113373,1,8,0:0:0:0:
216,172,113459,1,8,0:0:0:0:
216,172,113544,1,8,0:0:0:0:
250,172,113716,1,0,0:0:0:0:
117,16,114230,1,0,0:0:0:0:
158,64,114401,1,0,0:0:0:0:
279,122,114744,1,8,0:0:0:0:
138,112,115087,1,0,0:0:0:0:
330,125,115601,1,0,0:0:0:0:
273,121,115773,1,0,0:0:0:0:
139,108,116116,1,8,0:0:0:0:
264,120,116459,1,0,0:0:0:0:
73,102,116973,1,0,0:0:0:0:
124,106,117144,1,0,0:0:0:0:
255,119,117487,1,8,0:0:0:0:
202,114,117830,1,0,0:0:0:0:
202,114,118344,1,0,0:0:0:0:
202,114,118516,1,0,0:0:0:0:
82,157,118859,1,8,0:0:0:0:
221,140,119201,1,4,0:0:0:0:
45,145,120230,1,8,0:0:0:0:
201,65,120573,5,8,0:0:0:0:
190,98,120659,1,8,0:0:0:0:
180,128,120744,1,8,0:0:0:0:
180,128,120916,1,0,0:0:0:0:
111,144,121087,1,0,0:0:0:0:
233,86,121430,1,0,0:0:0:0:
149,125,121601,1,8,0:0:0:0:
149,125,121687,1,8,0:0:0:0:
149,125,121773,1,8,0:0:0:0:
111,144,121944,1,0,0:0:0:0:
183,164,122116,1,8,0:0:0:0:
244,182,122287,1,8,0:0:0:0:
216,97,122630,1,8,0:0:0:0:
216,97,122801,1,0,0:0:0:0:
216,97,123144,1,8,0:0:0:0:
163,142,123487,1,8,0:0:0:0:
163,142,123659,1,0,0:0:0:0:
93,142,123830,1,0,0:0:0:0:
93,142,124001,1,8,0:0:0:0:
93,142,124173,1,8,0:0:0:0:
93,142,124516,1,12,0:0:0:0:
406,290,125373,1,0,0:0:0:0:
366,242,125544,1,8,0:0:0:0:
287,233,125716,1,0,0:0:0:0:
228,205,125887,1,8,0:0:0:0:
111,150,126230,1,0,0:0:0:0:
111,150,126401,1,8,0:0:0:0:
111,150,126573,1,8,0:0:0:0:
232,117,126916,1,8,0:0:0:0:
172,133,127087,1,8,0:0:0:0:
145,137,127430,1,4,0:0:0:0:
263,144,127773,1,8,0:0:0:0:
203,139,127944,1,8,0:0:0:0:
138,148,128116,1,0,0:0:0:0:
114,152,128201,1,0,0:0:0:0:
114,152,128287,1,0,0:0:0:0:
114,152,128459,1,8,0:0:0:0:
114,152,128630,1,0,0:0:0:0:
114,152,128801,1,8,0:0:0:0:
114,152,128973,1,0,0:0:0:0:
105,216,129144,1,8,0:0:0:0:
114,154,129316,1,8,0:0:0:0:
233,130,129659,1,0,0:0:0:0:
192,122,129830,1,8,0:0:0:0:
192,122,130001,1,0,0:0:0:0:
431,168,130173,1,8,0:0:0:0:
299,166,130516,1,8,0:0:0:0:
176,120,130859,1,8,0:0:0:0:
143,105,130944,1,8,0:0:0:0:
143,105,131030,1,8,0:0:0:0:
143,105,131201,1,8,0:0:0:0:
113,170,131373,1,0,0:0:0:0:
126,140,131544,1,8,0:0:0:0:
126,140,131716,1,0,0:0:0:0:
126,140,131887,1,0,0:0:0:0:
126,140,132059,1,8,0:0:0:0:
126,140,132401,1,8,0:0:0:0:
126,140,132573,1,8,0:0:0:0:
83,143,132744,1,4,0:0:0:0:
83,143,133430,1,4,0:0:0:0:
126,140,133773,1,0,0:0:0:0:
126,140,133944,1,0,0:0:0:0:
83,143,134116,1,12,0:0:0:0:
83,143,134801,1,12,0:0:0:0:
149,120,135144,1,8,0:0:0:0:
84,138,135316,1,0,0:0:0:0:
24,165,135487,1,8,0:0:0:0:
50,153,135659,1,0,0:0:0:0:
183,135,136001,1,0,0:0:0:0:
53,155,136344,1,0,0:0:0:0:
179,135,136687,1,0,0:0:0:0:
112,138,136859,1,8,0:0:0:0:
43,160,137030,1,0,0:0:0:0:
100,160,137201,1,8,0:0:0:0:
100,160,137373,1,8,0:0:0:0:
166,150,137544,1,0,0:0:0:0:
226,136,137887,1,0,0:0:0:0:
228,107,137973,1,0,0:0:0:0:
304,123,138059,1,0,0:0:0:0:
166,150,138230,1,0,0:0:0:0:
94,152,138401,1,12,0:0:0:0:
263,144,138744,1,8,0:0:0:0:
203,139,138916,1,8,0:0:0:0:
138,148,139087,1,0,0:0:0:0:
114,152,139173,1,0,0:0:0:0:
114,152,139259,1,0,0:0:0:0:
114,152,139430,1,8,0:0:0:0:
114,152,139601,1,0,0:0:0:0:
114,152,139773,1,8,0:0:0:0:
114,152,139944,1,0,0:0:0:0:
105,216,140116,1,0,0:0:0:0:
114,154,140287,1,8,0:0:0:0:
233,130,140630,1,0,0:0:0:0:
192,122,140801,1,8,0:0:0:0:
192,122,140973,1,0,0:0:0:0:
431,168,141144,1,8,0:0:0:0:
299,166,141487,1,8,0:0:0:0:
244,152,141659,1,0,0:0:0:0:
176,120,141830,1,8,0:0:0:0:
143,105,141916,1,8,0:0:0:0:
143,105,142001,1,8,0:0:0:0:
143,105,142173,1,0,0:0:0:0:
113,170,142344,1,0,0:0:0:0:
126,140,142516,1,8,0:0:0:0:
126,140,142687,1,0,0:0:0:0:
126,140,142859,1,8,0:0:0:0:
126,140,143030,1,8,0:0:0:0:
126,140,143373,1,8,0:0:0:0:
126,140,143544,1,0,0:0:0:0:
83,143,143716,1,4,0:0:0:0:
83,143,144401,1,4,0:0:0:0:
126,140,144744,1,0,0:0:0:0:
126,140,144916,1,0,0:0:0:0:
83,143,145087,1,12,0:0:0:0:
83,143,145773,1,12,0:0:0:0:
149,120,146116,1,8,0:0:0:0:
84,138,146287,1,0,0:0:0:0:
24,165,146459,1,8,0:0:0:0:
50,153,146630,1,0,0:0:0:0:
183,135,146973,1,0,0:0:0:0:
53,155,147316,1,0,0:0:0:0:
185,164,147659,1,0,0:0:0:0:
48,155,148001,1,8,0:0:0:0:
116,159,148173,1,0,0:0:0:0:
195,159,148344,1,8,0:0:0:0:
195,159,148516,1,8,0:0:0:0:
177,162,148859,1,8,0:0:0:0:
250,172,149030,1,0,0:0:0:0:
187,142,149201,1,8,0:0:0:0:
250,172,149373,1,4,0:0:0:0:
105,170,149716,1,8,0:0:0:0:
105,170,149887,1,0,0:0:0:0:
105,170,150059,1,8,0:0:0:0:
105,170,150230,1,8,0:0:0:0:
164,138,150573,1,0,0:0:0:0:
164,138,150744,1,8,0:0:0:0:
200,136,151087,1,8,0:0:0:0:
200,136,151259,1,8,0:0:0:0:
324,156,151430,1,0,0:0:0:0:
406,198,151773,1,8,0:0:0:0:
147,136,152116,1,4,0:0:0:0:
151,68,152287,1,8,0:0:0:0:
154,156,152459,1,8,0:0:0:0:
154,156,152630,1,0,0:0:0:0:
154,156,152801,1,8,0:0:0:0:
235,90,152973,1,8,0:0:0:0:
154,156,153316,1,0,0:0:0:0:
154,156,153487,1,8,0:0:0:0:
154,156,153659,1,0,0:0:0:0:
154,156,153830,1,8,0:0:0:0:
154,156,154001,1,8,0:0:0:0:
235,90,154173,1,0,0:0:0:0:
154,156,154344,1,0,0:0:0:0:
131,148,154430,1,0,0:0:0:0:
154,156,154516,1,0,0:0:0:0:
154,156,154687,1,8,0:0:0:0:
209,88,155201,1,8,0:0:0:0:
209,88,155373,1,0,0:0:0:0:
212,102,155544,1,8,0:0:0:0:
212,102,155716,1,0,0:0:0:0:
131,136,156059,1,8,0:0:0:0:
131,136,156230,1,8,0:0:0:0:
131,136,156401,1,0,0:0:0:0:
131,136,156573,1,8,0:0:0:0:
131,136,156744,1,0,0:0:0:0:
238,125,157087,1,0,0:0:0:0:
238,125,157259,1,8,0:0:0:0:
238,125,157430,1,0,0:0:0:0:
131,136,157944,1,8,0:0:0:0:
131,136,158116,1,0,0:0:0:0:
131,136,158287,1,8,0:0:0:0:
131,136,158459,1,0,0:0:0:0:
271,139,158801,5,8,0:0:0:0:
271,139,158973,1,8,0:0:0:0:
203,123,159144,1,0,0:0:0:0:
203,123,159316,1,8,0:0:0:0:
279,147,159487,1,0,0:0:0:0:
228,123,159830,5,0,0:0:0:0:
228,123,160001,1,8,0:0:0:0:
228,123,160087,1,8,0:0:0:0:
228,123,160173,1,8,0:0:0:0:
295,126,160344,1,4,0:0:0:0:
409,59,160859,1,0,0:0:0:0:
346,78,161030,1,0,0:0:0:0:
212,120,161373,1,8,0:0:0:0:
342,80,161716,1,0,0:0:0:0:
167,216,162230,1,0,0:0:0:0:
225,170,162401,1,0,0:0:0:0:
266,142,162573,1,8,0:0:0:0:
371,73,162916,1,8,0:0:0:0:
304,116,163087,1,0,0:0:0:0:
93,129,163601,1,0,0:0:0:0:
157,126,163773,1,0,0:0:0:0:
17,132,164116,1,8,0:0:0:0:
147,126,164459,1,0,0:0:0:0:
337,93,164973,1,0,0:0:0:0:
285,102,165144,1,0,0:0:0:0:
228,112,165316,1,8,0:0:0:0:
228,112,165659,1,8,0:0:0:0:
153,125,165830,1,0,0:0:0:0:
195,87,166344,1,0,0:0:0:0:
195,87,166516,1,0,0:0:0:0:
195,87,166859,1,8,0:0:0:0:
229,85,167201,1,0,0:0:0:0:
117,261,167716,1,0,0:0:0:0:
152,205,167887,1,0,0:0:0:0:
229,85,168059,1,8,0:0:0:0:
229,85,168401,1,8,0:0:0:0:
191,144,168573,1,0,0:0:0:0:
109,139,169087,1,0,0:0:0:0:
109,139,169259,1,0,0:0:0:0:
230,91,169601,1,8,0:0:0:0:
79,151,169944,1,0,0:0:0:0:
280,144,170459,1,0,0:0:0:0:
216,146,170630,1,0,0:0:0:0:
153,148,170801,1,8,0:0:0:0:
220,118,171144,1,8,0:0:0:0:
264,169,171316,1,0,0:0:0:0:
152,76,171659,1,0,0:0:0:0:
212,91,171830,1,8,0:0:0:0:
262,168,172001,1,0,0:0:0:0:
153,74,172344,1,8,0:0:0:0:
220,136,172687,1,0,0:0:0:0:
153,134,172859,1,0,0:0:0:0:
153,134,173030,1,8,0:0:0:0:
153,134,173201,1,0,0:0:0:0:
234,144,173544,1,8,0:0:0:0:
234,144,173887,1,8,0:0:0:0:
234,144,174059,1,0,0:0:0:0:
122,229,174401,1,8,0:0:0:0:
133,99,174744,1,0,0:0:0:0:
154,151,174916,1,0,0:0:0:0:
183,145,175087,1,8,0:0:0:0:
292,76,175430,1,8,0:0:0:0:
237,110,175601,1,0,0:0:0:0:
186,144,175773,1,0,0:0:0:0:
225,118,175944,1,8,0:0:0:0:
319,102,176287,1,8,0:0:0:0:
180,125,176630,1,8,0:0:0:0:
225,118,176801,1,0,0:0:0:0:
169,99,176973,1,0,0:0:0:0:
218,148,177144,1,8,0:0:0:0:
63,121,177316,1,0,0:0:0:0:
171,33,177487,1,8,0:0:0:0:
67,118,177830,1,8,0:0:0:0:
175,101,178001,1,8,0:0:0:0:
171,33,178173,1,0,0:0:0:0:
140,74,178344,1,0,0:0:0:0:
171,33,178516,1,8,0:0:0:0:
171,33,178687,1,0,0:0:0:0:
197,105,179030,1,8,0:0:0:0:
197,105,179201,1,8,0:0:0:0:
197,105,179373,1,8,0:0:0:0:
258,80,179544,1,0,0:0:0:0:
258,80,179630,1,0,0:0:0:0:
258,80,179716,1,0,0:0:0:0:
258,80,179887,1,8,0:0:0:0:
258,80,180059,1,0,0:0:0:0:
258,80,180230,1,8,0:0:0:0:
258,80,180401,1,8,0:0:0:0:
258,80,180573,1,0,0:0:0:0:
233,156,180659,1,0,0:0:0:0:
258,80,180744,1,0,0:0:0:0:
258,80,180916,1,8,0:0:0:0:
65,187,181430,1,0,0:0:0:0:
321,219,181601,1,0,0:0:0:0:
216,151,181944,1,8,0:0:0:0:
300,178,182287,1,0,0:0:0:0:
186,147,182630,1,8,0:0:0:0:
500,194,182801,1,0,0:0:0:0:
430,188,182973,1,0,0:0:0:0:
362,182,183144,1,8,0:0:0:0:
309,172,183316,1,8,0:0:0:0:
278,167,183401,1,8,0:0:0:0:
246,161,183487,1,8,0:0:0:0:
215,156,183659,1,8,0:0:0:0:
230,136,185030,5,0,0:0:0:0:
230,136,185287,1,8,0:0:0:0:
366,76,185373,1,8,0:0:0:0:
335,89,185459,1,8,0:0:0:0:
221,85,185716,1,8,0:0:0:0:
148,85,185887,1,0,0:0:0:0:
221,85,185973,1,0,0:0:0:0:
131,149,186059,1,0,0:0:0:0:
221,85,186230,1,0,0:0:0:0:
221,85,186401,1,0,0:0:0:0:
308,186,186744,1,8,0:0:0:0:
131,149,186916,1,0,0:0:0:0:
183,109,187087,1,8,0:0:0:0:
183,109,187259,1,0,0:0:0:0:
242,145,187430,1,8,0:0:0:0:
170,142,187773,1,8,0:0:0:0:
239,146,187944,1,0,0:0:0:0:
273,149,188030,1,0,0:0:0:0:
273,149,188116,1,0,0:0:0:0:
273,149,188287,1,8,0:0:0:0:
202,136,188801,1,8,0:0:0:0:
141,106,189144,1,0,0:0:0:0:
277,127,189487,1,8,0:0:0:0:
203,115,189659,1,0,0:0:0:0:
203,115,189830,1,8,0:0:0:0:
329,167,190173,1,8,0:0:0:0:
205,94,190344,1,8,0:0:0:0:
149,121,190516,1,0,0:0:0:0:
241,131,190687,1,8,0:0:0:0:
241,131,190859,1,0,0:0:0:0:
241,131,190944,1,0,0:0:0:0:
257,143,191030,1,0,0:0:0:0:
257,143,191201,1,8,0:0:0:0:
173,144,191544,1,0,0:0:0:0:
163,18,191887,1,0,0:0:0:0:
221,117,192230,1,8,0:0:0:0:
173,153,192401,1,0,0:0:0:0:
178,103,192573,1,8,0:0:0:0:
178,103,192744,1,0,0:0:0:0:
178,103,192916,1,8,0:0:0:0:
145,115,193259,1,8,0:0:0:0:
83,148,193430,1,0,0:0:0:0:
182,99,193516,1,0,0:0:0:0:
145,115,193601,1,0,0:0:0:0:
145,115,193773,1,8,0:0:0:0:
204,129,194287,1,8,0:0:0:0:
204,129,194630,1,0,0:0:0:0:
82,77,194973,1,8,0:0:0:0:
125,97,195144,1,0,0:0:0:0:
137,164,195316,1,8,0:0:0:0:
152,96,195659,1,8,0:0:0:0:
142,162,195830,1,8,0:0:0:0:
142,162,196001,1,0,0:0:0:0:
109,149,196173,1,8,0:0:0:0:
142,162,196344,1,8,0:0:0:0:
170,141,196430,1,8,0:0:0:0:
142,162,196516,5,8,0:0:0:0:
142,162,196687,1,0,0:0:0:0:
81,160,196859,1,0,0:0:0:0:
81,160,197030,1,8,0:0:0:0:
181,145,197373,5,4,0:0:0:0:
297,88,197716,1,8,0:0:0:0:
240,101,197887,1,0,0:0:0:0:
175,148,198059,1,8,0:0:0:0:
298,88,198401,1,8,0:0:0:0:
243,114,198573,1,8,0:0:0:0:
243,114,198744,1,0,0:0:0:0:
112,144,198830,1,0,0:0:0:0:
177,129,198916,1,0,0:0:0:0:
243,114,199087,1,8,0:0:0:0:
112,144,199430,1,8,0:0:0:0:
112,144,199601,1,8,0:0:0:0:
112,144,199773,1,0,0:0:0:0:
112,144,199944,1,8,0:0:0:0:
314,132,200459,5,8,0:0:0:0:
193,139,200801,1,8,0:0:0:0:
252,136,200973,1,8,0:0:0:0:
258,135,201144,1,0,0:0:0:0:
242,137,201316,1,8,0:0:0:0:
17,149,201401,5,8,0:0:0:0:
52,147,201487,1,8,0:0:0:0:
62,127,201659,1,8,0:0:0:0:
111,103,201830,1,8,0:0:0:0:
157,97,202173,1,8,0:0:0:0:
157,97,202344,1,0,0:0:0:0:
226,108,202516,1,8,0:0:0:0:
226,108,202687,1,0,0:0:0:0:
191,113,202773,1,0,0:0:0:0:
226,108,202859,1,0,0:0:0:0:
62,164,203373,1,0,0:0:0:0:
62,164,203544,1,0,0:0:0:0:
173,106,203887,1,8,0:0:0:0:
62,164,204059,1,0,0:0:0:0:
62,164,204230,1,8,0:0:0:0:
62,164,204744,1,0,0:0:0:0:
117,113,204916,1,0,0:0:0:0:
88,139,205087,1,8,0:0:0:0:
154,107,205259,1,0,0:0:0:0:
180,93,205344,1,0,0:0:0:0:
154,107,205430,1,0,0:0:0:0:
154,107,205601,1,0,0:0:0:0:
154,107,205944,1,0,0:0:0:0:
154,107,206287,1,0,0:0:0:0:
308,186,206459,5,8,0:0:0:0:
308,186,206544,1,8,0:0:0:0:
286,160,206630,1,8,0:0:0:0:
215,146,206801,1,0,0:0:0:0:
268,139,206973,1,12,0:0:0:0:
195,147,207144,1,12,0:0:0:0:
195,147,207316,1,12,0:0:0:0:
195,147,207487,1,12,0:0:0:0:
209,106,207830,1,12,0:0:0:0:
152,69,208001,1,12,0:0:0:0:
152,69,208173,1,12,0:0:0:0:
256,192,208344,12,0,209716,0:0:0:0:
185,156,210401,5,8,0:0:0:0:
185,156,211087,1,8,0:0:0:0:
254,92,211773,1,8,0:0:0:0:
145,137,212459,1,4,0:0:0:0:
263,144,212801,1,8,0:0:0:0:
203,139,212973,1,8,0:0:0:0:
138,148,213144,1,0,0:0:0:0:
114,152,213230,1,0,0:0:0:0:
114,152,213316,1,0,0:0:0:0:
114,152,213487,1,8,0:0:0:0:
114,152,213659,1,0,0:0:0:0:
114,152,213830,1,8,0:0:0:0:
114,152,214001,1,0,0:0:0:0:
105,216,214173,1,8,0:0:0:0:
114,154,214344,1,8,0:0:0:0:
233,130,214687,1,0,0:0:0:0:
192,122,214859,1,8,0:0:0:0:
192,122,215030,1,0,0:0:0:0:
431,168,215201,1,8,0:0:0:0:
299,166,215544,1,8,0:0:0:0:
176,120,215887,1,8,0:0:0:0:
143,105,215973,1,8,0:0:0:0:
143,105,216059,1,8,0:0:0:0:
143,105,216230,1,8,0:0:0:0:
113,170,216401,1,0,0:0:0:0:
126,140,216573,1,8,0:0:0:0:
126,140,216744,1,0,0:0:0:0:
126,140,216916,1,0,0:0:0:0:
126,140,217087,1,8,0:0:0:0:
126,140,217430,1,8,0:0:0:0:
126,140,217601,1,8,0:0:0:0:
83,143,217773,1,4,0:0:0:0:
83,143,218459,1,4,0:0:0:0:
126,140,218801,1,0,0:0:0:0:
126,140,218973,1,0,0:0:0:0:
83,143,219144,1,12,0:0:0:0:
83,143,219830,1,12,0:0:0:0:
149,120,220173,1,8,0:0:0:0:
84,138,220344,1,0,0:0:0:0:
24,165,220516,1,8,0:0:0:0:
50,153,220687,1,4,0:0:0:0:
73,159,222059,5,4,0:0:0:0:
73,159,222230,1,4,0:0:0:0:
73,159,222401,1,12,0:0:0:0:
73,159,222573,1,12,0:0:0:0:
217,137,222916,1,8,0:0:0:0:
217,137,223087,1,0,0:0:0:0:
217,137,223173,1,0,0:0:0:0:
217,137,223259,1,0,0:0:0:0:
145,137,223430,1,12,0:0:0:0:
263,144,223773,1,8,0:0:0:0:
138,148,224116,1,0,0:0:0:0:
114,152,224201,1,0,0:0:0:0:
114,152,224287,1,0,0:0:0:0:
114,152,224459,1,8,0:0:0:0:
114,152,224630,1,0,0:0:0:0:
114,152,224801,1,8,0:0:0:0:
114,152,224973,1,0,0:0:0:0:
105,216,225144,1,8,0:0:0:0:
114,154,225316,1,8,0:0:0:0:
233,130,225659,1,0,0:0:0:0:
192,122,225830,1,8,0:0:0:0:
192,122,226001,1,0,0:0:0:0:
431,168,226173,1,8,0:0:0:0:
299,166,226516,1,8,0:0:0:0:
244,152,226687,1,0,0:0:0:0:
176,120,226859,1,8,0:0:0:0:
143,105,226944,1,8,0:0:0:0:
143,105,227030,1,8,0:0:0:0:
143,105,227201,1,0,0:0:0:0:
113,170,227373,1,8,0:0:0:0:
126,140,227544,1,8,0:0:0:0:
126,140,227716,1,0,0:0:0:0:
126,140,227887,1,8,0:0:0:0:
126,140,228059,1,0,0:0:0:0:
126,140,228401,1,8,0:0:0:0:
126,140,228573,1,8,0:0:0:0:
83,143,228744,1,4,0:0:0:0:
83,143,229430,1,4,0:0:0:0:
126,140,229773,1,0,0:0:0:0:
126,140,229944,1,0,0:0:0:0:
83,143,230116,1,12,0:0:0:0:
83,143,230801,1,12,0:0:0:0:
149,120,231144,1,8,0:0:0:0:
84,138,231316,1,0,0:0:0:0:
24,165,231487,1,8,0:0:0:0:
50,153,231659,1,0,0:0:0:0:
183,135,232001,5,0,0:0:0:0:
53,155,232344,1,0,0:0:0:0:
185,164,232687,1,0,0:0:0:0:
223,158,233030,5,0,0:0:0:0:
223,158,233201,1,8,0:0:0:0:
223,158,233373,1,8,0:0:0:0:
223,158,233544,1,0,0:0:0:0:
223,158,233887,1,0,0:0:0:0:
223,158,234059,1,8,0:0:0:0:
238,126,234144,1,8,0:0:0:0:
171,145,234230,1,8,0:0:0:0:
145,137,234401,1,4,0:0:0:0:
263,144,234744,1,8,0:0:0:0:
203,139,234916,1,8,0:0:0:0:
138,148,235087,1,0,0:0:0:0:
114,152,235173,1,0,0:0:0:0:
114,152,235259,1,0,0:0:0:0:
114,152,235430,1,8,0:0:0:0:
114,152,235601,1,0,0:0:0:0:
114,152,235773,1,8,0:0:0:0:
114,152,235944,1,0,0:0:0:0:
105,216,236116,1,8,0:0:0:0:
114,154,236287,1,8,0:0:0:0:
233,130,236630,1,0,0:0:0:0:
192,122,236801,1,8,0:0:0:0:
192,122,236973,1,0,0:0:0:0:
431,168,237144,1,8,0:0:0:0:
299,166,237487,1,8,0:0:0:0:
176,120,237830,1,8,0:0:0:0:
143,105,237916,1,8,0:0:0:0:
143,105,238001,1,8,0:0:0:0:
143,105,238173,1,8,0:0:0:0:
113,170,238344,1,0,0:0:0:0:
126,140,238516,1,8,0:0:0:0:
126,140,238687,1,0,0:0:0:0:
126,140,238859,1,0,0:0:0:0:
126,140,239030,1,8,0:0:0:0:
126,140,239373,1,8,0:0:0:0:
126,140,239544,1,8,0:0:0:0:
83,143,239716,1,4,0:0:0:0:
83,143,240401,1,4,0:0:0:0:
126,140,240744,1,0,0:0:0:0:
126,140,240916,1,0,0:0:0:0:
83,143,241087,1,12,0:0:0:0:
83,143,241773,1,12,0:0:0:0:
149,120,242116,1,8,0:0:0:0:
84,138,242287,1,0,0:0:0:0:
24,165,242459,1,8,0:0:0:0:
50,153,242630,1,0,0:0:0:0:
183,135,242973,1,0,0:0:0:0:
53,155,243316,1,0,0:0:0:0:
179,135,243659,1,0,0:0:0:0:
112,138,243830,1,8,0:0:0:0:
43,160,244001,1,0,0:0:0:0:
100,160,244173,1,8,0:0:0:0:
100,160,244344,1,8,0:0:0:0:
166,150,244516,1,0,0:0:0:0:
226,136,244859,1,0,0:0:0:0:
228,107,244944,1,0,0:0:0:0:
304,123,245030,1,0,0:0:0:0:
166,150,245201,1,0,0:0:0:0:
94,152,245373,1,12,0:0:0:0:
263,144,245716,1,8,0:0:0:0:
203,139,245887,1,8,0:0:0:0:
138,148,246059,1,0,0:0:0:0:
114,152,246144,1,0,0:0:0:0:
114,152,246230,1,0,0:0:0:0:
114,152,246401,1,8,0:0:0:0:
114,152,246573,1,0,0:0:0:0:
114,152,246744,1,8,0:0:0:0:
114,152,246916,1,0,0:0:0:0:
105,216,247087,1,0,0:0:0:0:
114,154,247259,1,8,0:0:0:0:
233,130,247601,1,0,0:0:0:0:
192,122,247773,1,8,0:0:0:0:
192,122,247944,1,0,0:0:0:0:
431,168,248116,1,8,0:0:0:0:
299,166,248459,1,8,0:0:0:0:
244,152,248630,1,0,0:0:0:0:
176,120,248801,1,8,0:0:0:0:
143,105,248887,1,8,0:0:0:0:
143,105,248973,1,8,0:0:0:0:
143,105,249144,1,0,0:0:0:0:
113,170,249316,1,0,0:0:0:0:
126,140,249487,1,8,0:0:0:0:
126,140,249659,1,0,0:0:0:0:
126,140,249830,1,8,0:0:0:0:
126,140,250001,1,8,0:0:0:0:
126,140,250344,1,8,0:0:0:0:
126,140,250516,1,0,0:0:0:0:
83,143,250687,1,4,0:0:0:0:
83,143,251373,1,4,0:0:0:0:
126,140,251716,1,0,0:0:0:0:
126,140,251887,1,0,0:0:0:0:
83,143,252059,1,12,0:0:0:0:
83,143,252744,1,12,0:0:0:0:
149,120,253087,1,8,0:0:0:0:
84,138,253259,1,0,0:0:0:0:
24,165,253430,1,8,0:0:0:0:
50,153,253601,1,0,0:0:0:0:
183,135,253944,1,0,0:0:0:0:
53,155,254287,1,0,0:0:0:0:
185,164,254630,1,0,0:0:0:0:
48,155,254973,1,8,0:0:0:0:
116,159,255144,1,0,0:0:0:0:
195,159,255316,1,8,0:0:0:0:
195,159,255487,1,8,0:0:0:0:
177,162,255830,1,8,0:0:0:0:
250,172,256001,1,0,0:0:0:0:
187,142,256173,1,8,0:0:0:0:
250,172,256344,1,4,0:0:0:0:
105,170,256687,1,8,0:0:0:0:
105,170,256859,1,0,0:0:0:0:
105,170,257030,1,8,0:0:0:0:
105,170,257201,1,8,0:0:0:0:
164,138,257544,1,0,0:0:0:0:
164,138,257716,1,8,0:0:0:0:
200,136,258059,1,8,0:0:0:0:
200,136,258230,1,8,0:0:0:0:
324,156,258401,1,0,0:0:0:0:
406,198,258744,1,8,0:0:0:0:
147,136,259087,1,4,0:0:0:0:
151,68,259259,1,8,0:0:0:0:
154,156,259430,1,8,0:0:0:0:
154,156,259601,1,0,0:0:0:0:
154,156,259773,1,8,0:0:0:0:
235,90,259944,1,8,0:0:0:0:
154,156,260287,1,0,0:0:0:0:
154,156,260459,1,8,0:0:0:0:
154,156,260630,1,0,0:0:0:0:
154,156,260801,1,8,0:0:0:0:
154,156,260973,5,8,0:0:0:0:
235,90,261144,1,0,0:0:0:0:
154,156,261316,1,0,0:0:0:0:
131,148,261401,1,0,0:0:0:0:
154,156,261487,1,0,0:0:0:0:
154,156,261659,1,8,0:0:0:0:
90,180,261830,1,0,0:0:0:0:
214,68,262344,5,0,0:0:0:0:
259,142,262516,1,0,0:0:0:0:
130,121,262859,1,8,0:0:0:0:
61,125,263030,5,0,0:0:0:0:
131,136,263201,1,0,0:0:0:0:
131,136,263716,1,0,0:0:0:0:
259,142,263887,1,8,0:0:0:0:
130,95,264059,1,0,0:0:0:0:
11,126,264230,1,8,0:0:0:0:
120,154,264573,5,12,0:0:0:0:
175,127,264744,1,12,0:0:0:0:
120,154,264916,1,12,0:0:0:0:
131,136,265087,1,12,0:0:0:0:
120,154,265430,1,12,0:0:0:0:
120,154,265601,1,12,0:0:0:0:
278,147,265773,1,12,0:0:0:0:
120,154,266116,1,12,0:0:0:0:
120,154,266287,1,12,0:0:0:0:
189,161,266459,1,12,0:0:0:0:
