osu file format v14

[General]
AudioFilename: audio.mp3
AudioLeadIn: 0
PreviewTime: 126836
Countdown: 0
SampleSet: Normal
StackLeniency: 0.7
Mode: 1
LetterboxInBreaks: 0
WidescreenStoryboard: 0

[Editor]
Bookmarks: 1265,12236,23122,34179,45150,58779,91779,127436,160350,182293,183665,185036,186407,212465,234407,245379,266465
DistanceSpacing: 1
BeatDivisor: 2
GridSize: 32
TimelineZoom: 0.9

[Metadata]
Title:Honto da yo
TitleUnicode:ホントだよ
Artist:TrySail
ArtistUnicode:TrySail
Creator:Volta
Version:Kantan
Source:
Tags:麻倉 もも Momo Asakura 雨宮 天 Amamiya Sora 夏川 椎菜 Natsukawa Shiina コバルト Sail Canvas 谷口尚久 naohisa taniguchi jpop j-pop japanese cobalt
BeatmapID:2203324
BeatmapSetID:1046720

[Difficulty]
HPDrainRate:7
CircleSize:5
OverallDifficulty:3
ApproachRate:5
SliderMultiplier:1.4
SliderTickRate:1

[Events]
//Background and Video events
0,0,"__original_drawn_by_kawai__427c1810a74f795736bbc89fec682fad.jpg",0,100
//Break Periods
//Storyboard Layer 0 (Background)
//Storyboard Layer 1 (Fail)
//Storyboard Layer 2 (Pass)
//Storyboard Layer 3 (Foreground)
//Storyboard Layer 4 (Overlay)
//Storyboard Sound Samples

[TimingPoints]
1259,342.857142857143,4,1,0,80,1,0
58859,-100,4,1,0,90,0,1
80801,-100,4,1,0,80,0,0
83544,-100,4,1,0,90,0,1
91773,-100,4,1,0,80,0,0
127430,-100,4,1,0,90,0,1
149373,-100,4,1,0,80,0,0
152116,-100,4,1,0,90,0,1
160344,-100,4,1,0,80,0,0
212459,-100,4,1,0,90,0,1
220687,-100,4,1,0,80,0,0
223430,-100,4,1,0,90,0,1
256344,-100,4,1,0,80,0,0
259087,-100,4,1,0,80,0,1
261830,-100,4,1,0,80,0,0
264573,-100,4,1,0,80,0,1
266459,-100,4,1,0,80,0,0

[HitObjects]
347,137,1259,5,4,0:0:0:0:
347,137,2630,1,4,0:0:0:0:
347,137,3144,1,4,0:0:0:0:
370,139,4001,1,12,0:0:0:0:
370,139,5373,1,12,0:0:0:0:
370,139,5887,1,12,0:0:0:0:
370,139,6573,1,4,0:0:0:0:
370,139,7259,1,4,0:0:0:0:
370,139,7944,1,12,0:0:0:0:
370,139,8630,1,12,0:0:0:0:
346,124,9487,1,4,0:0:0:0:
346,124,10859,1,8,0:0:0:0:
346,124,11201,1,8,0:0:0:0:
346,124,11544,1,8,0:0:0:0:
346,124,12230,1,0,0:0:0:0:
145,125,13259,1,8,0:0:0:0:
346,124,13601,1,0,0:0:0:0:
46,143,14630,1,8,0:0:0:0:
346,124,14973,1,0,0:0:0:0:
346,124,15659,1,8,0:0:0:0:
346,124,16344,1,0,0:0:0:0:
346,124,16687,1,0,0:0:0:0:
228,121,17030,1,0,0:0:0:0:
29,116,17544,1,8,0:0:0:0:
367,116,18401,1,8,0:0:0:0:
98,116,19087,1,0,0:0:0:0:
361,116,19773,1,0,0:0:0:0:
244,116,20116,1,8,0:0:0:0:
119,116,20459,1,0,0:0:0:0:
380,116,21144,1,8,0:0:0:0:
133,141,21830,1,0,0:0:0:0:
133,141,22516,1,8,0:0:0:0:
133,141,22859,1,8,0:0:0:0:
133,141,23201,1,0,0:0:0:0:
215,153,24573,1,0,0:0:0:0:
99,111,25259,1,0,0:0:0:0:
133,127,25944,1,0,0:0:0:0:
133,127,27316,1,8,0:0:0:0:
133,127,28001,1,8,0:0:0:0:
213,42,28344,1,8,0:0:0:0:
133,127,28687,1,0,0:0:0:0:
133,127,29373,1,0,0:0:0:0:
133,127,30059,1,8,0:0:0:0:
133,127,30744,1,8,0:0:0:0:
133,127,31087,1,0,0:0:0:0:
133,127,31430,1,8,0:0:0:0:
133,127,32116,1,0,0:0:0:0:
133,127,32801,1,8,0:0:0:0:
133,127,33144,1,8,0:0:0:0:
133,127,33487,1,8,0:0:0:0:
133,127,34173,1,0,0:0:0:0:
93,119,35201,1,8,0:0:0:0:
71,139,35544,1,0,0:0:0:0:
71,139,36230,1,8,0:0:0:0:
71,139,36916,1,0,0:0:0:0:
133,108,37944,1,8,0:0:0:0:
71,139,38287,1,0,0:0:0:0:
71,139,38973,1,8,0:0:0:0:
191,128,39316,1,8,0:0:0:0:
71,139,39659,1,0,0:0:0:0:
71,139,40344,1,0,0:0:0:0:
71,139,41030,1,0,0:0:0:0:
71,139,41373,1,8,0:0:0:0:
71,139,41716,1,0,0:0:0:0:
71,139,42401,1,8,0:0:0:0:
71,139,43087,1,8,0:0:0:0:
71,139,43773,1,8,0:0:0:0:
71,139,44116,1,8,0:0:0:0:
71,139,44459,1,0,0:0:0:0:
71,139,45144,1,8,0:0:0:0:
0,143,46173,1,8,0:0:0:0:
71,139,46516,1,0,0:0:0:0:
458,225,47544,1,8,0:0:0:0:
71,139,47887,1,8,0:0:0:0:
71,139,48916,1,8,0:0:0:0:
71,139,49259,1,0,0:0:0:0:
478,224,50287,1,8,0:0:0:0:
71,139,50630,1,8,0:0:0:0:
113,98,52001,1,8,0:0:0:0:
113,98,52687,1,0,0:0:0:0:
113,98,53030,1,8,0:0:0:0:
118,228,53716,1,8,0:0:0:0:
31,136,54059,1,0,0:0:0:0:
113,98,54401,1,8,0:0:0:0:
113,98,55087,1,0,0:0:0:0:
113,98,55430,1,0,0:0:0:0:
113,98,55944,1,8,0:0:0:0:
113,98,57316,1,0,0:0:0:0:
113,98,58001,1,8,0:0:0:0:
49,141,58516,1,8,0:0:0:0:
113,98,58859,1,4,0:0:0:0:
358,61,59544,1,0,0:0:0:0:
108,98,60230,1,8,0:0:0:0:
218,83,60573,1,8,0:0:0:0:
97,99,60916,1,0,0:0:0:0:
97,99,61259,1,0,0:0:0:0:
352,67,61601,1,8,0:0:0:0:
93,99,62287,1,0,0:0:0:0:
350,68,62973,1,8,0:0:0:0:
231,82,63316,1,0,0:0:0:0:
116,96,63659,1,8,0:0:0:0:
314,50,64173,1,4,0:0:0:0:
60,102,64859,1,4,0:0:0:0:
322,48,65544,1,12,0:0:0:0:
73,100,66230,1,12,0:0:0:0:
388,35,67087,1,4,0:0:0:0:
177,79,68459,1,8,0:0:0:0:
131,205,68801,1,8,0:0:0:0:
56,154,69144,1,0,0:0:0:0:
152,136,69830,1,12,0:0:0:0:
152,136,70516,1,0,0:0:0:0:
152,136,71201,1,0,0:0:0:0:
152,136,71544,1,8,0:0:0:0:
152,136,71887,1,0,0:0:0:0:
29,124,72230,5,0,0:0:0:0:
152,136,72573,1,8,0:0:0:0:
152,136,73259,1,0,0:0:0:0:
152,136,73944,1,8,0:0:0:0:
152,136,74287,1,8,0:0:0:0:
152,136,74630,1,0,0:0:0:0:
152,136,75144,1,4,0:0:0:0:
227,49,75830,1,4,0:0:0:0:
152,136,76516,1,12,0:0:0:0:
227,49,77201,1,12,0:0:0:0:
152,136,78059,1,0,0:0:0:0:
152,136,79430,1,8,0:0:0:0:
158,112,79773,1,8,0:0:0:0:
45,174,80116,1,8,0:0:0:0:
158,112,80801,1,0,0:0:0:0:
130,123,81830,1,8,0:0:0:0:
346,124,82173,1,0,0:0:0:0:
130,123,83201,1,8,0:0:0:0:
346,124,83544,1,0,0:0:0:0:
346,124,84230,1,8,0:0:0:0:
346,124,84916,1,0,0:0:0:0:
346,124,85259,1,0,0:0:0:0:
228,121,85601,1,0,0:0:0:0:
29,116,86116,1,8,0:0:0:0:
367,116,86973,1,8,0:0:0:0:
98,116,87659,1,0,0:0:0:0:
361,116,88344,1,0,0:0:0:0:
244,116,88687,1,8,0:0:0:0:
119,116,89030,1,0,0:0:0:0:
380,116,89716,1,8,0:0:0:0:
133,141,90401,1,0,0:0:0:0:
133,141,91087,1,8,0:0:0:0:
133,141,91430,1,8,0:0:0:0:
133,141,91773,1,0,0:0:0:0:
133,141,93144,1,8,0:0:0:0:
151,134,94516,1,0,0:0:0:0:
151,134,95887,1,8,0:0:0:0:
151,134,96573,1,8,0:0:0:0:
151,134,96916,1,8,0:0:0:0:
151,134,97259,1,0,0:0:0:0:
151,134,97944,1,0,0:0:0:0:
151,134,98630,1,8,0:0:0:0:
151,134,98973,1,8,0:0:0:0:
151,134,99316,1,8,0:0:0:0:
151,134,100001,1,0,0:0:0:0:
151,134,100687,1,0,0:0:0:0:
151,134,101373,1,8,0:0:0:0:
151,134,101716,1,0,0:0:0:0:
151,134,102059,1,8,0:0:0:0:
151,134,102744,1,0,0:0:0:0:
206,135,104116,1,8,0:0:0:0:
206,135,105487,1,0,0:0:0:0:
206,135,106859,1,8,0:0:0:0:
206,135,107544,1,8,0:0:0:0:
206,135,107887,1,8,0:0:0:0:
206,135,108230,1,0,0:0:0:0:
71,144,108916,1,0,0:0:0:0:
71,144,109601,1,8,0:0:0:0:
71,144,109944,1,0,0:0:0:0:
71,144,110287,1,8,0:0:0:0:
71,144,110973,1,0,0:0:0:0:
71,144,111659,1,8,0:0:0:0:
71,144,112344,1,0,0:0:0:0:
71,144,112687,1,8,0:0:0:0:
71,144,113030,1,0,0:0:0:0:
71,144,113716,1,8,0:0:0:0:
486,86,114744,1,8,0:0:0:0:
18,145,115087,1,0,0:0:0:0:
426,123,116116,1,8,0:0:0:0:
65,141,116459,1,8,0:0:0:0:
480,206,117487,1,8,0:0:0:0:
41,141,117830,1,0,0:0:0:0:
446,232,118859,1,8,0:0:0:0:
41,141,119201,1,8,0:0:0:0:
41,141,120573,1,8,0:0:0:0:
41,141,121259,1,0,0:0:0:0:
41,141,121601,1,8,0:0:0:0:
41,141,122287,1,8,0:0:0:0:
166,125,122630,1,0,0:0:0:0:
41,141,122973,1,8,0:0:0:0:
153,78,123659,1,0,0:0:0:0:
79,120,124001,1,0,0:0:0:0:
79,120,124516,1,8,0:0:0:0:
79,120,125887,1,0,0:0:0:0:
79,120,126573,1,8,0:0:0:0:
229,240,127087,1,8,0:0:0:0:
79,120,127430,1,4,0:0:0:0:
358,61,128116,1,0,0:0:0:0:
108,98,128801,1,8,0:0:0:0:
218,83,129144,1,8,0:0:0:0:
97,99,129487,1,0,0:0:0:0:
203,161,129830,1,0,0:0:0:0:
352,67,130173,1,8,0:0:0:0:
93,99,130859,1,0,0:0:0:0:
350,68,131544,1,8,0:0:0:0:
231,82,131887,1,0,0:0:0:0:
116,96,132230,1,8,0:0:0:0:
314,50,132744,1,4,0:0:0:0:
60,102,133430,1,4,0:0:0:0:
322,48,134116,1,12,0:0:0:0:
73,100,134801,1,12,0:0:0:0:
388,35,135659,1,4,0:0:0:0:
177,79,137030,1,8,0:0:0:0:
73,126,137373,1,8,0:0:0:0:
177,79,137716,1,0,0:0:0:0:
152,136,138401,1,12,0:0:0:0:
152,136,139087,1,0,0:0:0:0:
152,136,139773,1,0,0:0:0:0:
152,136,140116,1,0,0:0:0:0:
152,136,140459,1,8,0:0:0:0:
21,87,140801,5,0,0:0:0:0:
152,136,141144,1,8,0:0:0:0:
152,136,141830,1,0,0:0:0:0:
152,136,142516,1,8,0:0:0:0:
152,136,142859,1,8,0:0:0:0:
152,136,143201,1,0,0:0:0:0:
152,136,143716,1,4,0:0:0:0:
227,49,144401,1,4,0:0:0:0:
152,136,145087,1,12,0:0:0:0:
227,49,145773,1,12,0:0:0:0:
152,136,146630,1,0,0:0:0:0:
152,136,148001,1,8,0:0:0:0:
158,112,148344,1,8,0:0:0:0:
35,149,148687,1,8,0:0:0:0:
158,112,149373,1,0,0:0:0:0:
117,62,150401,1,8,0:0:0:0:
346,124,150744,1,0,0:0:0:0:
130,58,151773,1,8,0:0:0:0:
346,124,152116,1,0,0:0:0:0:
346,124,152801,1,8,0:0:0:0:
346,124,153487,1,0,0:0:0:0:
346,124,153830,1,0,0:0:0:0:
228,121,154173,1,0,0:0:0:0:
29,116,154687,1,8,0:0:0:0:
367,116,155544,1,8,0:0:0:0:
98,116,156230,1,0,0:0:0:0:
361,116,156916,1,0,0:0:0:0:
244,116,157259,1,8,0:0:0:0:
119,116,157601,1,0,0:0:0:0:
380,116,158287,1,8,0:0:0:0:
133,141,158973,1,0,0:0:0:0:
133,141,159659,1,8,0:0:0:0:
133,141,160001,1,8,0:0:0:0:
133,141,160344,1,0,0:0:0:0:
87,143,161716,1,0,0:0:0:0:
87,143,162401,1,8,0:0:0:0:
87,143,163087,1,0,0:0:0:0:
109,137,164459,1,0,0:0:0:0:
109,137,165144,1,8,0:0:0:0:
197,51,165830,1,0,0:0:0:0:
109,137,167201,1,0,0:0:0:0:
109,137,167887,1,8,0:0:0:0:
109,137,168573,1,0,0:0:0:0:
120,116,169944,1,0,0:0:0:0:
120,116,170630,1,8,0:0:0:0:
120,116,171316,1,0,0:0:0:0:
219,24,172344,1,8,0:0:0:0:
120,116,172687,1,0,0:0:0:0:
244,162,173373,1,8,0:0:0:0:
120,116,174059,1,0,0:0:0:0:
78,360,175087,1,8,0:0:0:0:
121,109,175430,1,0,0:0:0:0:
102,220,176116,1,8,0:0:0:0:
103,128,176801,1,0,0:0:0:0:
103,128,177487,1,0,0:0:0:0:
103,128,177830,1,0,0:0:0:0:
120,116,178173,1,8,0:0:0:0:
232,98,178859,1,8,0:0:0:0:
114,154,179201,1,8,0:0:0:0:
120,116,179544,1,0,0:0:0:0:
51,129,179887,1,0,0:0:0:0:
120,116,180230,1,0,0:0:0:0:
120,116,180916,1,8,0:0:0:0:
256,192,181259,12,8,183659,0:0:0:0:
120,116,185030,5,0,0:0:0:0:
120,116,185716,1,8,0:0:0:0:
44,116,186059,1,0,0:0:0:0:
156,76,186401,1,0,0:0:0:0:
43,158,187087,1,0,0:0:0:0:
43,158,187773,1,8,0:0:0:0:
43,158,189144,1,0,0:0:0:0:
43,158,189830,1,0,0:0:0:0:
43,158,190516,1,8,0:0:0:0:
43,158,190859,1,8,0:0:0:0:
43,158,191201,1,0,0:0:0:0:
63,136,191887,1,8,0:0:0:0:
457,167,192916,1,8,0:0:0:0:
63,136,193259,1,0,0:0:0:0:
63,136,193944,1,8,0:0:0:0:
63,136,194630,1,0,0:0:0:0:
63,136,194973,1,0,0:0:0:0:
63,136,195316,1,0,0:0:0:0:
63,136,196001,1,8,0:0:0:0:
66,111,196687,1,0,0:0:0:0:
318,111,197373,1,8,0:0:0:0:
15,138,198401,1,8,0:0:0:0:
193,126,198744,1,0,0:0:0:0:
155,132,199430,1,0,0:0:0:0:
155,132,200116,1,8,0:0:0:0:
39,159,200801,1,8,0:0:0:0:
39,159,201144,1,0,0:0:0:0:
39,159,201487,1,8,0:0:0:0:
39,159,202173,1,8,0:0:0:0:
39,159,202859,1,0,0:0:0:0:
98,126,204230,1,0,0:0:0:0:
98,126,204916,1,8,0:0:0:0:
98,126,205601,1,0,0:0:0:0:
98,126,205944,1,0,0:0:0:0:
98,126,206287,1,0,0:0:0:0:
98,126,206973,1,8,0:0:0:0:
60,150,207487,1,8,0:0:0:0:
149,70,208173,1,8,0:0:0:0:
256,192,208344,12,0,209716,0:0:0:0:
161,131,212459,5,4,0:0:0:0:
358,61,213144,1,0,0:0:0:0:
108,98,213830,1,8,0:0:0:0:
218,83,214173,1,8,0:0:0:0:
97,99,214516,1,0,0:0:0:0:
64,220,214859,1,0,0:0:0:0:
352,67,215201,1,8,0:0:0:0:
93,99,215887,1,0,0:0:0:0:
350,68,216573,1,8,0:0:0:0:
231,82,216916,1,0,0:0:0:0:
116,96,217259,1,8,0:0:0:0:
314,50,217773,1,4,0:0:0:0:
60,102,218459,1,4,0:0:0:0:
322,48,219144,1,12,0:0:0:0:
73,100,219830,1,12,0:0:0:0:
388,35,220687,1,4,0:0:0:0:
168,121,222059,1,0,0:0:0:0:
168,121,222401,1,0,0:0:0:0:
43,136,222744,1,0,0:0:0:0:
168,121,223430,1,12,0:0:0:0:
152,136,224116,1,0,0:0:0:0:
152,136,224801,1,0,0:0:0:0:
152,136,225144,1,8,0:0:0:0:
152,136,225487,1,0,0:0:0:0:
260,64,225830,1,0,0:0:0:0:
152,136,226173,1,8,0:0:0:0:
152,136,226859,1,0,0:0:0:0:
152,136,227544,1,8,0:0:0:0:
152,136,227887,1,8,0:0:0:0:
152,136,228230,1,0,0:0:0:0:
152,136,228744,1,4,0:0:0:0:
227,49,229430,1,4,0:0:0:0:
152,136,230116,1,12,0:0:0:0:
227,49,230801,1,12,0:0:0:0:
152,136,231659,1,0,0:0:0:0:
117,150,233030,1,0,0:0:0:0:
196,51,233373,1,0,0:0:0:0:
283,61,233716,1,8,0:0:0:0:
79,120,234401,1,4,0:0:0:0:
358,61,235087,1,0,0:0:0:0:
108,98,235773,1,8,0:0:0:0:
218,83,236116,1,8,0:0:0:0:
97,99,236459,1,0,0:0:0:0:
233,126,236801,1,0,0:0:0:0:
352,67,237144,1,8,0:0:0:0:
93,99,237830,1,0,0:0:0:0:
350,68,238516,1,8,0:0:0:0:
231,82,238859,1,0,0:0:0:0:
116,96,239201,1,8,0:0:0:0:
314,50,239716,1,4,0:0:0:0:
60,102,240401,1,4,0:0:0:0:
322,48,241087,1,12,0:0:0:0:
73,100,241773,1,12,0:0:0:0:
388,35,242630,1,4,0:0:0:0:
177,79,244001,1,8,0:0:0:0:
263,177,244344,1,8,0:0:0:0:
177,79,244687,1,0,0:0:0:0:
152,136,245373,1,12,0:0:0:0:
152,136,246059,1,0,0:0:0:0:
152,136,246744,1,0,0:0:0:0:
152,136,247087,1,0,0:0:0:0:
152,136,247430,1,8,0:0:0:0:
274,114,247773,1,0,0:0:0:0:
152,136,248116,1,8,0:0:0:0:
152,136,248801,1,0,0:0:0:0:
152,140,249487,1,8,0:0:0:0:
279,83,249830,1,8,0:0:0:0:
152,136,250173,1,0,0:0:0:0:
152,136,250687,1,4,0:0:0:0:
227,49,251373,1,4,0:0:0:0:
152,136,252059,1,12,0:0:0:0:
227,49,252744,1,12,0:0:0:0:
152,136,253601,1,0,0:0:0:0:
152,136,254973,1,8,0:0:0:0:
157,88,255316,1,8,0:0:0:0:
157,88,255659,1,8,0:0:0:0:
158,112,256344,1,0,0:0:0:0:
136,113,257373,1,8,0:0:0:0:
346,124,257716,1,0,0:0:0:0:
136,113,258744,1,8,0:0:0:0:
346,124,259087,1,0,0:0:0:0:
346,124,259773,1,8,0:0:0:0:
346,124,260459,1,0,0:0:0:0:
346,124,260801,1,0,0:0:0:0:
228,121,261144,1,0,0:0:0:0:
29,116,261659,1,8,0:0:0:0:
128,128,262859,1,8,0:0:0:0:
39,86,263201,1,0,0:0:0:0:
39,86,263887,1,8,0:0:0:0:
165,120,264230,1,0,0:0:0:0:
46,151,264573,1,12,0:0:0:0:
206,20,265087,1,12,0:0:0:0:
46,151,265773,1,12,0:0:0:0:
46,151,266459,1,12,0:0:0:0:
