osu file format v14

[General]
AudioFilename: audio.mp3
AudioLeadIn: 0
PreviewTime: 126836
Countdown: 0
SampleSet: Normal
StackLeniency: 0.7
Mode: 1
LetterboxInBreaks: 0
WidescreenStoryboard: 0

[Editor]
Bookmarks: 1265,12236,23122,34179,45150,58779,91779,127436,160350,182293,183665,185036,186407,212465,234407,245379,266465
DistanceSpacing: 1
BeatDivisor: 2
GridSize: 32
TimelineZoom: 1

[Metadata]
Title:Honto da yo
TitleUnicode:ホントだよ
Artist:TrySail
ArtistUnicode:TrySail
Creator:Volta
Version:Futsuu
Source:
Tags:麻倉 もも Momo Asakura 雨宮 天 Amamiya Sora 夏川 椎菜 Natsukawa Shiina コバルト Sail Canvas 谷口尚久 naohisa taniguchi jpop j-pop japanese cobalt
BeatmapID:2203427
BeatmapSetID:1046720

[Difficulty]
HPDrainRate:6
CircleSize:5
OverallDifficulty:4
ApproachRate:5
SliderMultiplier:1.4
SliderTickRate:1

[Events]
//Background and Video events
0,0,"__original_drawn_by_kawai__427c1810a74f795736bbc89fec682fad.jpg",0,100
//Break Periods
//Storyboard Layer 0 (Background)
//Storyboard Layer 1 (Fail)
//Storyboard Layer 2 (Pass)
//Storyboard Layer 3 (Foreground)
//Storyboard Layer 4 (Overlay)
//Storyboard Sound Samples

[TimingPoints]
1259,342.857142857143,4,1,0,80,1,0
58859,-100,4,1,0,90,0,1
80801,-100,4,1,0,80,0,0
83544,-100,4,1,0,90,0,1
91773,-100,4,1,0,80,0,0
127430,-100,4,1,0,90,0,1
149373,-100,4,1,0,80,0,0
152116,-100,4,1,0,90,0,1
160344,-100,4,1,0,80,0,0
212459,-100,4,1,0,90,0,1
220687,-100,4,1,0,80,0,0
223430,-100,4,1,0,90,0,1
256344,-100,4,1,0,80,0,0
259087,-100,4,1,0,90,0,1
261830,-100,4,1,0,80,0,0
264573,-100,4,1,0,90,0,1
266459,-100,4,1,0,80,0,0

[HitObjects]
347,137,1259,5,4,0:0:0:0:
114,31,1944,1,0,0:0:0:0:
41,151,2287,1,8,0:0:0:0:
347,137,2630,1,4,0:0:0:0:
347,137,3144,1,4,0:0:0:0:
370,139,4001,1,12,0:0:0:0:
224,59,5030,1,8,0:0:0:0:
370,139,5373,1,12,0:0:0:0:
370,139,5887,1,12,0:0:0:0:
370,139,6573,1,4,0:0:0:0:
370,139,7259,1,4,0:0:0:0:
370,139,7944,1,12,0:0:0:0:
370,139,8630,1,12,0:0:0:0:
222,138,8973,1,8,0:0:0:0:
200,47,9144,1,8,0:0:0:0:
346,124,9487,1,0,0:0:0:0:
90,108,10173,1,0,0:0:0:0:
210,94,10516,1,0,0:0:0:0:
346,124,10859,1,8,0:0:0:0:
346,124,11201,1,8,0:0:0:0:
287,113,11373,1,0,0:0:0:0:
346,124,11716,1,8,0:0:0:0:
226,66,12059,1,8,0:0:0:0:
346,124,12230,1,0,0:0:0:0:
150,133,12744,1,0,0:0:0:0:
66,95,12916,1,8,0:0:0:0:
346,124,13601,1,0,0:0:0:0:
157,121,14116,1,0,0:0:0:0:
85,61,14287,1,8,0:0:0:0:
46,143,14630,1,8,0:0:0:0:
346,124,14973,1,0,0:0:0:0:
207,138,15316,1,0,0:0:0:0:
139,145,15487,1,0,0:0:0:0:
346,124,15659,1,8,0:0:0:0:
197,138,16001,1,8,0:0:0:0:
346,124,16344,1,0,0:0:0:0:
346,124,16687,1,0,0:0:0:0:
293,100,16859,1,8,0:0:0:0:
155,140,17201,1,0,0:0:0:0:
29,116,17544,1,8,0:0:0:0:
151,80,17887,1,0,0:0:0:0:
20,150,18059,1,0,0:0:0:0:
367,116,18401,1,8,0:0:0:0:
98,116,19087,1,0,0:0:0:0:
78,125,19430,1,8,0:0:0:0:
361,116,19773,1,0,0:0:0:0:
78,125,19944,1,0,0:0:0:0:
244,116,20116,1,8,0:0:0:0:
119,116,20459,1,0,0:0:0:0:
36,214,20801,1,0,0:0:0:0:
380,116,21144,1,8,0:0:0:0:
133,141,21659,1,0,0:0:0:0:
133,141,21830,1,0,0:0:0:0:
50,33,22173,1,8,0:0:0:0:
133,141,22516,1,8,0:0:0:0:
164,116,22687,1,0,0:0:0:0:
133,141,22859,1,8,0:0:0:0:
133,141,23201,1,0,0:0:0:0:
45,122,23887,1,0,0:0:0:0:
169,144,24230,1,0,0:0:0:0:
215,153,24573,1,0,0:0:0:0:
99,111,25259,1,0,0:0:0:0:
45,122,25601,1,8,0:0:0:0:
133,127,25944,1,0,0:0:0:0:
45,122,26630,1,0,0:0:0:0:
9,251,26973,1,0,0:0:0:0:
133,127,27316,1,8,0:0:0:0:
75,141,27487,1,0,0:0:0:0:
10,127,27659,1,8,0:0:0:0:
133,127,28001,1,0,0:0:0:0:
133,127,28173,1,8,0:0:0:0:
213,42,28344,1,8,0:0:0:0:
133,127,28687,1,0,0:0:0:0:
133,127,29373,1,0,0:0:0:0:
61,249,29716,1,0,0:0:0:0:
133,127,30059,1,8,0:0:0:0:
249,155,30401,1,8,0:0:0:0:
197,142,30573,1,0,0:0:0:0:
133,127,30744,1,8,0:0:0:0:
133,127,31087,1,0,0:0:0:0:
133,127,31430,1,8,0:0:0:0:
133,127,32116,1,0,0:0:0:0:
13,176,32459,1,0,0:0:0:0:
133,127,32801,1,8,0:0:0:0:
40,147,32973,1,8,0:0:0:0:
133,127,33144,1,8,0:0:0:0:
133,127,33487,1,8,0:0:0:0:
133,127,33659,1,0,0:0:0:0:
246,80,33830,1,8,0:0:0:0:
133,127,34173,1,0,0:0:0:0:
45,136,34859,1,0,0:0:0:0:
93,119,35201,1,8,0:0:0:0:
71,139,35544,1,0,0:0:0:0:
71,139,36230,1,8,0:0:0:0:
168,48,36573,1,8,0:0:0:0:
71,139,36916,1,0,0:0:0:0:
328,84,37601,1,0,0:0:0:0:
133,108,37944,1,8,0:0:0:0:
71,139,38287,1,0,0:0:0:0:
71,139,38459,1,0,0:0:0:0:
200,111,38630,1,8,0:0:0:0:
71,139,38973,1,8,0:0:0:0:
136,113,39144,1,0,0:0:0:0:
191,128,39316,1,8,0:0:0:0:
71,139,39659,1,0,0:0:0:0:
71,139,40344,1,0,0:0:0:0:
184,101,40687,1,8,0:0:0:0:
71,139,41030,1,0,0:0:0:0:
147,124,41201,1,0,0:0:0:0:
71,139,41373,1,8,0:0:0:0:
71,139,41716,1,8,0:0:0:0:
219,134,42059,1,0,0:0:0:0:
71,139,42401,1,8,0:0:0:0:
71,139,43087,1,8,0:0:0:0:
194,126,43430,1,0,0:0:0:0:
71,139,43773,1,8,0:0:0:0:
139,131,43944,1,0,0:0:0:0:
71,139,44116,1,8,0:0:0:0:
71,139,44459,1,0,0:0:0:0:
108,116,44630,1,0,0:0:0:0:
187,88,44801,1,0,0:0:0:0:
71,139,45144,1,8,0:0:0:0:
341,115,45830,1,0,0:0:0:0:
0,143,46173,1,8,0:0:0:0:
71,139,46516,1,0,0:0:0:0:
345,114,47201,1,0,0:0:0:0:
458,225,47544,1,8,0:0:0:0:
71,139,47887,1,8,0:0:0:0:
340,115,48573,1,0,0:0:0:0:
71,139,48916,1,8,0:0:0:0:
71,139,49259,1,0,0:0:0:0:
332,116,49944,1,0,0:0:0:0:
478,224,50287,1,8,0:0:0:0:
71,139,50630,1,8,0:0:0:0:
21,154,51659,1,8,0:0:0:0:
198,67,52173,1,8,0:0:0:0:
176,116,52344,1,8,0:0:0:0:
265,124,52516,1,0,0:0:0:0:
206,125,52859,1,0,0:0:0:0:
242,125,53201,1,8,0:0:0:0:
118,228,53716,1,8,0:0:0:0:
87,133,54059,1,8,0:0:0:0:
207,101,54230,1,0,0:0:0:0:
176,69,54573,1,8,0:0:0:0:
113,98,55087,1,0,0:0:0:0:
113,98,55430,1,0,0:0:0:0:
159,95,55601,1,8,0:0:0:0:
113,98,55944,1,8,0:0:0:0:
439,175,56801,1,0,0:0:0:0:
320,147,57144,1,0,0:0:0:0:
113,98,57316,1,8,0:0:0:0:
27,181,57659,1,0,0:0:0:0:
113,98,58001,1,8,0:0:0:0:
231,156,58344,1,8,0:0:0:0:
82,127,58516,1,8,0:0:0:0:
113,98,58859,1,4,0:0:0:0:
158,36,59201,1,0,0:0:0:0:
358,61,59544,1,0,0:0:0:0:
158,36,59716,1,8,0:0:0:0:
158,36,59887,1,0,0:0:0:0:
108,98,60230,1,8,0:0:0:0:
218,83,60573,1,0,0:0:0:0:
171,75,60744,1,8,0:0:0:0:
86,152,61087,1,8,0:0:0:0:
97,99,61259,1,0,0:0:0:0:
352,67,61601,1,8,0:0:0:0:
239,96,61944,1,0,0:0:0:0:
93,99,62287,1,8,0:0:0:0:
56,109,62459,1,0,0:0:0:0:
56,109,62630,1,8,0:0:0:0:
350,68,62973,1,0,0:0:0:0:
231,82,63316,1,8,0:0:0:0:
161,93,63487,1,0,0:0:0:0:
116,96,63830,1,8,0:0:0:0:
314,50,64173,1,4,0:0:0:0:
60,102,64859,1,4,0:0:0:0:
322,48,65544,1,12,0:0:0:0:
73,100,66230,1,12,0:0:0:0:
200,135,66573,1,8,0:0:0:0:
73,100,66744,1,0,0:0:0:0:
388,35,67087,1,4,0:0:0:0:
132,94,67773,1,0,0:0:0:0:
147,70,68116,1,0,0:0:0:0:
177,79,68459,1,8,0:0:0:0:
131,205,68801,1,8,0:0:0:0:
177,79,68973,1,0,0:0:0:0:
56,154,69316,1,0,0:0:0:0:
177,79,69487,1,0,0:0:0:0:
152,136,69830,1,12,0:0:0:0:
37,122,70173,1,8,0:0:0:0:
152,136,70516,1,0,0:0:0:0:
152,136,70687,1,0,0:0:0:0:
152,136,70859,1,8,0:0:0:0:
152,136,71201,1,0,0:0:0:0:
152,136,71544,1,8,0:0:0:0:
152,136,71716,1,0,0:0:0:0:
50,189,72059,1,0,0:0:0:0:
84,148,72230,1,0,0:0:0:0:
152,136,72573,1,8,0:0:0:0:
33,133,72916,1,0,0:0:0:0:
152,136,73259,1,8,0:0:0:0:
150,85,73430,1,0,0:0:0:0:
152,136,73601,1,0,0:0:0:0:
152,136,73944,1,8,0:0:0:0:
152,136,74287,1,8,0:0:0:0:
152,136,74459,1,0,0:0:0:0:
111,25,74801,1,8,0:0:0:0:
152,136,75144,1,4,0:0:0:0:
227,49,75830,1,4,0:0:0:0:
152,136,76516,1,12,0:0:0:0:
227,49,77201,1,12,0:0:0:0:
164,150,77544,1,8,0:0:0:0:
293,233,77716,1,8,0:0:0:0:
152,136,78059,1,0,0:0:0:0:
90,108,78744,1,0,0:0:0:0:
210,94,79087,1,0,0:0:0:0:
346,124,79430,1,8,0:0:0:0:
346,124,79772,1,8,0:0:0:0:
287,113,79944,1,0,0:0:0:0:
346,124,80287,1,8,0:0:0:0:
226,66,80630,1,8,0:0:0:0:
346,124,80801,1,0,0:0:0:0:
150,133,81315,1,0,0:0:0:0:
66,95,81487,1,8,0:0:0:0:
346,124,82172,1,0,0:0:0:0:
157,121,82687,1,0,0:0:0:0:
85,61,82858,1,8,0:0:0:0:
46,143,83201,1,8,0:0:0:0:
346,124,83544,1,0,0:0:0:0:
207,138,83887,1,0,0:0:0:0:
139,145,84058,1,0,0:0:0:0:
346,124,84230,1,8,0:0:0:0:
197,138,84572,1,8,0:0:0:0:
346,124,84915,1,0,0:0:0:0:
346,124,85258,1,0,0:0:0:0:
293,100,85430,1,8,0:0:0:0:
155,140,85772,1,0,0:0:0:0:
29,116,86115,1,8,0:0:0:0:
29,116,86459,1,0,0:0:0:0:
20,150,86630,1,0,0:0:0:0:
367,116,86972,1,8,0:0:0:0:
98,116,87658,1,0,0:0:0:0:
78,125,88001,1,8,0:0:0:0:
361,116,88344,1,0,0:0:0:0:
78,125,88515,1,0,0:0:0:0:
244,116,88687,1,8,0:0:0:0:
119,116,89030,1,0,0:0:0:0:
78,125,89372,1,0,0:0:0:0:
380,116,89715,1,8,0:0:0:0:
188,116,90230,1,0,0:0:0:0:
133,141,90401,1,0,0:0:0:0:
50,33,90744,1,8,0:0:0:0:
133,141,91087,1,8,0:0:0:0:
164,116,91258,1,0,0:0:0:0:
133,141,91430,1,8,0:0:0:0:
133,141,91772,1,0,0:0:0:0:
50,158,92459,1,0,0:0:0:0:
303,160,93144,1,8,0:0:0:0:
151,134,94516,1,0,0:0:0:0:
151,134,95201,1,0,0:0:0:0:
151,134,95887,1,8,0:0:0:0:
288,21,96401,1,8,0:0:0:0:
151,134,96744,1,8,0:0:0:0:
151,134,96916,1,8,0:0:0:0:
151,134,97259,1,0,0:0:0:0:
133,127,97944,1,0,0:0:0:0:
61,249,98287,1,0,0:0:0:0:
133,127,98630,1,8,0:0:0:0:
249,155,98972,1,8,0:0:0:0:
197,142,99144,1,0,0:0:0:0:
133,127,99315,1,8,0:0:0:0:
133,127,99658,1,0,0:0:0:0:
133,127,100001,1,8,0:0:0:0:
133,127,100687,1,0,0:0:0:0:
13,176,101030,1,0,0:0:0:0:
133,127,101372,1,8,0:0:0:0:
40,147,101544,1,0,0:0:0:0:
133,127,101715,5,8,0:0:0:0:
133,127,102058,1,8,0:0:0:0:
133,127,102230,1,8,0:0:0:0:
246,80,102401,1,0,0:0:0:0:
151,134,102744,5,0,0:0:0:0:
107,139,103430,1,0,0:0:0:0:
206,135,104116,1,8,0:0:0:0:
206,135,105487,1,0,0:0:0:0:
164,127,106173,1,0,0:0:0:0:
206,135,106859,1,8,0:0:0:0:
206,135,107373,1,8,0:0:0:0:
90,117,107716,1,8,0:0:0:0:
206,135,107887,1,8,0:0:0:0:
206,135,108230,1,0,0:0:0:0:
71,139,108916,1,0,0:0:0:0:
184,101,109259,1,8,0:0:0:0:
71,139,109602,1,0,0:0:0:0:
147,124,109773,1,0,0:0:0:0:
71,139,109945,1,8,0:0:0:0:
71,139,110288,1,0,0:0:0:0:
219,134,110631,1,0,0:0:0:0:
71,139,110973,1,8,0:0:0:0:
71,139,111659,1,8,0:0:0:0:
194,126,112002,1,0,0:0:0:0:
71,139,112345,1,8,0:0:0:0:
139,131,112516,1,8,0:0:0:0:
71,139,112688,5,0,0:0:0:0:
71,139,113031,1,0,0:0:0:0:
108,116,113202,1,8,0:0:0:0:
187,88,113373,1,0,0:0:0:0:
71,144,113716,5,8,0:0:0:0:
327,141,114401,1,0,0:0:0:0:
486,86,114744,1,8,0:0:0:0:
18,145,115087,1,0,0:0:0:0:
288,126,115773,1,0,0:0:0:0:
426,123,116116,1,8,0:0:0:0:
65,141,116459,1,8,0:0:0:0:
359,122,117144,1,0,0:0:0:0:
480,206,117487,1,8,0:0:0:0:
41,141,117830,1,0,0:0:0:0:
311,126,118516,1,0,0:0:0:0:
446,232,118859,1,8,0:0:0:0:
41,141,119201,1,8,0:0:0:0:
21,154,120230,1,8,0:0:0:0:
95,44,120573,1,8,0:0:0:0:
198,67,120744,1,8,0:0:0:0:
176,116,120915,1,0,0:0:0:0:
265,124,121259,1,0,0:0:0:0:
206,125,121430,1,0,0:0:0:0:
242,125,121772,1,8,0:0:0:0:
118,228,122287,1,8,0:0:0:0:
87,133,122630,1,8,0:0:0:0:
207,101,122801,1,0,0:0:0:0:
176,69,123144,1,8,0:0:0:0:
113,98,123658,1,0,0:0:0:0:
113,98,124001,1,0,0:0:0:0:
159,95,124172,1,8,0:0:0:0:
113,98,124515,1,8,0:0:0:0:
447,148,125373,1,0,0:0:0:0:
301,126,125716,1,8,0:0:0:0:
79,120,125887,5,0,0:0:0:0:
222,100,126230,1,0,0:0:0:0:
79,120,126573,1,8,0:0:0:0:
290,90,127087,1,8,0:0:0:0:
79,120,127430,1,4,0:0:0:0:
158,36,127773,1,0,0:0:0:0:
358,61,128116,1,0,0:0:0:0:
158,36,128288,1,8,0:0:0:0:
158,36,128459,1,0,0:0:0:0:
108,98,128802,1,8,0:0:0:0:
218,83,129145,1,0,0:0:0:0:
171,75,129316,1,8,0:0:0:0:
286,115,129659,1,8,0:0:0:0:
97,99,129831,1,0,0:0:0:0:
352,67,130173,1,8,0:0:0:0:
239,96,130516,1,0,0:0:0:0:
93,99,130859,1,8,0:0:0:0:
56,109,131031,1,0,0:0:0:0:
56,109,131202,1,8,0:0:0:0:
350,68,131545,1,0,0:0:0:0:
231,82,131888,1,8,0:0:0:0:
161,93,132059,1,0,0:0:0:0:
116,96,132402,1,8,0:0:0:0:
314,50,132745,1,4,0:0:0:0:
60,102,133431,1,4,0:0:0:0:
322,48,134116,1,12,0:0:0:0:
73,100,134802,1,12,0:0:0:0:
200,135,135145,1,8,0:0:0:0:
73,100,135316,1,0,0:0:0:0:
388,35,135659,1,4,0:0:0:0:
132,94,136345,1,0,0:0:0:0:
147,70,136688,1,0,0:0:0:0:
177,79,137031,1,8,0:0:0:0:
131,205,137373,1,8,0:0:0:0:
177,79,137545,1,0,0:0:0:0:
56,154,137888,1,0,0:0:0:0:
177,79,138059,1,0,0:0:0:0:
152,136,138402,1,12,0:0:0:0:
37,122,138745,1,8,0:0:0:0:
152,136,139088,1,8,0:0:0:0:
152,136,139259,1,0,0:0:0:0:
152,136,139430,1,0,0:0:0:0:
152,136,139773,1,8,0:0:0:0:
152,136,140116,1,0,0:0:0:0:
152,136,140288,1,8,0:0:0:0:
270,176,140630,1,0,0:0:0:0:
84,148,140802,1,0,0:0:0:0:
152,136,141145,1,8,0:0:0:0:
33,133,141487,1,8,0:0:0:0:
152,136,141831,1,0,0:0:0:0:
150,85,142001,1,8,0:0:0:0:
152,136,142173,1,0,0:0:0:0:
152,136,142516,1,8,0:0:0:0:
152,136,142859,1,0,0:0:0:0:
152,136,143030,1,8,0:0:0:0:
111,25,143373,1,8,0:0:0:0:
152,136,143716,1,4,0:0:0:0:
227,49,144402,1,4,0:0:0:0:
152,136,145088,1,12,0:0:0:0:
227,49,145773,1,12,0:0:0:0:
164,150,146116,1,8,0:0:0:0:
293,233,146288,1,8,0:0:0:0:
152,136,146631,1,0,0:0:0:0:
90,108,147316,1,0,0:0:0:0:
210,94,147659,1,0,0:0:0:0:
346,124,148002,1,8,0:0:0:0:
346,124,148344,1,8,0:0:0:0:
287,113,148516,1,0,0:0:0:0:
346,124,148859,1,8,0:0:0:0:
226,66,149202,1,8,0:0:0:0:
346,124,149373,1,0,0:0:0:0:
150,133,149887,1,0,0:0:0:0:
66,95,150059,1,8,0:0:0:0:
346,124,150744,1,0,0:0:0:0:
157,121,151259,1,0,0:0:0:0:
85,61,151430,1,8,0:0:0:0:
46,143,151773,1,8,0:0:0:0:
346,124,152116,1,0,0:0:0:0:
207,138,152459,1,0,0:0:0:0:
139,145,152630,1,0,0:0:0:0:
346,124,152802,1,8,0:0:0:0:
197,138,153144,1,8,0:0:0:0:
346,124,153487,1,0,0:0:0:0:
346,124,153830,1,0,0:0:0:0:
293,100,154002,1,8,0:0:0:0:
155,140,154344,1,0,0:0:0:0:
29,116,154687,1,8,0:0:0:0:
29,116,155030,1,0,0:0:0:0:
20,150,155202,1,0,0:0:0:0:
367,116,155544,1,8,0:0:0:0:
98,116,156230,1,0,0:0:0:0:
78,125,156573,1,8,0:0:0:0:
361,116,156916,1,0,0:0:0:0:
78,125,157087,1,0,0:0:0:0:
244,116,157259,1,8,0:0:0:0:
119,116,157602,1,0,0:0:0:0:
78,125,157944,1,0,0:0:0:0:
380,116,158287,1,8,0:0:0:0:
206,120,158801,1,0,0:0:0:0:
133,141,158973,1,0,0:0:0:0:
50,33,159316,1,8,0:0:0:0:
133,141,159659,1,8,0:0:0:0:
164,116,159830,1,0,0:0:0:0:
133,141,160002,1,8,0:0:0:0:
39,60,160344,1,0,0:0:0:0:
299,118,161030,1,0,0:0:0:0:
422,175,161373,1,8,0:0:0:0:
87,143,161716,5,0,0:0:0:0:
87,143,162401,1,0,0:0:0:0:
140,132,162573,1,8,0:0:0:0:
269,106,162916,1,8,0:0:0:0:
87,143,163087,1,0,0:0:0:0:
320,53,163773,1,0,0:0:0:0:
195,101,164116,1,8,0:0:0:0:
109,137,164459,1,0,0:0:0:0:
109,137,165144,1,0,0:0:0:0:
298,46,165316,1,8,0:0:0:0:
204,83,165659,1,8,0:0:0:0:
197,51,165830,1,0,0:0:0:0:
20,238,166516,1,0,0:0:0:0:
107,145,166859,1,8,0:0:0:0:
109,137,167201,1,0,0:0:0:0:
172,82,167887,1,0,0:0:0:0:
172,82,168059,1,8,0:0:0:0:
172,82,168401,1,8,0:0:0:0:
109,137,168573,1,0,0:0:0:0:
84,123,169259,1,0,0:0:0:0:
84,123,169601,1,8,0:0:0:0:
120,116,169944,1,0,0:0:0:0:
120,116,170630,1,0,0:0:0:0:
84,123,170801,1,8,0:0:0:0:
219,108,171144,1,8,0:0:0:0:
120,116,171316,1,0,0:0:0:0:
246,47,171659,1,8,0:0:0:0:
219,24,172344,1,8,0:0:0:0:
120,116,172687,1,0,0:0:0:0:
124,190,172859,1,0,0:0:0:0:
197,212,173030,5,8,0:0:0:0:
244,162,173373,1,0,0:0:0:0:
178,148,173544,1,8,0:0:0:0:
56,123,173887,1,8,0:0:0:0:
120,116,174059,1,0,0:0:0:0:
0,135,174401,1,8,0:0:0:0:
78,360,175087,1,8,0:0:0:0:
98,123,175430,1,0,0:0:0:0:
138,90,175601,1,0,0:0:0:0:
121,109,175773,1,8,0:0:0:0:
102,220,176116,1,0,0:0:0:0:
121,109,176287,1,8,0:0:0:0:
253,144,176630,1,8,0:0:0:0:
103,128,176801,1,0,0:0:0:0:
243,115,177144,1,8,0:0:0:0:
103,128,177487,1,8,0:0:0:0:
149,114,177659,1,0,0:0:0:0:
103,128,177830,1,8,0:0:0:0:
120,116,178173,1,0,0:0:0:0:
183,119,178516,1,8,0:0:0:0:
232,98,178687,1,0,0:0:0:0:
114,154,179030,1,8,0:0:0:0:
232,98,179201,1,8,0:0:0:0:
120,116,179373,1,8,0:0:0:0:
163,66,179544,1,0,0:0:0:0:
51,129,179887,1,8,0:0:0:0:
120,116,180230,1,0,0:0:0:0:
102,153,180401,1,0,0:0:0:0:
102,153,180573,1,0,0:0:0:0:
120,116,180916,1,8,0:0:0:0:
120,116,181601,1,0,0:0:0:0:
120,116,181944,1,8,0:0:0:0:
256,192,182287,12,0,183659,0:0:0:0:
120,116,185030,5,0,0:0:0:0:
9,153,185373,1,8,0:0:0:0:
120,116,185716,1,8,0:0:0:0:
72,121,185887,1,0,0:0:0:0:
44,116,186059,1,0,0:0:0:0:
100,129,186230,1,0,0:0:0:0:
156,76,186401,1,0,0:0:0:0:
227,219,186744,1,8,0:0:0:0:
43,158,187087,1,8,0:0:0:0:
76,116,187259,1,0,0:0:0:0:
162,125,187430,1,8,0:0:0:0:
43,158,187773,1,0,0:0:0:0:
154,127,188116,1,0,0:0:0:0:
98,142,188287,1,8,0:0:0:0:
43,158,189144,1,0,0:0:0:0:
34,133,189487,1,8,0:0:0:0:
43,158,189830,1,8,0:0:0:0:
34,133,190173,1,0,0:0:0:0:
34,133,190344,1,8,0:0:0:0:
43,158,190687,1,8,0:0:0:0:
43,158,190859,1,0,0:0:0:0:
43,158,191201,1,8,0:0:0:0:
43,158,191544,1,0,0:0:0:0:
184,115,192230,1,8,0:0:0:0:
177,0,192573,1,8,0:0:0:0:
152,32,192744,1,0,0:0:0:0:
457,167,192916,1,8,0:0:0:0:
63,136,193259,1,0,0:0:0:0:
185,117,193601,1,0,0:0:0:0:
185,117,193773,1,8,0:0:0:0:
63,136,194630,1,0,0:0:0:0:
63,136,194973,1,8,0:0:0:0:
63,136,195316,1,8,0:0:0:0:
179,106,195659,1,0,0:0:0:0:
179,106,195830,1,8,0:0:0:0:
63,136,196173,1,8,0:0:0:0:
110,130,196344,1,0,0:0:0:0:
66,111,196687,1,0,0:0:0:0:
191,128,197030,1,8,0:0:0:0:
192,131,197716,1,8,0:0:0:0:
61,112,198059,1,8,0:0:0:0:
15,138,198401,1,8,0:0:0:0:
193,126,198573,1,0,0:0:0:0:
95,121,199087,1,0,0:0:0:0:
155,132,199430,1,8,0:0:0:0:
113,129,199601,1,0,0:0:0:0:
47,125,199944,1,8,0:0:0:0:
155,132,200459,1,8,0:0:0:0:
39,159,200801,1,8,0:0:0:0:
88,151,200973,1,0,0:0:0:0:
39,159,201316,1,8,0:0:0:0:
65,146,201659,1,8,0:0:0:0:
113,131,201830,1,8,0:0:0:0:
39,159,202173,1,0,0:0:0:0:
107,136,202344,1,8,0:0:0:0:
225,98,202687,1,8,0:0:0:0:
39,159,202859,1,0,0:0:0:0:
225,98,203544,1,0,0:0:0:0:
225,98,203887,1,8,0:0:0:0:
98,126,204230,1,0,0:0:0:0:
98,126,204916,1,0,0:0:0:0:
231,97,205259,1,8,0:0:0:0:
98,126,205601,1,0,0:0:0:0:
98,126,205944,1,0,0:0:0:0:
98,126,206287,1,0,0:0:0:0:
223,102,206630,1,0,0:0:0:0:
250,163,206801,1,0,0:0:0:0:
98,126,206973,1,8,0:0:0:0:
222,102,207316,1,8,0:0:0:0:
60,150,207487,1,8,0:0:0:0:
184,105,207830,1,8,0:0:0:0:
149,70,208173,1,8,0:0:0:0:
256,192,208344,12,0,209716,0:0:0:0:
161,131,212459,5,4,0:0:0:0:
158,36,212801,1,0,0:0:0:0:
358,61,213144,1,0,0:0:0:0:
158,36,213316,1,8,0:0:0:0:
158,36,213487,1,0,0:0:0:0:
108,98,213830,1,8,0:0:0:0:
218,83,214173,1,0,0:0:0:0:
171,75,214344,1,8,0:0:0:0:
171,215,214687,1,8,0:0:0:0:
97,99,214859,1,0,0:0:0:0:
352,67,215201,1,8,0:0:0:0:
239,96,215544,1,0,0:0:0:0:
93,99,215887,1,8,0:0:0:0:
56,109,216059,1,0,0:0:0:0:
56,109,216230,1,8,0:0:0:0:
350,68,216573,1,0,0:0:0:0:
231,82,216916,1,8,0:0:0:0:
161,93,217087,1,0,0:0:0:0:
116,96,217430,1,8,0:0:0:0:
314,50,217773,1,4,0:0:0:0:
60,102,218459,1,4,0:0:0:0:
322,48,219144,1,12,0:0:0:0:
73,100,219830,1,12,0:0:0:0:
200,135,220173,1,8,0:0:0:0:
73,100,220344,1,0,0:0:0:0:
388,35,220687,1,4,0:0:0:0:
168,121,222059,5,0,0:0:0:0:
168,121,222401,1,0,0:0:0:0:
43,136,222573,1,8,0:0:0:0:
102,230,222916,1,8,0:0:0:0:
208,180,223087,1,0,0:0:0:0:
168,121,223430,1,12,0:0:0:0:
37,122,223773,1,8,0:0:0:0:
152,136,224116,1,0,0:0:0:0:
152,136,224287,1,0,0:0:0:0:
152,136,224459,1,8,0:0:0:0:
152,136,224801,1,0,0:0:0:0:
152,136,225144,1,8,0:0:0:0:
152,136,225316,1,0,0:0:0:0:
253,180,225659,1,0,0:0:0:0:
84,148,225830,1,0,0:0:0:0:
152,136,226173,1,8,0:0:0:0:
33,133,226516,1,0,0:0:0:0:
152,136,226859,1,8,0:0:0:0:
150,85,227030,1,0,0:0:0:0:
152,136,227201,1,0,0:0:0:0:
152,136,227544,1,8,0:0:0:0:
152,136,227887,1,8,0:0:0:0:
152,136,228059,1,0,0:0:0:0:
111,25,228401,1,8,0:0:0:0:
152,136,228744,1,4,0:0:0:0:
227,49,229430,1,4,0:0:0:0:
152,136,230116,1,12,0:0:0:0:
227,49,230801,1,12,0:0:0:0:
164,150,231144,1,8,0:0:0:0:
293,233,231316,1,0,0:0:0:0:
152,136,231659,1,0,0:0:0:0:
76,157,232344,1,0,0:0:0:0:
76,157,232687,1,8,0:0:0:0:
117,150,233030,1,0,0:0:0:0:
211,58,233373,1,8,0:0:0:0:
160,107,233544,1,0,0:0:0:0:
213,199,233887,1,0,0:0:0:0:
283,61,234059,1,8,0:0:0:0:
79,120,234401,1,4,0:0:0:0:
158,36,234744,1,0,0:0:0:0:
358,61,235087,1,0,0:0:0:0:
158,36,235259,1,8,0:0:0:0:
158,36,235430,1,0,0:0:0:0:
108,98,235773,1,8,0:0:0:0:
218,83,236116,1,0,0:0:0:0:
171,75,236287,1,8,0:0:0:0:
207,180,236630,1,8,0:0:0:0:
97,99,236802,1,0,0:0:0:0:
352,67,237144,1,8,0:0:0:0:
239,96,237487,1,0,0:0:0:0:
93,99,237830,1,8,0:0:0:0:
56,109,238002,1,0,0:0:0:0:
56,109,238173,1,8,0:0:0:0:
350,68,238516,1,0,0:0:0:0:
231,82,238859,1,8,0:0:0:0:
161,93,239030,1,0,0:0:0:0:
116,96,239373,1,8,0:0:0:0:
314,50,239716,1,4,0:0:0:0:
60,102,240402,1,4,0:0:0:0:
322,48,241087,1,12,0:0:0:0:
73,100,241773,1,12,0:0:0:0:
200,135,242116,1,8,0:0:0:0:
73,100,242287,1,0,0:0:0:0:
388,35,242630,1,4,0:0:0:0:
132,94,243316,1,0,0:0:0:0:
147,70,243659,1,0,0:0:0:0:
177,79,244002,1,8,0:0:0:0:
131,205,244344,1,8,0:0:0:0:
177,79,244516,1,0,0:0:0:0:
56,154,244859,1,0,0:0:0:0:
177,79,245030,1,0,0:0:0:0:
152,136,245373,1,12,0:0:0:0:
37,122,245716,1,8,0:0:0:0:
152,136,246059,1,8,0:0:0:0:
152,136,246230,1,0,0:0:0:0:
152,136,246401,1,0,0:0:0:0:
152,136,246744,1,8,0:0:0:0:
152,136,247087,1,0,0:0:0:0:
152,136,247259,1,8,0:0:0:0:
263,87,247601,1,0,0:0:0:0:
84,148,247773,1,0,0:0:0:0:
152,136,248116,1,8,0:0:0:0:
33,133,248458,1,8,0:0:0:0:
152,136,248802,1,0,0:0:0:0:
150,85,248972,1,8,0:0:0:0:
152,136,249144,1,0,0:0:0:0:
152,136,249487,1,8,0:0:0:0:
152,136,249830,1,0,0:0:0:0:
152,136,250001,1,8,0:0:0:0:
111,25,250344,1,8,0:0:0:0:
152,136,250687,1,4,0:0:0:0:
227,49,251373,1,4,0:0:0:0:
152,136,252059,1,12,0:0:0:0:
227,49,252744,1,12,0:0:0:0:
164,150,253087,1,8,0:0:0:0:
293,233,253259,1,0,0:0:0:0:
152,136,253601,1,0,0:0:0:0:
157,88,254287,1,0,0:0:0:0:
157,88,254630,1,0,0:0:0:0:
152,136,254973,5,8,0:0:0:0:
193,10,255316,1,8,0:0:0:0:
157,88,255487,1,0,0:0:0:0:
209,47,255830,1,8,0:0:0:0:
274,150,256173,1,8,0:0:0:0:
158,112,256344,1,0,0:0:0:0:
150,133,256859,1,0,0:0:0:0:
66,95,257031,1,8,0:0:0:0:
346,124,257716,1,0,0:0:0:0:
157,121,258231,1,0,0:0:0:0:
85,61,258402,1,8,0:0:0:0:
46,143,258745,1,8,0:0:0:0:
346,124,259088,1,0,0:0:0:0:
207,138,259431,1,0,0:0:0:0:
139,145,259602,1,0,0:0:0:0:
346,124,259774,1,8,0:0:0:0:
197,138,260116,1,8,0:0:0:0:
346,124,260459,1,0,0:0:0:0:
346,124,260802,1,0,0:0:0:0:
293,100,260974,1,8,0:0:0:0:
155,140,261316,1,0,0:0:0:0:
29,116,261659,1,8,0:0:0:0:
155,140,261830,1,0,0:0:0:0:
155,140,262516,1,0,0:0:0:0:
155,140,262859,1,8,0:0:0:0:
39,86,263201,5,0,0:0:0:0:
39,86,263887,1,0,0:0:0:0:
165,120,264230,1,0,0:0:0:0:
46,151,264573,1,12,0:0:0:0:
175,128,264916,1,12,0:0:0:0:
249,112,265087,1,12,0:0:0:0:
46,151,265430,1,12,0:0:0:0:
249,112,265773,1,12,0:0:0:0:
46,151,266116,1,12,0:0:0:0:
249,112,266459,1,12,0:0:0:0:
