osu file format v14

[General]
AudioFilename: Trysail - Honto da yo.mp3
AudioLeadIn: 0
PreviewTime: 58294
Countdown: 0
SampleSet: Drum
StackLeniency: 0.7
Mode: 3
LetterboxInBreaks: 0
SpecialStyle: 0
WidescreenStoryboard: 1

[Editor]
DistanceSpacing: 0.8
BeatDivisor: 4
GridSize: 8
TimelineZoom: 2.4

[Metadata]
Title:Honto da yo
TitleUnicode:ホントだよ
Artist:TrySail
ArtistUnicode:TrySail
Creator:Stelar
Version:Normal
Source:
Tags:麻倉もも Momo Asakura 雨宮天 Amamiya Sora 夏川椎菜 Natsukawa Shiina コバルト Sail Canvas Kanon Matsubara Syadow- cut version cobalt truly SVWC-70095 Japanese Pop jpop j-pop
BeatmapID:2396602
BeatmapSetID:1146189

[Difficulty]
HPDrainRate:7.5
CircleSize:4
OverallDifficulty:7.5
ApproachRate:5
SliderMultiplier:1.4
SliderTickRate:1

[Events]
//Background and Video events
0,0,"Background_5.jpg",0,0
//Break Periods
//Storyboard Layer 0 (Background)
//Storyboard Layer 1 (Fail)
//Storyboard Layer 2 (Pass)
//Storyboard Layer 3 (Foreground)
//Storyboard Layer 4 (Overlay)
//Storyboard Sound Samples
Sample,14751,0,"Tom2.wav",40
Sample,88808,0,"Tom2.wav",40

[TimingPoints]
1380,342.857142857143,4,3,1,40,1,0
58980,-100,4,3,1,40,0,1
80922,-100,4,3,1,40,0,0

[HitObjects]
448,192,865,128,0,1037:0:0:0:0:
192,192,1037,128,0,1208:0:0:0:0:
320,192,1208,128,0,1380:0:0:0:0:
64,192,1380,128,2,1722:0:0:0:0:
192,192,1380,1,4,0:0:0:0:
320,192,1722,128,0,1894:0:0:0:0:
192,192,1894,128,0,2065:0:0:0:0:
448,192,2065,128,0,2408:0:0:0:0:
64,192,2408,128,0,2580:0:0:0:0:
192,192,2580,128,0,2751:0:0:0:0:
320,192,2751,1,2,0:0:0:0:
448,192,2751,1,0,0:0:0:0:
64,192,2922,1,0,0:0:0:0:
320,192,3094,1,0,0:0:0:0:
64,192,3265,1,2,0:0:0:0:
192,192,3265,1,0,0:0:0:0:
448,192,3608,128,0,3780:0:0:0:0:
192,192,3780,128,0,3951:0:0:0:0:
320,192,3951,128,0,4122:0:0:0:0:
64,192,4122,128,2,4465:0:0:0:0:
192,192,4122,1,0,0:0:0:0:
448,192,4465,128,0,4808:0:0:0:0:
192,192,4808,128,0,4980:0:0:0:0:
64,192,4980,128,0,5151:0:0:0:0:
320,192,5151,1,8,0:0:0:0:
448,192,5151,1,0,0:0:0:0:
192,192,5322,128,0,5494:0:0:0:0:
320,192,5494,1,2,0:0:0:0:
64,192,5494,1,0,0:0:0:0:
448,192,5665,1,0,0:0:0:0:
192,192,5837,1,8,0:0:0:0:
448,192,6008,1,2,0:0:0:0:
320,192,6008,1,0,0:0:0:0:
320,192,6351,128,0,6522:0:0:0:0:
192,192,6522,128,0,6694:0:0:0:0:
64,192,6694,1,2,0:0:0:0:
448,192,6694,1,0,0:0:0:0:
192,192,7037,128,0,7208:0:0:0:0:
320,192,7208,128,0,7380:0:0:0:0:
64,192,7380,1,2,0:0:0:0:
448,192,7380,1,0,0:0:0:0:
448,192,7722,128,0,7894:0:0:0:0:
64,192,7894,128,0,8065:0:0:0:0:
320,192,8065,1,2,0:0:0:0:
448,192,8065,1,0,0:0:0:0:
64,192,8408,128,0,8580:0:0:0:0:
448,192,8580,128,0,8751:0:0:0:0:
64,192,8751,1,2,0:0:0:0:
192,192,8751,1,0,0:0:0:0:
320,192,9094,128,0,9265:0:0:0:0:
192,192,9265,128,8,9437:0:0:0:0:
448,192,9437,128,0,9608:0:0:0:0:
64,192,9608,128,2,9951:0:0:0:0:
192,192,9608,1,0,0:0:0:0:
320,192,9951,1,2,0:0:0:0:
448,192,9951,128,0,10294:0:0:0:0:
64,192,10294,1,2,0:0:0:0:
192,192,10294,128,0,10637:0:0:0:0:
320,192,10637,128,2,10980:0:0:0:0:
448,192,10637,1,0,0:0:0:0:
64,192,10980,1,2,0:0:0:0:
192,192,10980,1,0,0:0:0:0:
448,192,11151,1,2,0:0:0:0:
192,192,11322,1,2,0:0:0:0:
320,192,11322,1,0,0:0:0:0:
64,192,11494,1,2,0:0:0:0:
320,192,11665,1,2,0:0:0:0:
448,192,11665,1,0,0:0:0:0:
192,192,11837,128,8,12008:0:0:0:0:
64,192,12008,1,2,0:0:0:0:
448,192,12008,1,0,0:0:0:0:
320,192,12180,128,8,12351:0:0:0:0:
64,192,12351,1,2,0:0:0:0:
192,192,12351,1,4,0:0:0:0:
448,192,12522,128,0,12694:0:0:0:0:
192,192,12694,128,0,12865:0:0:0:35:Tom1.wav
320,192,12865,128,2,13037:0:0:0:0:
448,192,12865,1,0,0:0:0:0:
64,192,13037,128,2,13208:0:0:0:0:
192,192,13037,1,0,0:0:0:0:
448,192,13208,128,0,13380:0:0:0:0:
320,192,13380,1,0,0:0:0:40:Tom2.wav
64,192,13551,128,0,13722:0:0:0:0:
320,192,13722,128,2,13894:0:0:0:0:
448,192,13722,1,0,0:0:0:0:
192,192,13894,128,0,14065:0:0:0:0:
448,192,14065,128,0,14237:0:0:0:30:Tom1.wav
192,192,14237,1,2,0:0:0:0:
64,192,14237,128,0,14408:0:0:0:0:
320,192,14408,1,2,0:0:0:0:
448,192,14408,1,0,0:0:0:0:
192,192,14580,128,8,14751:0:0:0:0:
64,192,14751,128,8,14922:0:0:0:0:
448,192,14922,128,8,15094:0:0:0:0:
64,192,15094,1,2,0:0:0:0:
192,192,15094,1,4,0:0:0:0:
64,192,15437,1,2,0:0:0:0:
192,192,15437,1,0,0:0:0:0:
320,192,15780,1,2,0:0:0:0:
448,192,15780,1,0,0:0:0:0:
320,192,16122,1,2,0:0:0:0:
448,192,16122,1,0,0:0:0:0:
64,192,16465,1,2,0:0:0:0:
192,192,16465,1,0,0:0:0:0:
320,192,16637,1,2,0:0:0:0:
64,192,16808,1,2,0:0:0:0:
448,192,16808,1,0,0:0:0:0:
192,192,16980,1,2,0:0:0:0:
320,192,17151,1,2,0:0:0:0:
448,192,17151,1,0,0:0:0:0:
64,192,17322,128,10,17494:0:0:0:0:
320,192,17494,1,10,0:0:0:0:
448,192,17665,128,10,17837:0:0:0:0:
64,192,17837,1,0,0:0:0:0:
320,192,18008,128,0,18180:0:0:0:0:
192,192,18180,128,10,18351:0:0:0:0:
448,192,18351,128,0,18522:0:0:0:0:
64,192,18522,128,2,18694:0:0:0:0:
192,192,18694,128,0,18865:0:0:0:0:
320,192,18865,1,2,0:0:0:0:
448,192,18865,1,8,0:0:0:0:
64,192,19037,128,0,19208:0:0:0:0:
320,192,19208,128,2,19380:0:0:0:0:
192,192,19380,128,0,19551:0:0:0:0:
448,192,19551,128,10,19722:0:0:0:0:
64,192,19722,128,0,19894:0:0:0:0:
320,192,19894,1,2,0:0:0:0:
448,192,19894,1,0,0:0:0:0:
192,192,20065,128,0,20237:0:0:0:0:
320,192,20237,128,10,20408:0:0:0:0:
64,192,20408,128,0,20580:0:0:0:0:
192,192,20580,1,2,0:0:0:0:
448,192,20580,1,0,0:0:0:0:
320,192,20751,128,0,20922:0:0:0:0:
64,192,20922,128,10,21094:0:0:0:0:
448,192,21094,128,0,21265:0:0:0:0:
192,192,21265,128,2,21437:0:0:0:0:
320,192,21437,128,0,21608:0:0:0:0:
64,192,21608,1,2,0:0:0:0:
448,192,21608,1,8,0:0:0:0:
192,192,21780,128,0,21951:0:0:0:0:
320,192,21951,128,2,22122:0:0:0:0:
64,192,22122,128,2,22294:0:0:0:0:
448,192,22294,128,10,22465:0:0:0:0:
192,192,22465,128,2,22637:0:0:0:0:
64,192,22637,1,2,0:0:0:0:
320,192,22637,1,0,0:0:0:0:
448,192,22808,128,10,22980:0:0:0:0:
64,192,22980,128,10,23151:0:0:0:0:
192,192,23151,128,10,23322:0:0:0:0:
320,192,23322,1,4,0:0:0:0:
448,192,23322,128,2,24008:0:0:0:0:
192,192,23665,1,2,0:0:0:0:
64,192,24008,128,2,24694:0:0:0:0:
448,192,24351,1,2,0:0:0:0:
320,192,24694,128,2,25380:0:0:0:0:
64,192,25037,1,2,0:0:0:0:
192,192,25380,128,2,26065:0:0:0:0:
320,192,25722,1,2,0:0:0:0:
448,192,26065,128,2,26751:0:0:0:0:
192,192,26408,1,2,0:0:0:0:
64,192,26751,128,2,27437:0:0:0:0:
192,192,27094,1,2,0:0:0:0:
320,192,27437,1,2,0:0:0:0:
448,192,27437,1,0,0:0:0:0:
192,192,27608,1,0,0:0:0:0:
64,192,27780,1,2,0:0:0:0:
448,192,27780,1,0,0:0:0:0:
320,192,27951,1,0,0:0:0:0:
64,192,28122,1,2,0:0:0:0:
192,192,28122,1,0,0:0:0:0:
320,192,28294,1,8,0:0:0:0:
192,192,28465,1,10,0:0:0:0:
448,192,28637,1,8,0:0:0:0:
64,192,28808,128,2,28980:0:0:0:0:
192,192,28808,1,4,0:0:0:0:
320,192,28980,1,0,0:0:0:0:
64,192,29151,128,2,29322:0:0:0:0:
320,192,29322,1,0,0:0:0:0:
448,192,29494,128,2,29665:0:0:0:0:
192,192,29665,1,0,0:0:0:0:
448,192,29837,128,2,30008:0:0:0:0:
192,192,30008,1,0,0:0:0:0:
320,192,30180,128,2,30351:0:0:0:0:
448,192,30180,1,4,0:0:0:0:
64,192,30351,1,0,0:0:0:0:
320,192,30522,128,2,30694:0:0:0:0:
64,192,30694,1,0,0:0:0:0:
192,192,30865,128,2,31037:0:0:0:0:
448,192,31037,1,0,0:0:0:0:
192,192,31208,128,2,31380:0:0:0:0:
448,192,31380,1,0,0:0:0:0:
192,192,31551,1,2,0:0:0:0:
320,192,31551,128,4,31722:0:0:0:0:
64,192,31722,1,0,0:0:0:0:
320,192,31894,128,2,32065:0:0:0:0:
64,192,32065,1,0,0:0:0:0:
192,192,32237,128,2,32408:0:0:0:0:
448,192,32408,1,0,0:0:0:0:
192,192,32580,128,2,32751:0:0:0:0:
448,192,32751,1,0,0:0:0:0:
64,192,32922,1,2,0:0:0:0:
192,192,32922,1,4,0:0:0:0:
320,192,33094,1,0,0:0:0:0:
64,192,33265,1,2,0:0:0:0:
448,192,33265,1,0,0:0:0:0:
192,192,33437,1,0,0:0:0:0:
320,192,33608,1,2,0:0:0:0:
448,192,33608,1,0,0:0:0:0:
64,192,33780,128,8,33951:0:0:0:0:
192,192,33951,128,2,34122:0:0:0:0:
448,192,34122,128,8,34294:0:0:0:0:
64,192,34294,128,2,35665:0:0:0:0:
320,192,34294,1,4,0:0:0:0:
192,192,34637,1,2,0:0:0:0:
320,192,34980,1,2,0:0:0:0:
448,192,35322,1,10,0:0:0:0:
192,192,35665,1,2,0:0:0:0:
320,192,35665,128,0,37037:0:0:0:0:
64,192,36008,1,2,0:0:0:0:
192,192,36351,1,2,0:0:0:0:
448,192,36694,1,10,0:0:0:0:
64,192,37037,1,2,0:0:0:0:
192,192,37037,128,0,38408:0:0:0:0:
448,192,37380,1,2,0:0:0:0:
320,192,37722,1,2,0:0:0:0:
64,192,38065,1,10,0:0:0:0:
320,192,38408,1,2,0:0:0:0:
448,192,38408,1,0,0:0:0:0:
192,192,38580,1,0,0:0:0:0:
64,192,38751,1,2,0:0:0:0:
448,192,38751,1,0,0:0:0:0:
320,192,38922,1,0,0:0:0:0:
64,192,39094,1,2,0:0:0:0:
192,192,39094,1,8,0:0:0:0:
448,192,39265,1,8,0:0:0:0:
192,192,39437,1,10,0:0:0:0:
320,192,39608,1,8,0:0:0:0:
64,192,39780,128,2,39951:0:0:0:0:
448,192,39780,1,4,0:0:0:0:
320,192,39951,1,0,0:0:0:0:
64,192,40122,128,2,40294:0:0:0:0:
320,192,40294,1,0,0:0:0:0:
448,192,40465,128,2,40637:0:0:0:0:
192,192,40637,1,0,0:0:0:0:
448,192,40808,128,2,40980:0:0:0:0:
192,192,40980,1,0,0:0:0:0:
320,192,41151,128,2,41322:0:0:0:0:
448,192,41151,1,4,0:0:0:0:
64,192,41322,1,0,0:0:0:0:
320,192,41494,128,2,41665:0:0:0:0:
64,192,41665,1,0,0:0:0:0:
192,192,41837,128,2,42008:0:0:0:0:
448,192,42008,1,0,0:0:0:0:
192,192,42180,128,2,42351:0:0:0:0:
448,192,42351,1,0,0:0:0:0:
64,192,42522,128,2,42694:0:0:0:0:
192,192,42522,1,4,0:0:0:0:
320,192,42694,1,0,0:0:0:0:
64,192,42865,128,2,43037:0:0:0:0:
320,192,43037,1,0,0:0:0:0:
448,192,43208,128,2,43380:0:0:0:0:
192,192,43380,1,0,0:0:0:0:
448,192,43551,128,2,43722:0:0:0:0:
192,192,43722,1,0,0:0:0:0:
64,192,43894,1,2,0:0:0:0:
192,192,43894,1,4,0:0:0:0:
320,192,44065,1,0,0:0:0:0:
64,192,44237,1,2,0:0:0:0:
448,192,44237,1,0,0:0:0:0:
192,192,44408,1,0,0:0:0:0:
320,192,44580,1,2,0:0:0:0:
448,192,44580,1,0,0:0:0:0:
64,192,44751,128,8,44922:0:0:0:0:
192,192,44922,128,2,45094:0:0:0:0:
448,192,45094,128,8,45265:0:0:0:0:
64,192,45265,1,2,0:0:0:0:
320,192,45265,1,4,0:0:0:0:
192,192,45780,1,2,0:0:0:0:
192,192,45951,1,2,0:0:0:0:
64,192,46294,1,0,0:0:0:50:Clap.wav
448,192,46294,1,0,0:0:0:0:
192,192,46637,1,2,0:0:0:0:
320,192,46637,1,0,0:0:0:0:
448,192,47151,1,2,0:0:0:0:
448,192,47322,1,2,0:0:0:0:
64,192,47665,1,0,0:0:0:50:Clap.wav
192,192,47665,1,0,0:0:0:0:
320,192,48008,1,2,0:0:0:0:
448,192,48008,1,0,0:0:0:0:
64,192,48522,1,2,0:0:0:0:
64,192,48694,1,2,0:0:0:0:
320,192,49037,1,0,0:0:0:50:Clap.wav
448,192,49037,1,0,0:0:0:0:
64,192,49380,1,2,0:0:0:0:
192,192,49380,1,0,0:0:0:0:
448,192,49894,1,2,0:0:0:0:
448,192,50065,1,2,0:0:0:0:
192,192,50408,1,0,0:0:0:50:Clap.wav
320,192,50408,1,0,0:0:0:0:
64,192,50751,128,2,52122:0:0:0:0:
448,192,50751,1,0,0:0:0:0:
192,192,50922,1,0,0:0:0:0:
320,192,51094,1,0,0:0:0:0:
448,192,51265,1,0,0:0:0:0:
192,192,51437,1,0,0:0:0:0:
320,192,51608,1,0,0:0:0:0:
448,192,51780,1,0,0:0:0:0:
192,192,51951,1,0,0:0:0:0:
320,192,52122,1,8,0:0:0:0:
448,192,52294,1,8,0:0:0:0:
64,192,52465,1,2,0:0:0:0:
192,192,52637,1,0,0:0:0:0:
320,192,52808,128,10,52980:0:0:0:0:
448,192,52980,128,8,53151:0:0:0:0:
192,192,53151,1,8,0:0:0:0:
320,192,53322,128,8,53494:0:0:0:0:
64,192,53494,1,2,0:0:0:0:
192,192,53665,128,0,53837:0:0:0:0:
448,192,53837,128,10,54008:0:0:0:0:
64,192,54008,1,0,0:0:0:0:
320,192,54180,128,2,54351:0:0:0:0:
192,192,54351,128,0,54522:0:0:0:0:
448,192,54522,1,10,0:0:0:0:
64,192,54694,128,0,54865:0:0:0:0:
320,192,54865,1,2,0:0:0:0:
448,192,55037,128,2,55208:0:0:0:0:
192,192,55208,128,10,55380:0:0:0:0:
320,192,55380,1,2,0:0:0:0:
64,192,55551,128,10,55722:0:0:0:0:
320,192,55722,128,10,55894:0:0:0:0:
192,192,55894,1,2,0:0:0:0:
64,192,56065,1,2,0:0:0:0:
448,192,56065,128,8,56408:0:0:0:0:
192,192,56408,128,0,56580:0:0:0:0:
320,192,56580,128,0,56751:0:0:0:0:
64,192,56751,128,0,56922:0:0:0:0:
320,192,56922,1,2,0:0:0:0:
448,192,56922,1,0,0:0:0:30:Tom1.wav
192,192,57094,1,0,0:0:0:30:Tom2.wav
64,192,57265,1,2,0:0:0:0:
448,192,57265,1,8,0:0:0:0:
192,192,57437,1,2,0:0:0:0:
320,192,57437,128,0,57780:0:0:0:0:
64,192,57780,1,2,0:0:0:0:
192,192,57780,1,0,0:0:0:0:
64,192,57951,1,2,0:0:0:0:
192,192,57951,1,8,0:0:0:0:
320,192,58122,1,2,0:0:0:0:
448,192,58122,1,0,0:0:0:0:
448,192,58465,128,0,58637:0:0:0:0:
192,192,58637,128,0,58808:0:0:0:0:
320,192,58808,128,8,58980:0:0:0:0:
64,192,58980,128,2,59322:0:0:0:0:
448,192,58980,1,4,0:0:0:0:
448,192,59322,128,10,59494:0:0:0:0:
64,192,59494,128,0,59665:0:0:0:0:
320,192,59665,128,2,59837:0:0:0:0:
192,192,59837,128,0,60008:0:0:0:0:
448,192,60008,128,10,60180:0:0:0:0:
64,192,60180,128,0,60351:0:0:0:0:
320,192,60351,128,2,60522:0:0:0:0:
192,192,60522,128,0,60694:0:0:0:0:
448,192,60694,128,10,60865:0:0:0:0:
64,192,60865,128,0,61037:0:0:0:0:
320,192,61037,1,2,0:0:0:0:
192,192,61208,128,0,61380:0:0:0:0:
448,192,61380,128,10,61551:0:0:0:0:
64,192,61551,128,0,61722:0:0:0:0:
320,192,61722,128,2,62065:0:0:0:0:
192,192,62065,128,10,62237:0:0:0:0:
448,192,62237,128,0,62408:0:0:0:0:
64,192,62408,128,2,62580:0:0:0:0:
320,192,62580,128,0,62751:0:0:0:0:
192,192,62751,128,10,62922:0:0:0:0:
448,192,62922,128,0,63094:0:0:0:0:
320,192,63094,128,2,63265:0:0:0:0:
192,192,63265,128,0,63437:0:0:0:0:
64,192,63437,128,10,63608:0:0:0:0:
448,192,63608,128,8,63780:0:0:0:0:
320,192,63780,1,2,0:0:0:0:
64,192,63951,1,0,0:0:0:0:
320,192,64122,1,2,0:0:0:0:
448,192,64122,1,0,0:0:0:0:
64,192,64294,1,2,0:0:0:0:
192,192,64294,1,0,0:0:0:0:
320,192,64637,1,0,0:0:0:0:
192,192,64808,1,0,0:0:0:0:
64,192,64980,1,2,0:0:0:0:
448,192,64980,1,0,0:0:0:0:
192,192,65322,1,0,0:0:0:0:
320,192,65494,1,0,0:0:0:30:Tom1.wav
64,192,65665,1,2,0:0:0:0:
448,192,65665,1,0,0:0:0:0:
320,192,66008,1,0,0:0:0:0:
192,192,66180,1,0,0:0:0:0:
64,192,66351,1,2,0:0:0:0:
448,192,66351,1,0,0:0:0:0:
320,192,66694,128,8,66865:0:0:0:0:
64,192,66865,1,2,0:0:0:0:
192,192,66865,1,0,0:0:0:0:
448,192,67037,128,8,67208:0:0:0:0:
64,192,67208,128,2,67551:0:0:0:0:
192,192,67208,1,0,0:0:0:0:
320,192,67551,128,2,67894:0:0:0:0:
448,192,67551,1,0,0:0:0:0:
64,192,67894,1,2,0:0:0:0:
192,192,67894,128,0,68237:0:0:0:0:
320,192,68237,1,2,0:0:0:0:
448,192,68237,128,0,68580:0:0:0:0:
64,192,68580,1,2,0:0:0:0:
192,192,68580,1,0,0:0:0:0:
64,192,68751,1,2,0:0:0:0:
192,192,68751,1,0,0:0:0:0:
320,192,68922,1,8,0:0:0:0:
448,192,68922,1,0,0:0:0:0:
64,192,69094,1,2,0:0:0:0:
192,192,69094,1,0,0:0:0:0:
448,192,69437,128,2,69608:0:0:0:0:
192,192,69608,128,8,69780:0:0:0:0:
320,192,69780,128,10,69951:0:0:0:0:
64,192,69951,1,2,0:0:0:0:
448,192,69951,128,4,70294:0:0:0:0:
64,192,70294,128,10,70465:0:0:0:0:
448,192,70465,128,0,70637:0:0:0:0:
192,192,70637,128,2,70808:0:0:0:0:
320,192,70808,128,0,70980:0:0:0:0:
64,192,70980,128,10,71151:0:0:0:0:
448,192,71151,128,0,71322:0:0:0:0:
192,192,71322,128,2,71494:0:0:0:0:
320,192,71494,128,0,71665:0:0:0:0:
64,192,71665,128,10,71837:0:0:0:0:
448,192,71837,128,0,72008:0:0:0:0:
192,192,72008,1,2,0:0:0:0:
320,192,72180,128,0,72351:0:0:0:0:
64,192,72351,128,10,72522:0:0:0:0:
448,192,72522,128,0,72694:0:0:0:0:
192,192,72694,128,2,73037:0:0:0:0:
320,192,73037,128,10,73208:0:0:0:0:
64,192,73208,128,0,73380:0:0:0:0:
448,192,73380,128,2,73551:0:0:0:0:
192,192,73551,128,0,73722:0:0:0:0:
320,192,73722,128,10,73894:0:0:0:0:
64,192,73894,128,0,74065:0:0:0:0:
192,192,74065,128,2,74237:0:0:0:0:
320,192,74237,128,0,74408:0:0:0:0:
448,192,74408,128,10,74580:0:0:0:0:
64,192,74580,128,8,74751:0:0:0:0:
192,192,74751,1,2,0:0:0:0:
448,192,74922,1,0,0:0:0:0:
64,192,75094,1,2,0:0:0:0:
192,192,75094,1,0,0:0:0:0:
320,192,75265,1,2,0:0:0:0:
448,192,75265,1,0,0:0:0:0:
192,192,75608,1,0,0:0:0:0:
320,192,75780,1,0,0:0:0:0:
64,192,75951,1,2,0:0:0:0:
192,192,75951,1,0,0:0:0:0:
320,192,76294,1,0,0:0:0:0:
192,192,76465,1,0,0:0:0:40:Tom2.wav
320,192,76637,1,2,0:0:0:0:
448,192,76637,1,0,0:0:0:0:
192,192,76980,1,0,0:0:0:0:
320,192,77151,1,0,0:0:0:0:
64,192,77322,1,2,0:0:0:0:
192,192,77322,1,0,0:0:0:0:
448,192,77665,128,8,77837:0:0:0:0:
192,192,77837,128,2,78008:0:0:0:0:
320,192,78008,128,8,78180:0:0:0:0:
64,192,78180,128,2,78522:0:0:0:0:
448,192,78180,1,4,0:0:0:0:
320,192,78522,128,2,78865:0:0:0:0:
448,192,78522,1,0,0:0:0:0:
64,192,78865,1,2,0:0:0:0:
192,192,78865,128,0,79208:0:0:0:0:
320,192,79208,1,2,0:0:0:0:
448,192,79208,128,0,79551:0:0:0:0:
64,192,79551,1,2,0:0:0:0:
192,192,79551,1,8,0:0:0:0:
448,192,79722,1,8,0:0:0:0:
192,192,79894,1,2,0:0:0:0:
320,192,79894,1,0,0:0:0:0:
64,192,80065,1,8,0:0:0:0:
320,192,80237,1,2,0:0:0:0:
448,192,80237,1,0,0:0:0:0:
192,192,80408,128,8,80580:0:0:0:0:
64,192,80580,1,2,0:0:0:0:
448,192,80580,1,0,0:0:0:0:
320,192,80751,128,8,80922:0:0:0:0:
64,192,80922,1,2,0:0:0:0:
192,192,80922,1,4,0:0:0:0:
448,192,81094,128,0,81265:0:0:0:0:
192,192,81265,128,0,81437:0:0:0:35:Tom1.wav
320,192,81437,128,2,81608:0:0:0:0:
448,192,81437,1,0,0:0:0:0:
64,192,81608,128,2,81780:0:0:0:0:
192,192,81608,1,0,0:0:0:0:
448,192,81780,128,0,81951:0:0:0:0:
320,192,81951,1,0,0:0:0:40:Tom2.wav
64,192,82122,128,0,82294:0:0:0:0:
320,192,82294,128,2,82465:0:0:0:0:
448,192,82294,1,0,0:0:0:0:
192,192,82465,128,0,82637:0:0:0:0:
448,192,82637,128,0,82808:0:0:0:30:Tom1.wav
192,192,82808,1,2,0:0:0:0:
64,192,82808,128,0,82980:0:0:0:0:
320,192,82980,1,2,0:0:0:0:
448,192,82980,1,0,0:0:0:0:
64,192,83151,128,0,83322:0:0:0:0:
192,192,83322,128,0,83494:0:0:0:40:Tom2.wav
448,192,83494,128,8,83665:0:0:0:0:
64,192,83665,1,2,0:0:0:0:
192,192,83665,1,4,0:0:0:0:
64,192,84008,1,2,0:0:0:0:
192,192,84008,1,0,0:0:0:0:
320,192,84351,1,2,0:0:0:0:
448,192,84351,1,0,0:0:0:0:
320,192,84694,1,2,0:0:0:0:
448,192,84694,1,0,0:0:0:0:
64,192,85037,1,2,0:0:0:0:
192,192,85037,1,0,0:0:0:0:
320,192,85208,1,2,0:0:0:0:
64,192,85380,1,2,0:0:0:0:
448,192,85380,1,0,0:0:0:0:
192,192,85551,1,2,0:0:0:0:
320,192,85722,1,2,0:0:0:0:
448,192,85722,1,0,0:0:0:0:
64,192,85894,128,10,86065:0:0:0:0:
192,192,86065,1,2,0:0:0:0:
448,192,86237,128,2,86408:0:0:0:0:
64,192,86408,1,2,0:0:0:0:
320,192,86408,1,4,0:0:0:0:
192,192,86580,128,0,86751:0:0:0:0:
320,192,86751,128,0,86922:0:0:0:0:
64,192,86922,1,2,0:0:0:0:
192,192,86922,1,0,0:0:0:0:
320,192,87094,1,2,0:0:0:0:
448,192,87094,128,0,87265:0:0:0:0:
64,192,87265,128,0,87437:0:0:0:30:Tom1.wav
320,192,87437,128,10,87608:0:0:0:0:
448,192,87437,1,0,0:0:0:40:Tom2.wav
192,192,87608,128,0,87780:0:0:0:0:
64,192,87780,1,2,0:0:0:0:
448,192,87780,1,0,0:0:0:0:
320,192,87951,128,0,88122:0:0:0:0:
192,192,88122,128,8,88294:0:0:0:0:
64,192,88294,1,2,0:0:0:0:
448,192,88294,1,0,0:0:0:0:
320,192,88465,128,2,88637:0:0:0:0:
64,192,88637,1,2,0:0:0:0:
448,192,88637,1,0,0:0:0:30:Tom1.wav
192,192,88808,128,10,88980:0:0:0:0:
64,192,88980,1,2,0:0:0:0:
320,192,89151,1,2,0:0:0:0:
448,192,89151,1,8,0:0:0:0:
64,192,89322,1,8,0:0:0:0:
192,192,89322,1,2,0:0:0:0:
320,192,89494,1,8,0:0:0:0:
448,192,89494,1,2,0:0:0:0:
64,192,89665,1,8,0:0:0:0:
192,192,89665,1,2,0:0:0:0:
192,192,90008,1,8,0:0:0:0:
448,192,90008,1,2,0:0:0:0:
64,192,90180,1,8,0:0:0:0:
320,192,90180,1,2,0:0:0:0:
192,192,90351,1,8,0:0:0:0:
448,192,90351,1,2,0:0:0:0:
64,192,90694,1,8,0:0:0:0:
448,192,90694,1,2,0:0:0:0:
192,192,90865,1,8,0:0:0:0:
320,192,90865,1,2,0:0:0:0:
64,192,91037,1,8,0:0:0:0:
448,192,91037,1,2,0:0:0:0:
