osu file format v14

[General]
AudioFilename: audio.mp3
AudioLeadIn: 0
PreviewTime: 58385
Countdown: 0
SampleSet: Soft
StackLeniency: 0.4
Mode: 2
LetterboxInBreaks: 0
WidescreenStoryboard: 1

[Editor]
Bookmarks: 12356,17842,23327,28813,34299,39785,44249,45270,50756,58985,76992,78534
DistanceSpacing: 4.8
BeatDivisor: 4
GridSize: 16
TimelineZoom: 2.6

[Metadata]
Title:Honto da yo (Cut Ver.)
TitleUnicode:ホントだよ (Cut Ver.)
Artist:TrySail
ArtistUnicode:TrySail
Creator:Greaper
Version:Spec's Overdose
Source:
Tags:Spectator Secre chickenbible Bastian Jorkseljund 麻倉 もも Momo Asakura 雨宮 天 Amamiya Sora 夏川 椎菜 Natsukawa Shiina コバルト Sail Japanese Pop jpop j-pop
BeatmapID:2583316
BeatmapSetID:1164152

[Difficulty]
HPDrainRate:6
CircleSize:4.1
OverallDifficulty:9.2
ApproachRate:9.2
SliderMultiplier:1.9
SliderTickRate:2

[Events]
//Background and Video events
0,0,"spec_BG.jpg",0,0
//Break Periods
//Storyboard Layer 0 (Background)
//Storyboard Layer 1 (Fail)
//Storyboard Layer 2 (Pass)
//Storyboard Layer 3 (Foreground)
//Storyboard Layer 4 (Overlay)
//Storyboard Sound Samples

[TimingPoints]
1373,342.857142857143,4,2,11,60,1,0
12687,-100,4,2,12,60,0,0
12858,-100,4,2,11,60,0,0
13373,-100,4,2,12,60,0,0
13544,-100,4,2,11,60,0,0
14058,-100,4,2,12,60,0,0
14230,-100,4,2,11,60,0,0
14744,-100,4,2,12,60,0,0
14915,-100,4,2,11,60,0,0
15087,-100,4,2,11,60,0,0
17830,-100,4,2,11,60,0,0
23315,-100,4,2,11,60,0,0
28801,-100,4,2,11,60,0,0
30173,-100,4,2,11,40,0,0
30258,-100,4,2,11,60,0,0
31544,-100,4,2,11,40,0,0
31630,-100,4,2,11,60,0,0
32915,-100,4,2,11,40,0,0
33001,-100,4,2,11,60,0,0
34115,-100,4,2,11,60,0,0
34287,-100,4,2,11,60,0,0
39773,-100,4,2,11,60,0,0
41144,-100,4,2,11,40,0,0
41230,-100,4,2,11,60,0,0
42515,-100,4,2,11,40,0,0
42601,-100,4,2,11,60,0,0
43887,-100,4,2,11,40,0,0
43973,-100,4,2,11,60,0,0
45258,-100,4,2,11,60,0,0
46287,-100,4,2,12,60,0,0
46630,-100,4,2,11,60,0,0
47658,-100,4,2,12,60,0,0
48001,-100,4,2,11,60,0,0
49030,-100,4,2,12,60,0,0
49373,-100,4,2,11,60,0,0
50401,-100,4,2,12,60,0,0
50744,-100,4,2,11,60,0,0
58287,-83.3333333333333,4,2,11,60,0,0
58973,-90.9090909090909,4,2,11,85,0,1
64287,-90.9090909090909,4,2,11,70,0,0
67201,-90.9090909090909,4,2,11,85,0,1
69773,-90.9090909090909,4,2,11,85,0,0
69944,-90.9090909090909,4,2,11,85,0,1
75258,-90.9090909090909,4,2,11,70,0,0
78173,-90.9090909090909,4,2,11,85,0,1
80915,-100,4,2,11,70,0,0
81258,-100,4,2,12,70,0,0
81430,-100,4,2,11,70,0,0
81944,-100,4,2,12,70,0,0
82115,-100,4,2,11,70,0,0
82630,-100,4,2,12,70,0,0
82801,-100,4,2,11,70,0,0
83315,-100,4,2,12,70,0,0
83487,-100,4,2,11,70,0,0
88630,-83.3333333333333,4,2,11,70,0,0

[Colours]
Combo1 : 216,158,150
Combo2 : 122,214,233
Combo3 : 173,238,130

[HitObjects]
253,69,858,6,0,L|261:174,1,95
121,166,1201,1,0,0:0:0:0:
400,233,1373,6,0,P|468:200|386:160,1,190,4|0,0:0|0:0,0:0:0:0:
259,106,1887,1,0,0:0:0:0:
405,207,2058,2,0,L|289:211,1,95
174,314,2401,2,0,L|283:311,1,95
36,205,2744,5,8,0:3:0:0:
175,205,2915,1,0,0:0:0:0:
36,205,3087,1,0,0:0:0:0:
379,204,3258,1,8,0:3:0:0:
260,291,3601,2,0,L|269:179,1,95
412,180,3944,1,0,0:0:0:0:
150,259,4115,6,0,P|95:224|174:145,1,190,8|0,0:3|0:0,0:0:0:0:
312,144,4630,1,0,0:0:0:0:
151,123,4801,2,0,L|259:117,1,95
408,175,5144,2,0,L|414:283,1,95
84,241,5487,5,8,0:3:0:0:
223,241,5658,1,0,0:0:0:0:
84,241,5830,1,0,0:0:0:0:
446,240,6001,1,8,0:3:0:0:
143,346,6344,6,0,L|133:236,1,95
368,224,6687,2,0,P|421:181|354:105,1,190,8|0,0:3|0:0,0:0:0:0:
196,103,7201,1,0,0:0:0:0:
468,106,7373,1,8,0:3:0:0:
369,346,7715,6,0,L|379:236,1,95
138,222,8058,2,0,P|85:179|152:103,1,190,8|0,0:3|0:0,0:0:0:0:
311,105,8572,1,0,0:0:0:0:
44,106,8744,1,8,0:3:0:0:
173,106,8915,1,0,0:0:0:0:
44,187,9087,2,0,L|154:189,1,95,8|8,0:0|0:0,0:0:0:0:
289,193,9430,1,8,0:0:0:0:
49,350,9601,6,0,L|45:236,1,95,8|0,0:3|0:0,0:0:0:0:
343,94,9944,2,0,L|457:92,1,95,8|0,0:3|0:0,0:0:0:0:
191,209,10287,2,0,L|85:214,1,95,8|0,0:3|0:0,0:0:0:0:
326,338,10630,2,0,L|201:345,1,95,8|0,0:3|0:0,0:0:0:0:
462,159,10973,5,8,0:3:0:0:
312,136,11144,1,8,0:3:0:0:
462,159,11315,1,8,0:3:0:0:
312,136,11487,1,8,0:3:0:0:
66,279,11658,2,0,L|56:193,1,47.5,8|8,0:0|0:0,0:0:0:0:
231,148,11830,1,8,0:0:0:0:
145,58,12001,2,0,L|85:64,1,47.5,8|0,0:3|0:0,0:0:0:0:
293,250,12173,2,0,L|353:256,1,47.5
129,346,12344,5,6,0:0:0:0:
52,289,12515,1,2,0:0:0:0:
31,195,12687,1,10,0:3:0:0:
66,106,12858,1,10,0:3:0:0:
245,134,13030,1,10,0:3:0:0:
66,106,13201,2,0,L|196:106,1,95,2|8,0:0|0:3,0:0:0:0:
392,240,13544,6,0,L|498:239,2,95,2|10|2,0:0|0:3|0:0,0:0:0:0:
213,238,14058,1,10,0:3:0:0:
392,240,14230,1,10,0:3:0:0:
242,147,14401,2,0,L|343:148,1,95,8|10,0:0|0:0,0:0:0:0:
179,131,14744,1,10,0:3:0:0:
472,41,14915,6,0,L|476:172,1,95,2|4,0:0|0:0,0:0:0:0:
246,220,15258,1,2,0:0:0:0:
400,220,15430,1,10,0:3:0:0:
164,328,15601,2,0,L|61:327,1,95,2|10,0:0|0:3,0:0:0:0:
214,233,15944,2,0,L|347:234,1,95,2|8,0:0|0:3,0:0:0:0:
40,41,16287,6,0,L|36:172,1,95,2|10,0:0|0:3,0:0:0:0:
266,220,16630,1,10,0:3:0:0:
112,220,16802,1,10,0:3:0:0:
266,220,16973,1,10,0:3:0:0:
112,220,17144,2,0,L|29:220,1,47.5,8|8,0:0|0:0,0:0:0:0:
311,148,17315,1,10,0:3:0:0:
440,151,17487,1,10,0:3:0:0:
155,142,17658,2,0,L|72:142,1,47.5,10|0,0:3|0:0,0:0:0:0:
375,353,17830,6,0,L|384:222,1,95,4|2,0:0|0:0,0:0:0:0:
222,199,18173,2,0,L|331:192,1,95,10|2,0:3|0:0,0:0:0:0:
34,129,18515,1,10,0:3:0:0:
290,61,18687,2,0,L|394:56,1,95,2|8,0:0|0:0,0:0:0:0:
145,204,19030,6,0,L|35:196,2,95,2|10|2,0:0|0:3|0:0,0:0:0:0:
407,129,19544,1,10,0:0:0:0:
151,61,19716,2,0,L|47:56,1,95,2|8,0:0|0:3,0:0:0:0:
320,128,20058,1,2,0:0:0:0:
170,144,20230,1,10,0:0:0:0:
320,128,20401,1,2,0:0:0:0:
60,337,20573,6,0,L|52:215,1,95,8|2,0:3|0:0,0:0:0:0:
214,217,20915,2,0,L|110:214,1,95,10|2,0:0|0:0,0:0:0:0:
384,145,21258,1,10,0:3:0:0:
119,108,21430,2,0,L|15:105,1,95,2|8,0:0|0:0,0:0:0:0:
307,281,21773,6,0,L|429:275,2,95,2|10|10,0:0|0:3|0:3,0:0:0:0:
78,177,22287,1,10,0:0:0:0:
343,140,22459,2,0,L|447:137,1,95,10|8,0:3|0:3,0:0:0:0:
154,160,22801,1,10,0:3:0:0:
309,164,22973,1,10,0:0:0:0:
154,160,23144,2,0,L|75:160,1,47.5,10|8,0:3|0:3,0:0:0:0:
354,317,23315,5,6,0:0:0:0:
428,275,23487,1,0,0:0:0:0:
443,191,23658,1,8,0:3:0:0:
412,110,23830,1,0,0:0:0:0:
295,77,24001,2,0,L|399:72,1,95,10|0,0:3|0:0,0:0:0:0:
256,174,24344,2,0,L|145:177,1,95,8|8,0:3|0:1,0:0:0:0:
313,193,24687,6,0,L|318:307,1,95,10|0,0:3|0:0,0:0:0:0:
156,350,25030,2,0,L|269:347,1,95,8|0,0:3|0:0,0:0:0:0:
407,269,25373,2,0,L|206:243,2,190,10|8|10,0:3|0:3|0:3,0:0:0:0:
169,114,26401,2,0,L|153:229,1,95,8|0,0:3|0:0,0:0:0:0:
302,286,26744,5,10,0:3:0:0:
378,247,26915,1,0,0:0:0:0:
395,162,27087,1,8,0:3:0:0:
357,85,27258,1,8,0:1:0:0:
206,76,27430,2,0,L|302:70,2,95,10|2|10,0:3|0:0|0:3,0:0:0:0:
359,145,27944,1,2,0:0:0:0:
201,188,28115,6,0,L|197:280,1,47.5,8|8,0:0|0:0,0:0:0:0:
364,291,28287,2,0,L|502:300,1,95,8|8,0:0|0:3,0:0:0:0:
339,203,28630,2,0,L|288:197,1,47.5,8|8,0:0|0:0,0:0:0:0:
65,334,28801,6,0,L|56:208,1,95,4|0,0:0|0:0,0:0:0:0:
211,249,29144,2,0,L|327:243,1,95,8|0,0:3|0:0,0:0:0:0:
159,269,29487,1,8,0:3:0:0:
87,222,29658,1,0,0:0:0:0:
67,138,29830,1,8,0:3:0:0:
104,61,30001,1,4,0:3:0:0:
383,79,30173,6,0,L|265:75,1,95,4|0,0:0|0:0,0:0:0:0:
44,166,30515,1,8,0:3:0:0:
319,256,30687,2,0,L|443:261,1,95,0|8,0:0|0:3,0:0:0:0:
291,160,31030,2,0,L|182:153,2,95,0|8|4,0:0|0:3|0:3,0:0:0:0:
52,347,31544,6,0,L|45:237,1,95,4|0,0:0|0:0,0:0:0:0:
191,239,31887,1,8,0:3:0:0:
43,243,32058,1,0,0:0:0:0:
314,98,32230,2,0,L|439:96,1,95,8|0,0:3|0:0,0:0:0:0:
149,288,32573,2,0,L|39:294,1,95,8|4,0:3|0:3,0:0:0:0:
335,192,32915,5,4,0:0:0:0:
179,198,33087,1,8,0:3:0:0:
335,192,33258,1,8,0:0:0:0:
179,198,33430,1,8,0:3:0:0:
459,115,33601,2,0,L|398:115,1,47.5,8|8,0:0|0:0,0:0:0:0:
225,239,33773,2,0,L|95:238,1,95,8|8,0:0|0:3,0:0:0:0:
358,189,34115,2,0,L|435:191,1,47.5,8|8,0:0|0:0,0:0:0:0:
191,326,34287,5,6,0:0:0:0:
117,284,34459,1,0,0:0:0:0:
102,200,34630,1,8,0:0:0:0:
133,119,34802,1,0,0:0:0:0:
250,86,34973,2,0,L|146:81,1,95,8|0,0:3|0:0,0:0:0:0:
312,204,35316,2,0,L|322:90,1,95,8|0,0:0|0:0,0:0:0:0:
147,183,35658,6,0,L|241:187,2,95,10|0|8,0:3|0:0|0:0,0:0:0:0:
306,119,36173,1,0,0:0:0:0:
144,111,36344,2,0,P|80:156|150:213,1,190,10|8,0:3|0:0,0:0:0:0:
287,210,36858,1,0,0:0:0:0:
45,359,37030,6,0,L|32:170,1,190,10|8,0:3|0:0,0:0:0:0:
166,92,37544,2,0,L|51:98,1,95,0|8,0:0|0:3,0:0:0:0:
203,195,37887,2,0,L|321:186,2,95,0|8|0,0:0|0:0|0:0,0:0:0:0:
469,146,38401,5,10,0:3:0:0:
314,129,38573,1,2,0:0:0:0:
469,146,38744,1,10,0:0:0:0:
314,129,38915,1,2,0:0:0:0:
78,288,39087,2,0,L|68:204,1,47.5,8|8,0:0|0:0,0:0:0:0:
306,220,39258,2,0,L|426:208,1,95,8|8,0:0|0:3,0:0:0:0:
172,118,39601,2,0,L|95:113,1,47.5,8|8,0:0|0:0,0:0:0:0:
355,324,39773,6,0,L|456:313,1,95,14|0,0:0|0:0,0:0:0:0:
85,249,40115,2,0,L|81:133,1,95,10|0,0:0|0:0,0:0:0:0:
339,240,40458,1,10,0:3:0:0:
415,201,40630,1,0,0:0:0:0:
434,117,40801,1,10,0:0:0:0:
400,38,40973,1,0,0:0:0:0:
85,107,41144,6,0,L|203:103,1,95,6|0,0:0|0:0,0:0:0:0:
424,194,41486,1,10,0:0:0:0:
149,284,41658,2,0,L|25:289,1,95,0|10,0:0|0:3,0:0:0:0:
177,188,42001,2,0,L|286:181,1,95,0|10,0:0|0:0,0:0:0:0:
115,190,42344,6,0,L|107:63,1,95,0|6,0:0|0:0,0:0:0:0:
278,70,42687,1,0,0:0:0:0:
107,64,42858,1,10,0:0:0:0:
423,252,43030,2,0,L|431:125,1,95,0|10,0:0|0:3,0:0:0:0:
64,161,43373,1,0,0:0:0:0:
213,163,43544,1,10,0:0:0:0:
64,161,43715,1,0,0:0:0:0:
460,262,43887,5,6,0:0:0:0:
317,260,44058,1,2,0:0:0:0:
52,262,44230,1,10,0:0:0:0:
195,260,44401,1,2,0:0:0:0:
462,158,44573,2,0,L|383:149,1,47.5,8|8,0:0|0:0,0:0:0:0:
192,301,44744,1,8,0:0:0:0:
334,266,44915,1,8,0:0:0:0:
62,243,45087,2,0,L|51:157,1,47.5,8|0,0:0|0:0,0:0:0:0:
303,185,45258,6,0,P|372:153|324:54,1,190,4|0,0:0|0:0,0:0:0:0:
188,64,45773,1,8,0:3:0:0:
188,64,45944,1,8,0:3:0:0:
465,64,46287,2,0,L|353:57,1,95,8|0,0:0|0:0,0:0:0:0:
121,197,46630,6,0,P|52:165|100:66,1,190,8|0,0:3|0:0,0:0:0:0:
236,76,47145,1,8,0:3:0:0:
236,76,47316,1,8,0:3:0:0:
35,68,47658,2,0,L|29:192,1,95,8|0,0:0|0:0,0:0:0:0:
326,260,48001,6,0,L|125:247,1,190,8|0,0:3|0:0,0:0:0:0:
261,176,48515,1,8,0:3:0:0:
261,176,48687,1,8,0:3:0:0:
46,112,49030,2,0,L|182:100,1,95,8|0,0:0|0:0,0:0:0:0:
445,326,49373,6,0,L|244:313,1,190,8|0,0:3|0:0,0:0:0:0:
380,242,49887,1,8,0:3:0:0:
380,242,50059,1,8,0:3:0:0:
208,238,50230,2,0,P|145:192|216:133,1,190
475,137,50744,5,4,0:0:0:0:
256,192,50915,12,0,51944,0:0:0:0:
184,274,52115,6,0,L|171:193,1,47.5,8|8,0:0|0:0,0:0:0:0:
374,193,52287,2,0,L|489:181,1,95,8|8,0:0|0:3,0:0:0:0:
332,121,52630,1,0,0:0:0:0:
66,301,52801,2,0,L|147:292,1,47.5,8|8,0:0|0:0,0:0:0:0:
323,197,52973,1,10,0:3:0:0:
173,206,53144,1,8,0:0:0:0:
453,280,53315,6,0,L|463:88,1,190,10|2,0:3|0:0,0:0:0:0:
308,56,53830,1,10,0:3:0:0:
299,146,54001,1,0,0:0:0:0:
466,199,54173,1,10,0:3:0:0:
340,254,54344,1,2,0:0:0:0:
468,315,54515,1,8,0:3:0:0:
47,239,54687,6,0,P|55:165|177:116,1,190,2|10,0:0|0:3,0:0:0:0:
305,183,55201,2,0,L|195:186,1,95,10|8,0:3|0:3,0:0:0:0:
456,264,55544,1,10,0:3:0:0:
153,342,55715,2,0,L|31:352,1,95,10|8,0:3|0:3,0:0:0:0:
360,187,56058,6,0,P|407:147|334:54,1,190,8|0,0:0|0:0,0:0:0:0:
107,138,56573,2,0,L|99:235,1,95
354,289,56915,2,0,L|456:281,2,95,8|0|8,0:3|0:0|0:3,0:0:0:0:
44,212,57430,1,8,0:3:0:0:
43,277,57773,5,8,0:0:0:0:
332,220,57944,1,8,0:0:0:0:
43,277,58115,1,8,0:0:0:0:
207,216,58458,1,8,0:0:0:0:
339,118,58630,2,0,L|272:124,1,56.9999982604981,8|8,0:0|0:0,0:0:0:0:
109,226,58801,2,0,L|33:234,1,56.9999982604981,8|8,0:0|0:0,0:0:0:0:
309,256,58973,6,0,L|437:240,1,104.500003189087,4|0,0:0|0:0,0:0:0:0:
249,182,59315,1,8,0:0:0:0:
416,172,59487,1,0,0:0:0:0:
142,357,59658,2,0,L|133:214,1,104.500003189087,8|2,0:3|0:0,0:0:0:0:
308,321,60001,2,0,L|447:315,1,104.500003189087,8|0,0:0|0:0,0:0:0:0:
96,192,60344,5,8,0:3:0:0:
240,192,60515,1,0,0:0:0:0:
96,192,60687,1,10,0:0:0:0:
391,203,60858,2,0,P|445:169|380:62,1,209.000006378174,0|2,0:0|0:0,0:0:0:0:
248,167,61373,2,0,L|389:167,1,104.500003189087,8|0,0:0|0:0,0:0:0:0:
47,309,61715,6,0,L|42:192,1,104.500003189087,8|0,0:3|0:0,0:0:0:0:
310,202,62058,1,10,0:0:0:0:
42,204,62230,1,0,0:0:0:0:
327,69,62401,2,0,L|460:61,1,104.500003189087,8|2,0:3|0:0,0:0:0:0:
92,303,62744,2,0,L|229:296,1,104.500003189087,8|0,0:0|0:0,0:0:0:0:
471,187,63087,1,8,0:3:0:0:
329,185,63258,1,0,0:0:0:0:
471,187,63430,1,10,0:0:0:0:
80,181,63601,1,0,0:0:0:0:
199,182,63944,5,2,0:0:0:0:
54,182,64115,1,8,0:0:0:0:
457,185,64287,1,6,0:0:0:0:
313,182,64630,5,0,0:0:0:0:
458,182,64801,1,0,0:0:0:0:
55,185,64973,1,10,0:0:0:0:
199,182,65315,5,0,0:0:0:0:
54,182,65486,1,0,0:0:0:0:
457,185,65658,1,10,0:3:0:0:
313,182,66001,5,0,0:0:0:0:
458,182,66172,1,0,0:0:0:0:
55,185,66344,1,10,0:0:0:0:
311,70,66515,2,0,L|392:73,1,52.2500015945435,0|8,0:0|0:0,0:0:0:0:
211,141,66687,1,8,0:0:0:0:
310,237,66858,2,0,L|385:237,1,52.2500015945435,8|0,0:3|0:0,0:0:0:0:
137,95,67030,2,0,L|215:96,1,52.2500015945435,8|8,0:0|0:0,0:0:0:0:
348,340,67201,6,0,L|472:331,1,104.500003189087,4|0,0:0|0:0,0:0:0:0:
164,340,67544,2,0,L|40:331,1,104.500003189087,8|0,0:0|0:0,0:0:0:0:
317,257,67887,2,0,L|196:249,1,104.500003189087,8|0,0:3|0:0,0:0:0:0:
455,189,68230,1,8,0:0:0:0:
292,197,68401,1,0,0:0:0:0:
38,342,68573,5,8,0:3:0:0:
192,341,68744,1,8,0:3:0:0:
38,342,68915,1,8,0:0:0:0:
192,341,69087,1,8,0:3:0:0:
474,262,69258,2,0,L|406:258,1,52.2500015945435,8|8,0:0|0:0,0:0:0:0:
245,258,69430,1,8,0:3:0:0:
347,348,69601,2,0,L|399:354,1,52.2500015945435,8|8,0:0|0:0,0:0:0:0:
197,199,69773,2,0,L|145:190,1,52.2500015945435,8|8,0:0|0:0,0:0:0:0:
408,349,69944,6,0,P|467:322|445:188,1,209.000006378174,4|8,0:0|0:0,0:0:0:0:
325,205,70458,1,0,0:0:0:0:
80,200,70630,2,0,L|73:84,1,104.500003189087,8|2,0:3|0:0,0:0:0:0:
234,46,70973,2,0,L|103:45,1,104.500003189087,8|0,0:0|0:0,0:0:0:0:
411,183,71315,5,8,0:3:0:0:
276,180,71487,1,0,0:0:0:0:
411,183,71658,1,10,0:0:0:0:
140,268,71830,2,0,P|83:220|161:128,1,209.000006378174,0|2,0:0|0:0,0:0:0:0:
386,255,72344,2,0,L|513:254,1,104.500003189087,8|0,0:0|0:0,0:0:0:0:
81,358,72687,6,0,L|69:138,1,209.000006378174,8|10,0:3|0:0,0:0:0:0:
354,146,73201,1,0,0:0:0:0:
70,177,73373,2,0,L|183:185,1,104.500003189087,8|2,0:3|0:0,0:0:0:0:
450,320,73715,2,0,L|323:307,1,104.500003189087,8|0,0:0|0:0,0:0:0:0:
66,294,74058,5,8,0:3:0:0:
212,307,74230,1,0,0:0:0:0:
66,294,74401,1,10,0:0:0:0:
439,224,74573,1,0,0:0:0:0:
290,226,74915,1,2,0:0:0:0:
444,227,75087,1,8,0:0:0:0:
83,166,75258,1,6,0:0:0:0:
221,227,75601,5,0,0:0:0:0:
68,227,75773,1,0,0:0:0:0:
429,166,75944,1,10,0:0:0:0:
292,228,76287,5,0,0:0:0:0:
444,227,76459,1,0,0:0:0:0:
83,166,76630,1,10,0:3:0:0:
221,228,76973,5,0,0:0:0:0:
68,227,77145,1,0,0:0:0:0:
429,166,77316,1,10,0:0:0:0:
310,224,77487,2,0,L|249:217,1,52.2500015945435,8|8,0:0|0:0,0:0:0:0:
439,174,77658,1,8,0:0:0:0:
317,325,77830,2,0,L|251:314,1,52.2500015945435,8|0,0:3|0:0,0:0:0:0:
89,344,78001,2,0,L|16:333,1,52.2500015945435,8|8,0:0|0:0,0:0:0:0:
325,233,78173,5,4,0:0:0:0:
483,224,78344,1,0,0:0:0:0:
187,233,78515,1,8,0:0:0:0:
29,224,78686,1,0,0:0:0:0:
463,143,78858,1,8,0:3:0:0:
326,145,79030,1,0,0:0:0:0:
49,143,79201,1,8,0:0:0:0:
186,145,79373,1,0,0:0:0:0:
457,172,79544,5,8,0:3:0:0:
284,174,79715,1,8,0:3:0:0:
457,172,79887,1,8,0:0:0:0:
284,174,80058,1,8,0:3:0:0:
52,329,80230,2,0,L|40:238,1,52.2500015945435,8|8,0:0|0:0,0:0:0:0:
226,194,80401,1,8,0:3:0:0:
96,128,80573,1,8,0:0:0:0:
400,82,80744,1,8,0:0:0:0:
133,352,80915,5,6,0:0:0:0:
66,298,81087,1,2,0:0:0:0:
46,215,81258,1,10,0:3:0:0:
83,137,81430,1,10,0:3:0:0:
262,120,81601,1,10,0:3:0:0:
85,204,81773,2,0,L|211:205,1,95,2|8,0:0|0:3,0:0:0:0:
454,130,82115,6,0,L|463:266,1,95,2|10,0:0|0:3,0:0:0:0:
324,192,82458,1,2,0:0:0:0:
86,111,82629,1,10,0:3:0:0:
256,148,82801,1,10,0:3:0:0:
86,111,82972,2,0,L|187:112,2,95,8|10|10,0:0|0:0|0:3,0:0:0:0:
416,45,83487,2,0,L|427:152,1,95,10|4,0:0|0:0,0:0:0:0:
152,147,83830,1,2,0:0:0:0:
405,139,84001,1,10,0:3:0:0:
133,238,84173,2,0,L|31:240,1,95,2|10,0:0|0:3,0:0:0:0:
296,234,84515,1,2,0:0:0:0:
39,240,84687,1,8,0:3:0:0:
377,300,84858,6,0,P|434:258|362:179,1,190,2|10,0:0|0:3,0:0:0:0:
81,173,85373,1,10,0:3:0:0:
377,177,85544,1,10,0:3:0:0:
80,249,85715,2,0,L|17:249,2,47.5,8|8|10,0:0|0:0|0:0,0:0:0:0:
214,247,86058,1,10,0:3:0:0:
478,246,86230,1,10,0:3:0:0:
104,332,86401,5,4,0:0:0:0:
38,276,86573,1,2,0:0:0:0:
22,192,86744,1,2,0:0:0:0:
49,111,86915,1,0,0:3:0:0:
145,50,87087,1,2,0:3:0:0:
321,131,87258,2,0,L|207:131,1,95,2|2,0:0|0:3,0:0:0:0:
483,86,87601,6,0,L|489:293,1,190,2|2,0:0|0:0,0:0:0:0:
230,327,88115,2,0,L|111:327,1,95,10|8,0:0|0:3,0:0:0:0:
292,254,88458,1,10,0:3:0:0:
130,250,88630,1,8,0:3:0:0:
371,84,88801,2,0,L|492:81,1,113.999996520996,10|8,0:3|0:3,0:0:0:0:
78,281,89144,5,10,0:0:0:0:
227,282,89315,1,10,0:0:0:0:
78,281,89487,1,10,0:0:0:0:
439,285,89658,1,10,0:0:0:0:
460,181,90001,5,10,0:0:0:0:
320,178,90173,1,10,0:0:0:0:
44,171,90344,1,10,0:0:0:0:
45,260,90687,5,10,0:0:0:0:
389,265,90858,1,10,0:0:0:0:
45,260,91030,1,10,0:0:0:0:
