osu file format v14

[General]
AudioFilename: audio.mp3
AudioLeadIn: 0
PreviewTime: 58385
Countdown: 0
SampleSet: Soft
StackLeniency: 0.4
Mode: 2
LetterboxInBreaks: 0
WidescreenStoryboard: 1

[Editor]
Bookmarks: 12356,17842,23327,28813,34299,39785,45270,50756,58985
DistanceSpacing: 4.8
BeatDivisor: 6
GridSize: 16
TimelineZoom: 2.6

[Metadata]
Title:Honto da yo (Cut Ver.)
TitleUnicode:ホントだよ (Cut Ver.)
Artist:TrySail
ArtistUnicode:TrySail
Creator:Greaper
Version:Overdose
Source:
Tags:Spectator Secre chickenbible Bastian Jorkseljund 麻倉 もも Momo Asakura 雨宮 天 Amamiya Sora 夏川 椎菜 Natsukawa Shiina コバルト Sail Japanese Pop jpop j-pop
BeatmapID:2428471
BeatmapSetID:1164152

[Difficulty]
HPDrainRate:6
CircleSize:4.2
OverallDifficulty:9.3
ApproachRate:9.3
SliderMultiplier:1.9
SliderTickRate:2

[Events]
//Background and Video events
0,0,"bg.jpg",0,0
//Break Periods
//Storyboard Layer 0 (Background)
//Storyboard Layer 1 (Fail)
//Storyboard Layer 2 (Pass)
//Storyboard Layer 3 (Foreground)
//Storyboard Layer 4 (Overlay)
//Storyboard Sound Samples

[TimingPoints]
1373,342.857142857143,4,2,11,60,1,0
12687,-100,4,2,12,60,0,0
12858,-100,4,2,11,60,0,0
13373,-100,4,2,12,60,0,0
13544,-100,4,2,11,60,0,0
14058,-100,4,2,12,60,0,0
14230,-100,4,2,11,60,0,0
14744,-100,4,2,12,60,0,0
14915,-66.6666666666667,4,2,11,60,0,0
15087,-100,4,2,11,60,0,0
17830,-90.9090909090909,4,2,11,60,0,0
23315,-100,4,2,11,60,0,0
28801,-90.9090909090909,4,2,11,60,0,0
30173,-90.9090909090909,4,2,11,40,0,0
30258,-90.9090909090909,4,2,11,60,0,0
31544,-90.9090909090909,4,2,11,40,0,0
31630,-90.9090909090909,4,2,11,60,0,0
32915,-90.9090909090909,4,2,11,40,0,0
33001,-90.9090909090909,4,2,11,60,0,0
34115,-66.6666666666667,4,2,11,60,0,0
34287,-100,4,2,11,60,0,0
39773,-90.9090909090909,4,2,11,60,0,0
41144,-90.9090909090909,4,2,11,40,0,0
41230,-90.9090909090909,4,2,11,60,0,0
42515,-90.9090909090909,4,2,11,40,0,0
42601,-90.9090909090909,4,2,11,60,0,0
43887,-90.9090909090909,4,2,11,40,0,0
43973,-90.9090909090909,4,2,11,60,0,0
45258,-100,4,2,11,60,0,0
46287,-100,4,2,12,60,0,0
46630,-100,4,2,11,60,0,0
47658,-100,4,2,12,60,0,0
48001,-100,4,2,11,60,0,0
49030,-100,4,2,12,60,0,0
49373,-100,4,2,11,60,0,0
50401,-100,4,2,12,60,0,0
50744,-100,4,2,11,60,0,0
58973,-83.3333333333333,4,2,11,85,0,1
64287,-100,4,2,11,70,0,0
67201,-83.3333333333333,4,2,11,85,0,1
69773,-100,4,2,11,85,0,0
69944,-83.3333333333333,4,2,11,85,0,1
75258,-100,4,2,11,70,0,0
78173,-100,4,2,11,85,0,1
80915,-100,4,2,11,70,0,0
81258,-100,4,2,12,70,0,0
81430,-100,4,2,11,70,0,0
81944,-100,4,2,12,70,0,0
82115,-100,4,2,11,70,0,0
82630,-100,4,2,12,70,0,0
82801,-100,4,2,11,70,0,0
83315,-100,4,2,12,70,0,0
83487,-100,4,2,11,70,0,0
87258,-80,4,2,11,70,0,0
87315,-100,4,2,11,70,0,0

[Colours]
Combo1 : 216,158,150
Combo2 : 122,214,233
Combo3 : 173,238,130

[HitObjects]
179,260,858,6,0,L|176:150,1,95
349,170,1201,1,0,0:0:0:0:
54,216,1373,6,0,L|272:212,1,190,4|0,0:0|0:0,0:0:0:0:
148,163,1887,1,0,0:0:0:0:
328,168,2058,2,0,L|333:57,1,95
161,98,2401,2,0,L|46:98,1,95
348,58,2744,6,0,L|228:52,2,95,8|0|0,0:3|0:0|0:0,0:0:0:0:
110,39,3258,1,8,0:3:0:0:
301,59,3601,1,0,0:0:0:0:
203,80,3773,2,0,L|201:199,1,95
490,188,4115,6,0,L|284:191,1,190,8|0,0:3|0:0,0:0:0:0:
394,130,4630,1,0,0:0:0:0:
218,133,4801,2,0,L|80:131,1,95
304,125,5144,2,0,L|424:127,1,95
110,207,5487,6,0,P|54:231|125:308,1,190,8|0,0:3|0:0,0:0:0:0:
348,301,6001,1,8,0:3:0:0:
152,299,6344,2,0,L|150:192,1,95
436,192,6687,5,8,0:3:0:0:
253,187,7030,2,0,L|361:185,1,95
91,140,7373,1,8,0:3:0:0:
285,119,7715,2,0,L|289:22,1,95
20,81,8058,5,8,0:3:0:0:
190,62,8401,2,0,L|83:58,1,95
365,60,8744,2,0,L|472:66,1,95,8|0,0:3|0:0,0:0:0:0:
466,127,9001,1,8,0:0:0:0:
414,146,9087,1,8,0:0:0:0:
175,194,9258,2,0,L|171:271,1,47.5,8|8,0:0|0:0,0:0:0:0:
257,260,9430,2,0,L|335:263,1,47.5,8|8,0:0|0:0,0:0:0:0:
90,282,9601,6,0,P|40:253|103:199,1,142.5,8|0,0:3|0:0,0:0:0:0:
245,147,9944,2,0,L|141:146,1,95,8|0,0:3|0:0,0:0:0:0:
390,154,10287,2,0,L|391:254,1,95,8|0,0:3|0:0,0:0:0:0:
150,263,10630,2,0,L|26:267,1,95,8|0,0:3|0:0,0:0:0:0:
343,220,10973,5,8,0:3:0:0:
180,206,11144,1,8,0:3:0:0:
343,220,11315,1,8,0:3:0:0:
57,238,11487,2,0,L|57:135,1,95,8|8,0:3|0:0,0:0:0:0:
110,143,11744,1,8,0:0:0:0:
322,165,11830,2,0,L|327:110,1,47.5,8|0,0:0|0:0,0:0:0:0:
133,114,12001,2,0,L|191:108,1,47.5,8|0,0:3|0:0,0:0:0:0:
378,50,12173,2,0,L|321:43,1,47.5
116,30,12344,5,6,0:0:0:0:
217,35,12515,2,0,L|220:153,1,95,2|10,0:0|0:3,0:0:0:0:
42,137,12858,1,10,0:3:0:0:
289,188,13030,2,0,L|408:195,1,95,10|2,0:3|0:0,0:0:0:0:
222,243,13373,1,8,0:3:0:0:
394,256,13544,1,2,0:0:0:0:
150,298,13715,6,0,L|149:191,1,95,10|2,0:3|0:0,0:0:0:0:
313,202,14058,1,10,0:3:0:0:
70,188,14230,2,0,L|66:79,1,95,10|8,0:3|0:0,0:0:0:0:
115,83,14487,1,8,0:0:0:0:
213,109,14573,2,0,L|223:168,1,47.5,10|0,0:0|0:0,0:0:0:0:
78,250,14744,2,0,L|11:254,1,47.5,10|0,0:3|0:0,0:0:0:0:
203,274,14915,2,0,L|295:275,1,71.2500027179719,2|0,0:0|0:0,0:0:0:0:
443,333,15087,5,4,0:0:0:0:
333,325,15258,2,0,L|231:278,1,95,2|10,0:0|0:3,0:0:0:0:
425,229,15601,2,0,L|433:120,1,95,2|10,0:0|0:3,0:0:0:0:
260,120,15944,1,2,0:0:0:0:
426,121,16115,1,8,0:3:0:0:
86,89,16287,6,0,L|80:194,1,95,2|10,0:0|0:3,0:0:0:0:
240,183,16630,1,10,0:3:0:0:
70,199,16801,1,10,0:3:0:0:
337,183,16973,2,0,L|448:189,1,95,10|8,0:3|0:0,0:0:0:0:
384,239,17230,1,8,0:0:0:0:
195,244,17315,2,0,L|137:246,1,47.5,10|0,0:3|0:0,0:0:0:0:
330,291,17487,2,0,L|276:293,1,47.5,10|0,0:3|0:0,0:0:0:0:
92,283,17658,2,0,L|45:284,1,47.5,10|0,0:3|0:0,0:0:0:0:
339,165,17830,6,0,L|346:50,1,104.500003189087,4|2,0:0|0:0,0:0:0:0:
157,59,18173,2,0,L|272:58,1,104.500003189087,10|2,0:3|0:0,0:0:0:0:
492,71,18515,2,0,L|376:67,2,104.500003189087,10|2|8,0:3|0:0|0:0,0:0:0:0:
312,119,19030,1,2,0:0:0:0:
47,149,19201,6,0,L|40:263,1,104.500003189087,10|2,0:3|0:0,0:0:0:0:
226,265,19544,2,0,L|347:269,2,104.500003189087,10|2|8,0:0|0:0|0:3,0:0:0:0:
412,281,20058,1,2,0:0:0:0:
171,244,20230,2,0,L|48:234,1,104.500003189087,10|2,0:0|0:0,0:0:0:0:
318,217,20573,5,8,0:3:0:0:
206,203,20744,1,2,0:0:0:0:
383,189,20915,2,0,L|388:67,1,104.500003189087,10|2,0:0|0:0,0:0:0:0:
145,57,21258,2,0,L|257:53,2,104.500003189087,10|2|8,0:3|0:0|0:0,0:0:0:0:
40,66,21773,1,2,0:0:0:0:
357,186,21944,5,10,0:3:0:0:
190,191,22115,1,10,0:3:0:0:
456,237,22287,1,10,0:0:0:0:
294,228,22458,1,10,0:3:0:0:
456,237,22630,1,8,0:3:0:0:
221,273,22801,2,0,L|216:198,1,52.2500015945435,10|8,0:3|0:3,0:0:0:0:
430,166,22973,2,0,L|374:164,1,52.2500015945435,10|8,0:0|0:3,0:0:0:0:
114,146,23144,2,0,L|60:143,1,52.2500015945435,10|8,0:3|0:3,0:0:0:0:
372,56,23315,5,6,0:0:0:0:
221,71,23487,2,0,L|213:193,1,95,0|8,0:0|0:3,0:0:0:0:
379,200,23830,1,0,0:0:0:0:
215,222,24001,2,0,L|105:229,1,95,10|0,0:3|0:0,0:0:0:0:
272,253,24344,2,0,L|398:262,1,95,8|8,0:3|0:1,0:0:0:0:
102,281,24687,6,0,L|103:171,1,95,10|0,0:3|0:0,0:0:0:0:
283,193,25030,2,0,L|290:99,1,95,8|0,0:3|0:0,0:0:0:0:
108,82,25373,2,0,L|329:77,1,190,10|8,0:3|0:3,0:0:0:0:
204,36,25887,1,8,0:1:0:0:
445,43,26058,6,0,P|444:110|333:156,1,190,10|8,0:3|0:3,0:0:0:0:
248,151,26573,1,0,0:0:0:0:
423,197,26744,2,0,L|427:300,1,95,10|0,0:3|0:0,0:0:0:0:
283,207,27087,2,0,L|282:328,1,95,8|8,0:3|0:1,0:0:0:0:
41,262,27430,5,10,0:3:0:0:
194,245,27601,1,2,0:0:0:0:
41,262,27773,1,10,0:3:0:0:
280,198,27944,2,0,L|286:78,1,95,2|8,0:0|0:0,0:0:0:0:
118,93,28201,2,0,L|59:90,1,47.5,8|8,0:0|0:0,0:0:0:0:
364,92,28458,2,0,L|369:221,1,95,8|8,0:3|0:0,0:0:0:0:
319,192,28715,1,8,0:0:0:0:
107,266,28801,6,0,P|77:194|175:123,1,209.000006378174,4|8,0:0|0:3,0:0:0:0:
353,293,29315,2,0,L|361:157,1,104.500003189087,0|8,0:0|0:3,0:0:0:0:
179,187,29658,1,0,0:0:0:0:
441,181,29830,2,0,L|309:181,1,104.500003189087,8|4,0:3|0:3,0:0:0:0:
92,181,30173,6,0,L|87:67,1,104.500003189087,4|0,0:0|0:0,0:0:0:0:
258,77,30515,1,8,0:3:0:0:
83,57,30687,2,0,L|200:51,1,104.500003189087,0|8,0:0|0:3,0:0:0:0:
31,99,31030,1,0,0:0:0:0:
192,116,31201,2,0,L|86:125,1,104.500003189087,8|4,0:3|0:3,0:0:0:0:
381,276,31544,6,0,L|384:161,1,104.500003189087,4|0,0:0|0:0,0:0:0:0:
212,161,31887,1,8,0:3:0:0:
391,128,32058,2,0,L|501:128,2,104.500003189087,0|8|0,0:0|0:3|0:0,0:0:0:0:
212,206,32573,2,0,L|91:209,1,104.500003189087,8|4,0:3|0:3,0:0:0:0:
422,234,32915,6,0,L|426:119,1,104.500003189087,4|8,0:0|0:3,0:0:0:0:
252,121,33258,1,8,0:0:0:0:
430,89,33430,1,8,0:3:0:0:
141,61,33601,2,0,L|136:130,1,52.2500015945435,8|8,0:0|0:0,0:0:0:0:
355,34,33773,1,8,0:0:0:0:
93,215,33944,2,0,L|37:219,1,52.2500015945435,8|0,0:3|0:0,0:0:0:0:
224,264,34115,2,0,L|306:265,1,71.2500027179719,8|8,0:0|0:0,0:0:0:0:
472,273,34287,6,0,L|477:139,1,95,6|0,0:0|0:0,0:0:0:0:
303,163,34630,2,0,L|183:158,1,95,8|0,0:0|0:0,0:0:0:0:
379,154,34973,2,0,L|386:35,1,95,8|0,0:3|0:0,0:0:0:0:
154,55,35315,1,8,0:0:0:0:
309,50,35487,1,0,0:0:0:0:
66,68,35658,6,0,L|56:189,1,95,10|0,0:3|0:0,0:0:0:0:
229,181,36001,2,0,L|336:181,1,95,8|0,0:0|0:0,0:0:0:0:
83,271,36344,2,0,L|309:271,1,190,10|8,0:3|0:0,0:0:0:0:
173,324,36858,1,0,0:0:0:0:
418,335,37030,6,0,P|462:295|398:199,1,190,10|8,0:3|0:0,0:0:0:0:
306,202,37544,1,0,0:0:0:0:
477,169,37715,2,0,L|486:51,1,95,8|0,0:3|0:0,0:0:0:0:
312,67,38058,2,0,L|429:60,1,95,8|0,0:0|0:0,0:0:0:0:
168,68,38401,5,10,0:3:0:0:
314,105,38573,1,2,0:0:0:0:
168,68,38744,1,10,0:0:0:0:
409,214,38915,1,2,0:0:0:0:
120,247,39087,2,0,L|54:248,1,47.5,8|8,0:0|0:0,0:0:0:0:
240,272,39258,2,0,L|362:276,1,95,8|8,0:0|0:3,0:0:0:0:
47,327,39601,2,0,L|108:327,1,47.5,8|8,0:0|0:0,0:0:0:0:
370,180,39773,6,0,P|443:133|363:62,1,209.000006378174,14|10,0:0|0:0,0:0:0:0:
271,124,40287,1,0,0:0:0:0:
29,129,40458,2,0,L|22:252,1,104.500003189087,10|0,0:3|0:0,0:0:0:0:
202,241,40801,1,10,0:0:0:0:
21,263,40973,1,0,0:0:0:0:
285,274,41144,6,0,L|392:273,1,104.500003189087,6|0,0:0|0:0,0:0:0:0:
221,196,41487,1,10,0:0:0:0:
388,200,41658,2,0,L|394:79,1,104.500003189087,0|10,0:0|0:3,0:0:0:0:
221,88,42001,1,0,0:0:0:0:
483,68,42173,2,0,L|354:65,1,104.500003189087,10|0,0:0|0:0,0:0:0:0:
115,51,42515,6,0,L|113:169,1,104.500003189087,6|0,0:0|0:0,0:0:0:0:
288,171,42858,1,10,0:0:0:0:
115,186,43030,2,0,L|235:194,1,104.500003189087,0|10,0:0|0:3,0:0:0:0:
69,216,43373,1,0,0:0:0:0:
310,265,43544,2,0,L|436:276,1,104.500003189087,10|0,0:0|0:0,0:0:0:0:
102,288,43887,5,6,0:0:0:0:
257,287,44058,1,2,0:0:0:0:
102,288,44230,1,10,0:0:0:0:
367,246,44401,2,0,L|375:108,1,104.500003189087,2|8,0:0|0:0,0:0:0:0:
319,132,44658,1,8,0:0:0:0:
136,117,44744,1,8,0:0:0:0:
407,129,44915,2,0,L|416:13,1,104.500003189087,8|8,0:0|0:0,0:0:0:0:
126,25,45258,5,4,0:0:0:0:
386,87,45773,1,8,0:3:0:0:
217,107,45944,2,0,L|215:207,1,95,8|0,0:3|0:0,0:0:0:0:
371,127,46287,2,0,L|371:222,1,95,8|0,0:0|0:0,0:0:0:0:
120,197,46630,6,0,L|21:194,2,95,8|0|0,0:3|0:0|0:0,0:0:0:0:
283,206,47144,2,0,L|293:94,1,95,8|8,0:3|0:3,0:0:0:0:
196,105,47487,1,0,0:0:0:0:
366,102,47658,2,0,L|480:100,1,95,8|0,0:0|0:0,0:0:0:0:
174,47,48001,5,8,0:3:0:0:
404,106,48515,1,8,0:3:0:0:
223,105,48687,2,0,L|106:109,1,95,8|0,0:3|0:0,0:0:0:0:
286,208,49030,1,8,0:0:0:0:
126,212,49201,1,0,0:0:0:0:
367,238,49373,6,0,L|468:243,2,95,8|0|0,0:3|0:0|0:0,0:0:0:0:
195,206,49887,2,0,L|192:99,1,95,8|8,0:3|0:3,0:0:0:0:
290,106,50230,1,0,0:0:0:0:
123,52,50401,2,0,L|16:47,1,95,8|0,0:0|0:0,0:0:0:0:
314,64,50744,5,4,0:0:0:0:
256,192,50915,12,0,51944,0:0:0:0:
55,208,52115,6,0,L|49:137,1,47.5,8|8,0:0|0:0,0:0:0:0:
245,167,52287,2,0,L|249:95,1,47.5,8|8,0:0|0:0,0:0:0:0:
196,76,52458,1,8,0:3:0:0:
438,70,52630,1,0,0:0:0:0:
196,124,52801,2,0,L|192:195,1,47.5,8|8,0:0|0:0,0:0:0:0:
412,184,52973,2,0,L|488:188,1,47.5,10|0,0:3|0:0,0:0:0:0:
290,230,53144,2,0,L|200:231,1,47.5,8|8,0:0|0:0,0:0:0:0:
456,266,53315,2,0,L|400:266,1,47.5,10|0,0:3|0:0,0:0:0:0:
116,284,53487,6,0,L|18:283,1,95,10|2,0:3|0:0,0:0:0:0:
190,219,53830,2,0,L|197:106,1,95,10|0,0:3|0:0,0:0:0:0:
30,113,54173,1,10,0:3:0:0:
194,93,54344,1,2,0:0:0:0:
30,113,54515,1,8,0:3:0:0:
275,69,54687,6,0,L|379:68,1,95,2|8,0:0|0:3,0:0:0:0:
213,118,55030,1,10,0:3:0:0:
451,117,55201,2,0,L|458:219,1,95,10|8,0:3|0:3,0:0:0:0:
218,217,55544,1,10,0:3:0:0:
464,237,55715,2,0,L|357:243,1,95,10|8,0:3|0:3,0:0:0:0:
61,258,56058,6,0,L|288:253,1,190,8|0,0:0|0:0,0:0:0:0:
99,206,56573,2,0,L|95:97,1,95
328,92,56915,2,0,L|427:90,1,95,8|0,0:3|0:0,0:0:0:0:
177,67,57258,1,8,0:3:0:0:
473,45,57430,6,0,P|459:128|386:149,1,142.5,8|0,0:3|0:0,0:0:0:0:
170,162,57773,2,0,L|229:162,1,47.5,8|0,0:0|0:0,0:0:0:0:
409,189,57944,1,8,0:0:0:0:
124,209,58115,1,8,0:0:0:0:
357,188,58373,1,8,0:0:0:0:
197,226,58458,2,0,L|190:115,1,95,8|8,0:0|0:0,0:0:0:0:
242,129,58715,1,8,0:0:0:0:
28,119,58801,2,0,L|91:124,1,47.5,8|8,0:0|0:0,0:0:0:0:
334,109,58973,6,0,L|462:103,1,113.999996520996,4|0,0:0|0:0,0:0:0:0:
180,59,59315,2,0,L|175:179,1,113.999996520996,8|0,0:0|0:0,0:0:0:0:
349,196,59658,1,8,0:3:0:0:
171,200,59830,1,2,0:0:0:0:
356,263,60001,2,0,L|482:272,1,113.999996520996,8|0,0:0|0:0,0:0:0:0:
181,308,60344,6,0,L|309:311,2,113.999996520996,8|0|10,0:3|0:0|0:0,0:0:0:0:
435,276,60858,2,0,L|440:147,1,113.999996520996,0|8,0:0|0:3,0:0:0:0:
257,147,61201,1,2,0:0:0:0:
492,99,61373,2,0,L|365:93,1,113.999996520996,8|0,0:0|0:0,0:0:0:0:
49,80,61715,6,0,L|37:206,1,113.999996520996,8|0,0:3|0:0,0:0:0:0:
312,60,62058,2,0,L|317:183,1,113.999996520996,10|0,0:0|0:0,0:0:0:0:
130,146,62401,2,0,L|118:271,1,113.999996520996,8|2,0:3|0:0,0:0:0:0:
305,270,62744,2,0,L|433:272,1,113.999996520996,8|0,0:0|0:0,0:0:0:0:
130,323,63087,6,0,L|271:323,2,113.999996520996,8|0|10,0:3|0:0|0:0,0:0:0:0:
399,265,63601,2,0,L|401:132,1,113.999996520996,0|8,0:0|0:3,0:0:0:0:
223,146,63944,1,2,0:0:0:0:
410,137,64115,1,8,0:0:0:0:
115,104,64287,5,6,0:0:0:0:
310,103,64630,2,0,L|188:106,1,95
453,185,64973,1,10,0:0:0:0:
263,201,65315,1,0,0:0:0:0:
416,210,65487,1,0,0:0:0:0:
175,230,65658,5,10,0:3:0:0:
365,246,66001,2,0,L|361:342,1,95
107,291,66344,1,10,0:0:0:0:
248,222,66601,2,0,L|296:218,1,47.5,8|8,0:0|0:0,0:0:0:0:
53,160,66858,2,0,L|51:53,1,95,8|8,0:3|0:0,0:0:0:0:
100,62,67115,1,8,0:0:0:0:
430,72,67201,6,0,L|453:199,1,113.999996520996,4|0,0:0|0:0,0:0:0:0:
149,194,67544,2,0,L|139:332,1,113.999996520996,8|0,0:0|0:0,0:0:0:0:
423,221,67887,2,0,L|432:354,1,113.999996520996,8|0,0:3|0:0,0:0:0:0:
370,350,68144,1,0,0:0:0:0:
170,343,68230,2,0,L|27:347,1,113.999996520996,8|0,0:0|0:0,0:0:0:0:
402,265,68573,5,8,0:3:0:0:
147,244,68744,1,8,0:3:0:0:
326,234,68915,1,8,0:0:0:0:
54,186,69087,2,0,L|51:61,1,113.999996520996,8|8,0:3|0:0,0:0:0:0:
111,73,69344,1,8,0:0:0:0:
284,161,69430,2,0,L|167:154,1,113.999996520996,8|8,0:3|0:0,0:0:0:0:
163,103,69687,1,8,0:0:0:0:
330,56,69773,2,0,L|406:52,1,47.5,8|8,0:0|0:0,0:0:0:0:
95,206,69944,6,0,L|85:335,1,113.999996520996,4|0,0:0|0:0,0:0:0:0:
354,316,70287,2,0,L|500:319,1,113.999996520996,8|0,0:0|0:0,0:0:0:0:
280,208,70630,1,8,0:3:0:0:
467,214,70802,1,2,0:0:0:0:
156,263,70973,2,0,L|149:122,1,113.999996520996,8|0,0:0|0:0,0:0:0:0:
436,137,71316,6,0,L|308:140,2,113.999996520996,8|0|10,0:3|0:0|0:0,0:0:0:0:
146,288,71830,2,0,L|289:285,1,113.999996520996,0|8,0:0|0:3,0:0:0:0:
84,250,72173,1,2,0:0:0:0:
274,243,72345,2,0,L|409:238,1,113.999996520996,8|0,0:0|0:0,0:0:0:0:
77,185,72687,6,0,L|65:51,1,113.999996520996,8|0,0:3|0:0,0:0:0:0:
357,125,73030,2,0,L|479:109,1,113.999996520996,10|0,0:0|0:0,0:0:0:0:
287,39,73373,1,8,0:3:0:0:
479,36,73544,1,2,0:0:0:0:
192,192,73716,2,0,L|64:194,1,113.999996520996,8|0,0:0|0:0,0:0:0:0:
378,268,74059,6,0,L|495:270,1,113.999996520996,8|0,0:3|0:0,0:0:0:0:
203,231,74401,1,10,0:0:0:0:
385,227,74573,2,0,L|387:94,1,113.999996520996,0|8,0:0|0:3,0:0:0:0:
209,108,74916,1,2,0:0:0:0:
396,99,75087,1,8,0:0:0:0:
104,95,75259,5,6,0:0:0:0:
298,81,75601,2,0,L|185:73,1,95
443,66,75944,1,10,0:0:0:0:
256,142,76287,2,0,L|248:237,1,95
491,236,76630,5,10,0:3:0:0:
288,257,76973,2,0,L|180:259,1,95
433,319,77315,1,10,0:0:0:0:
332,319,77487,2,0,L|330:259,1,47.5,8|8,0:0|0:0,0:0:0:0:
379,251,77658,1,8,0:0:0:0:
138,197,77830,2,0,L|71:197,1,47.5,8|0,0:3|0:0,0:0:0:0:
282,156,78001,2,0,L|356:152,1,47.5,8|8,0:0|0:0,0:0:0:0:
85,132,78173,6,0,L|80:9,1,95,4|0,0:0|0:0,0:0:0:0:
317,47,78515,2,0,L|450:46,1,95,8|0,0:0|0:0,0:0:0:0:
172,101,78858,2,0,L|176:209,1,95,8|0,0:3|0:0,0:0:0:0:
415,197,79201,2,0,L|424:325,1,95,8|0,0:0|0:0,0:0:0:0:
136,292,79544,5,8,0:3:0:0:
375,288,79715,1,8,0:3:0:0:
220,279,79887,1,8,0:0:0:0:
459,230,80058,2,0,L|462:114,1,95,8|8,0:3|0:0,0:0:0:0:
408,128,80315,1,8,0:0:0:0:
217,118,80401,1,8,0:3:0:0:
458,80,80573,2,0,L|466:-24,1,95,8|8,0:0|0:0,0:0:0:0:
84,89,80915,5,6,0:0:0:0:
224,131,81087,2,0,L|226:234,1,95,2|10,0:0|0:3,0:0:0:0:
74,229,81430,1,10,0:3:0:0:
315,250,81601,2,0,L|427:256,1,95,10|2,0:3|0:0,0:0:0:0:
245,269,81944,1,8,0:3:0:0:
407,215,82115,1,2,0:0:0:0:
167,211,82287,6,0,L|161:102,1,95,10|2,0:3|0:0,0:0:0:0:
393,120,82630,2,0,L|287:112,1,95,10|10,0:3|0:3,0:0:0:0:
447,80,82973,2,0,L|346:75,2,95,8|10|10,0:0|0:0|0:3,0:0:0:0:
496,80,83401,1,0,0:0:0:0:
290,193,83487,2,0,L|224:189,1,47.5,10|8,0:0|0:0,0:0:0:0:
482,239,83658,6,0,L|353:243,1,95,4|2,0:0|0:0,0:0:0:0:
157,231,84001,2,0,L|157:128,1,95,10|2,0:3|0:0,0:0:0:0:
321,137,84344,1,10,0:3:0:0:
157,130,84515,2,0,L|51:124,1,95,2|8,0:0|0:3,0:0:0:0:
351,68,84858,6,0,L|457:68,1,95,2|10,0:0|0:3,0:0:0:0:
208,63,85201,1,10,0:3:0:0:
458,67,85373,1,10,0:3:0:0:
220,124,85544,2,0,L|215:230,1,95,10|8,0:3|0:0,0:0:0:0:
266,225,85801,1,8,0:0:0:0:
445,221,85887,1,10,0:0:0:0:
207,273,86058,1,10,0:3:0:0:
492,295,86230,6,0,L|493:192,1,95,10|4,0:3|0:0,0:0:0:0:
340,186,86573,1,2,0:0:0:0:
490,178,86744,2,0,L|483:73,1,95,2|0,0:0|0:3,0:0:0:0:
222,151,87087,1,2,0:3:0:0:
336,115,87258,2,0,L|382:113,1,39.5833333333333,2|0,0:0|0:0,0:0:0:0:
127,147,87430,2,0,L|15:148,1,95,2|2,0:3|0:0,0:0:0:0:
367,42,87773,6,0,L|469:43,1,95,8|2,0:3|0:0,0:0:0:0:
296,85,88115,1,10,0:0:0:0:
463,89,88287,1,8,0:3:0:0:
218,135,88458,1,10,0:3:0:0:
378,147,88630,2,0,L|415:152,1,31.6666666666667,8|0,0:3|0:0,0:0:0:0:
183,202,88801,2,0,L|83:199,1,95,10|8,0:3|0:3,0:0:0:0:
475,274,89144,5,10,0:0:0:0:
314,276,89315,1,10,0:0:0:0:
475,274,89487,1,10,0:0:0:0:
183,272,89658,2,0,L|174:161,1,95,10|0,0:0|0:0,0:0:0:0:
430,160,90001,1,10,0:0:0:0:
178,152,90173,2,0,L|128:147,1,31.6666666666667,10|0,0:0|0:0,0:0:0:0:
367,104,90344,6,0,L|467:100,1,95,10|0,0:0|0:0,0:0:0:0:
128,57,90687,1,10,0:0:0:0:
412,43,90858,1,10,0:0:0:0:
127,44,91030,1,10,0:0:0:0:
