osu file format v14

[General]
AudioFilename: audio.mp3
AudioLeadIn: 0
PreviewTime: 58385
Countdown: 0
SampleSet: Soft
StackLeniency: 0.4
Mode: 2
LetterboxInBreaks: 0
WidescreenStoryboard: 1

[Editor]
Bookmarks: 1392,4134,6877,8249,9620,12356,15106,17842,23327,28813,34299,39785,45270,48020,50756,53506,56249,57620,58985,61734,64477,65849,67220,69963,72706,75449,76820,78192,80934,83677,86420,89163,91049
DistanceSpacing: 1.1
BeatDivisor: 4
GridSize: 16
TimelineZoom: 2.6

[Metadata]
Title:Honto da yo (Cut Ver.)
TitleUnicode:ホントだよ (Cut Ver.)
Artist:TrySail
ArtistUnicode:TrySail
Creator:Greaper
Version:Bastian's Salad
Source:
Tags:Spectator Secre chickenbible Bastian Jorkseljund 麻倉 もも Momo Asakura 雨宮 天 Amamiya Sora 夏川 椎菜 Natsukawa Shiina コバルト Sail Japanese Pop jpop j-pop
BeatmapID:2469120
BeatmapSetID:1164152

[Difficulty]
HPDrainRate:3
CircleSize:3
OverallDifficulty:7
ApproachRate:7
SliderMultiplier:1.4
SliderTickRate:1

[Events]
//Background and Video events
0,0,"bg.jpg"
//Break Periods
//Storyboard Layer 0 (Background)
//Storyboard Layer 1 (Fail)
//Storyboard Layer 2 (Pass)
//Storyboard Layer 3 (Foreground)
//Storyboard Layer 4 (Overlay)
//Storyboard Sound Samples

[TimingPoints]
1373,342.857142857143,4,2,11,60,1,0
12687,-100,4,2,12,60,0,0
12858,-100,4,2,11,60,0,0
13373,-100,4,2,12,60,0,0
13544,-100,4,2,11,60,0,0
14058,-100,4,2,12,60,0,0
14230,-100,4,2,11,60,0,0
14744,-100,4,2,12,60,0,0
14915,-100,4,2,11,60,0,0
17830,-100,4,2,11,60,0,0
23315,-100,4,2,11,60,0,0
28801,-100,4,2,11,60,0,0
30173,-100,4,2,11,40,0,0
30258,-100,4,2,11,60,0,0
31544,-100,4,2,11,40,0,0
31630,-100,4,2,11,60,0,0
32915,-100,4,2,11,40,0,0
33001,-100,4,2,11,60,0,0
34287,-100,4,2,11,60,0,0
39773,-100,4,2,11,60,0,0
41144,-100,4,2,11,40,0,0
41230,-100,4,2,11,60,0,0
42515,-100,4,2,11,40,0,0
42601,-100,4,2,11,60,0,0
43887,-100,4,2,11,40,0,0
43973,-100,4,2,11,60,0,0
45258,-100,4,2,11,60,0,0
46287,-100,4,2,12,60,0,0
46630,-100,4,2,11,60,0,0
47658,-100,4,2,12,60,0,0
48001,-100,4,2,11,60,0,0
49030,-100,4,2,12,60,0,0
49373,-100,4,2,11,60,0,0
50401,-100,4,2,12,60,0,0
50744,-100,4,2,11,60,0,0
58973,-100,4,2,11,85,0,1
64287,-100,4,2,11,70,0,0
67201,-100,4,2,11,85,0,1
69773,-100,4,2,11,85,0,0
69944,-100,4,2,11,85,0,1
75258,-100,4,2,11,70,0,0
78173,-100,4,2,11,85,0,1
80915,-100,4,2,11,70,0,0
81258,-100,4,2,12,70,0,0
81430,-100,4,2,11,70,0,0
81944,-100,4,2,12,70,0,0
82115,-100,4,2,11,70,0,0
82630,-100,4,2,12,70,0,0
82801,-100,4,2,11,70,0,0
83315,-100,4,2,12,70,0,0
83487,-100,4,2,11,70,0,0

[Colours]
Combo1 : 216,158,150
Combo2 : 122,214,233
Combo3 : 173,238,130

[HitObjects]
173,343,858,6,0,P|136:295|181:233,1,140
343,235,1373,6,0,P|380:180|342:127,1,140,4|0,0:0|0:0,0:0:0:0:
187,126,2058,1,0,0:0:0:0:
342,127,2401,2,0,L|342:55,1,70
180,57,2744,6,0,P|108:84|107:160,1,140,8|0,0:3|0:0,0:0:0:0:
169,139,3258,2,0,P|200:174|159:263,1,140,8|0,0:3|0:0,0:0:0:0:
103,255,3773,1,0,0:0:0:0:
172,255,3944,1,0,0:0:0:0:
339,255,4115,6,0,P|379:214|334:153,1,140,8|0,0:3|0:0,0:0:0:0:
185,154,4801,2,0,L|345:154,1,140
254,154,5315,1,0,0:0:0:0:
92,154,5487,6,0,P|54:199|106:263,1,140,8|0,0:3|0:0,0:0:0:0:
163,264,6001,2,0,L|329:264,1,140,8|0,0:3|0:0,0:0:0:0:
373,264,6515,1,0,0:0:0:0:
202,269,6687,6,0,P|165:232|199:158,1,140,8|0,0:3|0:0,0:0:0:0:
265,159,7201,1,0,0:0:0:0:
335,159,7373,2,0,L|175:159,1,140,8|0,0:3|0:0,0:0:0:0:
265,159,7887,1,0,0:0:0:0:
434,158,8058,6,0,P|474:210|440:267,1,140,8|0,0:3|0:0,0:0:0:0:
371,268,8572,1,0,0:0:0:0:
301,268,8744,2,0,L|441:268,1,140,8|8,0:3|0:0,0:0:0:0:
371,268,9258,1,8,0:0:0:0:
300,268,9430,1,8,0:0:0:0:
132,268,9601,6,0,P|105:222|155:150,1,140,8|8,0:3|0:3,0:0:0:0:
299,153,10287,2,0,L|129:153,1,140,8|8,0:3|0:3,0:0:0:0:
327,153,10973,6,0,L|429:153,2,70,8|8|8,0:3|0:3|0:3,0:0:0:0:
165,153,11487,2,0,P|126:204|176:260,1,140,8|8,0:3|0:0,0:0:0:0:
235,262,12001,1,8,0:3:0:0:
305,262,12173,1,0,0:0:0:0:
472,262,12344,6,0,P|508:208|459:150,1,140,6|10,0:0|0:3,0:0:0:0:
399,153,12858,1,10,0:3:0:0:
328,153,13030,1,10,0:3:0:0:
482,153,13373,1,8,0:3:0:0:
202,153,13715,6,0,P|155:160|120:255,1,140,10|10,0:3|0:3,0:0:0:0:
185,236,14230,1,10,0:3:0:0:
254,236,14401,2,0,L|419:236,1,140,8|10,0:0|0:3,0:0:0:0:
464,236,14915,1,2,0:0:0:0:
295,236,15087,6,0,P|265:199|309:113,1,140,4|10,0:0|0:3,0:0:0:0:
448,119,15773,2,0,P|480:177|447:235,1,140,10|8,0:3|0:3,0:0:0:0:
165,235,16458,5,10,0:3:0:0:
119,183,16629,1,10,0:3:0:0:
115,114,16800,1,10,0:3:0:0:
154,57,16972,1,10,0:3:0:0:
219,44,17143,1,8,0:0:0:0:
387,44,17315,2,0,P|406:84|352:155,1,140,10|10,0:3|0:3,0:0:0:0:
191,161,17830,6,0,P|152:193|143:299,1,140,4|10,0:0|0:3,0:0:0:0:
289,277,18515,2,0,L|131:277,1,140,10|8,0:3|0:0,0:0:0:0:
429,277,19201,6,0,P|465:242|428:166,1,140,10|10,0:3|0:0,0:0:0:0:
363,168,19715,2,0,P|323:115|358:59,1,140,2|2,0:0|0:0,0:0:0:0:
428,59,20230,1,10,0:0:0:0:
358,59,20401,1,2,0:0:0:0:
196,59,20573,6,0,P|169:95|213:169,1,140,8|10,0:3|0:0,0:0:0:0:
363,168,21258,2,0,P|430:179|465:243,1,140,10|8,0:3|0:0,0:0:0:0:
183,237,21944,5,10,0:3:0:0:
142,181,22115,1,10,0:3:0:0:
152,114,22286,1,10,0:0:0:0:
206,72,22458,1,10,0:3:0:0:
374,72,22630,2,0,P|412:91|397:185,1,140,8|10,0:3|0:0,0:0:0:0:
126,179,23315,6,0,P|105:225|156:312,1,140,6|8,0:0|0:3,0:0:0:0:
293,302,24001,2,0,L|131:302,1,140,10|8,0:3|0:3,0:0:0:0:
223,302,24515,1,8,0:1:0:0:
388,301,24687,6,0,P|425:254|379:201,1,140,10|8,0:3|0:3,0:0:0:0:
312,194,25201,1,0,0:0:0:0:
241,194,25373,1,10,0:3:0:0:
394,194,25715,1,8,0:3:0:0:
113,194,26058,6,0,P|86:152|126:68,1,140,10|8,0:3|0:3,0:0:0:0:
270,73,26744,2,0,L|440:73,1,140,10|8,0:3|0:3,0:0:0:0:
339,73,27258,1,8,0:1:0:0:
177,73,27430,6,0,L|84:73,2,70,10|2|10,0:3|0:0|0:3,0:0:0:0:
254,73,27944,2,0,P|299:74|386:214,1,210,2|8,0:0|0:3,0:0:0:0:
108,195,28801,6,0,P|74:231|107:325,1,140,4|8,0:0|0:3,0:0:0:0:
245,313,29487,2,0,P|302:309|343:224,1,140,8|8,0:3|0:3,0:0:0:0:
274,244,30001,1,4,0:3:0:0:
112,244,30173,6,0,P|81:203|135:133,1,140,4|8,0:0|0:3,0:0:0:0:
275,129,30858,2,0,L|112:129,1,140,8|8,0:3|0:3,0:0:0:0:
415,129,31544,6,0,P|449:154|438:261,1,140,4|8,0:0|0:3,0:0:0:0:
297,244,32230,2,0,P|249:241|207:152,1,140,8|8,0:3|0:3,0:0:0:0:
274,168,32744,1,4,0:3:0:0:
434,168,32915,6,0,L|518:168,2,70,4|8|8,0:0|0:3|0:0,0:0:0:0:
356,168,33430,2,0,L|198:168,1,140,8|8,0:3|0:0,0:0:0:0:
145,168,33944,1,8,0:3:0:0:
214,168,34115,1,8,0:0:0:0:
382,168,34287,6,0,P|402:212|350:306,1,140,6|8,0:0|0:0,0:0:0:0:
216,293,34973,1,8,0:3:0:0:
369,293,35315,1,8,0:0:0:0:
88,293,35658,6,0,P|54:257|102:186,1,140,10|8,0:3|0:0,0:0:0:0:
163,187,36173,1,0,0:0:0:0:
232,187,36344,2,0,L|61:187,1,140,10|8,0:3|0:0,0:0:0:0:
372,187,37030,6,0,P|403:143|400:51,1,140,10|8,0:3|0:0,0:0:0:0:
249,59,37715,2,0,P|196:61|160:138,1,140,8|8,0:3|0:0,0:0:0:0:
229,131,38230,1,0,0:0:0:0:
389,131,38401,6,0,L|466:131,2,70,10|2|10,0:3|0:0|0:0,0:0:0:0:
311,131,38915,2,0,P|275:160|310:239,1,140,2|8,0:0|0:0,0:0:0:0:
374,236,39430,1,8,0:3:0:0:
304,236,39601,1,8,0:0:0:0:
135,236,39773,6,0,P|80:235|65:144,1,140,14|10,0:0|0:0,0:0:0:0:
207,163,40458,2,0,L|355:163,1,140,10|10,0:3|0:0,0:0:0:0:
276,163,40973,1,0,0:0:0:0:
115,163,41144,6,0,L|29:163,2,70,6|0|10,0:0|0:0|0:0,0:0:0:0:
192,163,41658,2,0,P|235:213|193:275,1,140
132,270,42173,1,10,0:0:0:0:
201,270,42344,1,0,0:0:0:0:
361,270,42515,6,0,P|407:269|427:183,1,140,6|10,0:0|0:0,0:0:0:0:
279,191,43201,2,0,L|122:191,1,140,10|10,0:3|0:0,0:0:0:0:
419,191,43887,6,0,L|504:191,2,70,6|2|10,0:0|0:0|0:0,0:0:0:0:
348,191,44401,2,0,L|182:191,1,140,2|8,0:0|0:0,0:0:0:0:
137,191,44915,1,8,0:0:0:0:
417,191,45258,6,0,P|456:147|386:25,1,210,4|8,0:0|0:3,0:0:0:0:
327,27,45944,1,8,0:3:0:0:
481,27,46287,1,8,0:0:0:0:
312,27,46630,6,0,P|257:36|231:128,1,140,8|0,0:3|0:0,0:0:0:0:
301,107,47144,2,0,P|370:136|316:233,1,210,8|8,0:3|0:0,0:0:0:0:
42,206,48001,6,0,P|20:161|108:45,1,210,8|8,0:3|0:3,0:0:0:0:
173,45,48687,1,8,0:3:0:0:
18,45,49030,1,8,0:0:0:0:
186,45,49373,6,0,P|244:47|277:125,1,140,8|0,0:3|0:0,0:0:0:0:
201,113,49887,2,0,P|155:162|188:223,1,140,8|0,0:3|0:0,0:0:0:0:
334,113,50573,1,0,0:0:0:0:
166,113,50744,5,4,0:0:0:0:
256,192,51087,12,0,52630,0:0:0:0:
287,342,52973,6,0,L|382:342,2,70,10|8|10,0:3|0:0|0:3,0:0:0:0:
118,342,53487,6,0,P|78:312|115:232,1,140,10|10,0:3|0:3,0:0:0:0:
257,236,54173,2,0,P|317:238|349:144,1,140,10|8,0:3|0:3,0:0:0:0:
195,176,54687,6,0,P|169:131|229:63,1,140,2|10,0:0|0:3,0:0:0:0:
282,58,55201,1,10,0:3:0:0:
127,58,55544,2,0,P|96:88|133:181,1,140,10|8,0:3|0:3,0:0:0:0:
286,173,56058,6,0,P|344:171|304:363,1,350,8|8,0:0|0:3,0:0:0:0:
155,363,57258,1,8,0:3:0:0:
323,363,57430,6,0,P|361:329|323:252,1,140,8|8,0:3|0:0,0:0:0:0:
261,255,57944,1,8,0:0:0:0:
93,255,58115,2,0,P|78:199|152:157,1,140,8|8,0:0|0:0,0:0:0:0:
207,136,58630,1,8,0:0:0:0:
276,136,58801,1,8,0:0:0:0:
444,136,58973,6,0,P|477:159|452:251,1,140,4|8,0:0|0:0,0:0:0:0:
306,246,59658,2,0,L|136:246,1,140,8|8,0:3|0:0,0:0:0:0:
236,246,60173,1,0,0:0:0:0:
396,246,60344,6,0,L|408:171,1,70,8|0,0:3|0:0,0:0:0:0:
336,178,60687,1,10,0:0:0:0:
182,178,60858,2,0,P|147:143|189:69,1,140,0|2,0:0|0:0,0:0:0:0:
252,71,61373,1,8,0:0:0:0:
321,71,61544,1,0,0:0:0:0:
153,71,61715,6,0,P|98:76|73:158,1,140,8|10,0:3|0:0,0:0:0:0:
223,147,62401,2,0,L|382:147,1,140,8|8,0:3|0:0,0:0:0:0:
285,147,62915,1,0,0:0:0:0:
123,147,63087,6,0,L|44:147,2,70,8|0|10,0:3|0:0|0:0,0:0:0:0:
285,147,63601,2,0,P|345:149|370:228,1,140,0|2,0:0|0:0,0:0:0:0:
304,212,64115,1,8,0:0:0:0:
135,212,64287,6,0,P|93:244|142:313,1,140,6|0,0:0|0:0,0:0:0:0:
196,311,64801,1,0,0:0:0:0:
266,311,64973,2,0,L|114:311,1,140,10|0,0:0|0:0,0:0:0:0:
196,311,65487,1,0,0:0:0:0:
363,311,65658,6,0,P|405:279|356:210,1,140,10|0,0:3|0:0,0:0:0:0:
302,212,66172,1,0,0:0:0:0:
232,212,66344,2,0,L|384:212,1,140,10|8,0:0|0:0,0:0:0:0:
302,212,66858,1,8,0:3:0:0:
231,212,67030,1,8,0:0:0:0:
63,212,67201,6,0,P|48:160|131:102,1,140,4|8,0:0|0:0,0:0:0:0:
256,101,67887,2,0,L|100:101,1,140,8|8,0:3|0:0,0:0:0:0:
270,101,68573,5,8,0:3:0:0:
339,101,68744,2,0,L|339:178,1,70,8|8,0:3|0:0,0:0:0:0:
177,171,69087,2,0,P|151:231|212:277,1,140,8|8,0:3|0:3,0:0:0:0:
270,280,69601,1,8,0:0:0:0:
340,280,69773,1,8,0:0:0:0:
172,280,69944,6,0,P|121:278|96:184,1,140,4|8,0:0|0:0,0:0:0:0:
241,204,70630,2,0,L|93:204,1,140,8|8,0:3|0:0,0:0:0:0:
171,204,71144,1,0,0:0:0:0:
331,204,71315,6,0,L|424:204,2,70,8|0|10,0:3|0:0|0:0,0:0:0:0:
168,204,71830,2,0,P|114:199|102:104,1,140,0|2,0:0|0:0,0:0:0:0:
158,125,72344,1,8,0:0:0:0:
227,125,72515,1,0,0:0:0:0:
404,125,72687,6,0,P|437:165|380:235,1,140,8|10,0:3|0:0,0:0:0:0:
247,234,73373,2,0,L|401:234,1,140,8|8,0:3|0:0,0:0:0:0:
316,234,73887,1,0,0:0:0:0:
155,234,74058,6,0,L|140:160,1,70,8|0,0:3|0:0,0:0:0:0:
215,166,74401,1,10,0:0:0:0:
376,166,74573,2,0,P|423:159|450:63,1,140,0|2,0:0|0:0,0:0:0:0:
385,82,75087,1,8,0:0:0:0:
217,82,75258,6,0,P|145:81|115:148,1,140,6|0,0:0|0:0,0:0:0:0:
184,134,75773,1,0,0:0:0:0:
253,134,75944,2,0,L|97:134,1,140,10|0,0:0|0:0,0:0:0:0:
183,134,76458,1,0,0:0:0:0:
351,134,76630,6,0,P|423:133|453:200,1,140,10|0,0:3|0:0,0:0:0:0:
384,186,77145,1,0,0:0:0:0:
315,186,77316,2,0,L|471:186,1,140,10|8,0:0|0:0,0:0:0:0:
385,186,77830,1,8,0:3:0:0:
315,186,78001,1,8,0:0:0:0:
146,186,78173,6,0,P|106:226|151:297,1,140,4|8,0:0|0:0,0:0:0:0:
292,292,78858,2,0,P|360:292|394:215,1,140,8|8,0:3|0:0,0:0:0:0:
241,236,79544,5,8,0:3:0:0:
171,236,79715,1,8,0:3:0:0:
101,236,79886,1,8,0:0:0:0:
262,236,80058,2,0,P|318:234|343:146,1,140,8|8,0:3|0:3,0:0:0:0:
279,167,80573,1,8,0:0:0:0:
209,167,80744,1,8,0:0:0:0:
376,167,80915,6,0,P|408:130|358:46,1,140,6|10,0:0|0:3,0:0:0:0:
307,53,81430,1,10,0:3:0:0:
237,53,81601,1,10,0:3:0:0:
391,53,81944,1,8,0:3:0:0:
110,53,82287,6,0,P|74:80|121:167,1,140,10|10,0:3|0:3,0:0:0:0:
167,160,82801,1,10,0:3:0:0:
237,160,82973,2,0,L|406:160,1,140,8|10,0:0|0:3,0:0:0:0:
306,160,83487,1,10,0:0:0:0:
138,160,83658,6,0,P|93:223|133:280,1,140,4|10,0:0|0:3,0:0:0:0:
272,271,84344,1,10,0:3:0:0:
117,271,84687,1,8,0:3:0:0:
397,271,85030,5,10,0:3:0:0:
445,222,85201,1,10,0:3:0:0:
455,154,85372,1,10,0:3:0:0:
423,93,85544,1,10,0:3:0:0:
361,63,85715,1,8,0:0:0:0:
199,63,85887,2,0,P|163:101|205:169,1,140,10|10,0:0|0:3,0:0:0:0:
371,169,86401,6,0,P|406:214|354:296,1,140,4|2,0:0|0:0,0:0:0:0:
308,285,86915,1,0,0:3:0:0:
237,285,87087,2,0,L|407:285,1,140,2|2,0:3|0:3,0:0:0:0:
96,285,87773,6,0,P|74:255|125:165,1,140,8|10,0:3|0:0,0:0:0:0:
180,169,88287,1,8,0:3:0:0:
249,169,88458,1,10,0:3:0:0:
94,169,88801,1,10,0:3:0:0:
374,169,89144,6,0,L|471:169,2,70,10|10|10,0:0|0:0|0:0,0:0:0:0:
219,169,89658,2,0,P|169:171|137:269,1,140,10|10,0:0|0:0,0:0:0:0:
198,243,90173,1,10,0:0:0:0:
358,243,90344,6,0,P|395:210|350:135,1,140,10|10,0:0|0:0,0:0:0:0:
288,135,90858,1,10,0:0:0:0:
119,135,91030,1,10,0:0:0:0:
