osu file format v14

[General]
AudioFilename: audio.mp3
AudioLeadIn: 0
PreviewTime: 61520
Countdown: 0
SampleSet: Soft
StackLeniency: 0.7
Mode: 3
LetterboxInBreaks: 0
SpecialStyle: 0
WidescreenStoryboard: 1

[Editor]
DistanceSpacing: 1.4
BeatDivisor: 4
GridSize: 32
TimelineZoom: 2.3

[Metadata]
Title:High Free Spirits -TV.Ver-
TitleUnicode:High Free Spirits -TV.Ver-
Artist:TrySail
ArtistUnicode:TrySail
Creator:Weegle
Version:Hard
Source:High School Fleet
Tags:high school fleet haifuri opening tv size
BeatmapID:995873
BeatmapSetID:465182

[Difficulty]
HPDrainRate:7.5
CircleSize:4
OverallDifficulty:8
ApproachRate:5
SliderMultiplier:1.4
SliderTickRate:1

[Events]
//Background and Video events
Video,0,"video.flv"
0,0,"bg.png",0,0
//Break Periods
//Storyboard Layer 0 (Background)
//Storyboard Layer 1 (Fail)
//Storyboard Layer 2 (Pass)
//Storyboard Layer 3 (Foreground)
//Storyboard Sound Samples

[TimingPoints]
230,322.58064516129,4,2,2,70,1,0
5391,-100,4,2,1,70,0,0
51681,-100,4,2,1,85,0,0
51842,-100,4,2,1,85,0,1
71278,-100,4,2,1,55,0,1
71762,-100,4,2,1,70,0,1
72165,-100,4,2,1,85,0,1
81520,-100,4,2,1,85,0,0

[HitObjects]
320,192,230,5,0,0:0:0:0:
64,192,230,128,2,552:0:0:0:0:
448,192,552,1,0,0:0:0:0:
192,192,875,128,0,1197:0:0:0:0:
448,192,1197,1,0,0:0:0:0:
320,192,1520,128,8,1842:0:0:0:0:
64,192,1842,1,0,0:0:0:0:
192,192,2165,1,0,0:0:0:0:
64,192,2488,128,0,2810:0:0:0:0:
448,192,2810,128,2,3133:0:0:0:0:
192,192,2810,1,2,0:0:0:0:
64,192,3133,1,0,0:0:0:0:
192,192,3455,128,0,3778:0:0:0:0:
320,192,3778,1,0,0:0:0:0:
64,192,4100,128,8,5391:0:0:0:0:
448,192,4100,1,0,0:0:0:0:
192,192,4423,1,0,0:0:0:0:
448,192,4746,1,0,0:0:0:0:
320,192,5068,1,0,0:0:0:0:
192,192,5391,1,6,0:0:0:0:
448,192,5391,1,8,0:0:0:0:
448,192,5552,1,2,0:0:0:0:
192,192,5552,1,8,0:0:0:0:
448,192,5875,1,10,0:0:0:0:
64,192,5875,1,4,0:0:0:0:
448,192,6036,1,10,0:0:0:0:
64,192,6036,1,0,0:0:0:0:
320,192,6359,1,12,0:0:0:0:
64,192,6359,1,2,0:0:0:0:
320,192,6520,1,8,0:0:0:0:
64,192,6520,1,2,0:0:0:0:
320,192,6842,1,10,0:0:0:0:
192,192,6842,1,4,0:0:0:0:
320,192,7004,1,10,0:0:0:0:
192,192,7004,1,0,0:0:0:0:
448,192,7326,1,2,0:0:0:0:
320,192,7407,1,2,0:0:0:0:
192,192,7488,1,8,0:0:0:0:
64,192,7488,1,0,0:0:0:0:
320,192,7568,1,8,0:0:0:0:
448,192,7568,1,0,0:0:0:0:
192,192,7649,1,8,0:0:0:0:
64,192,7649,1,0,0:0:0:0:
320,192,7729,1,8,0:0:0:0:
448,192,7729,1,2,0:0:0:0:
192,192,7810,1,2,0:0:0:0:
64,192,7810,1,0,0:0:0:0:
448,192,7971,1,12,0:0:0:0:
64,192,7971,1,2,0:0:0:0:
64,192,8133,1,10,0:0:0:0:
448,192,8133,1,0,0:0:0:0:
320,192,8455,1,14,0:0:0:0:
64,192,8455,1,0,0:0:0:0:
320,192,8617,1,10,0:0:0:0:
64,192,8617,1,0,0:0:0:0:
448,192,8939,1,10,0:0:0:0:
192,192,8939,1,4,0:0:0:0:
448,192,9100,1,10,0:0:0:0:
192,192,9100,1,0,0:0:0:0:
320,192,9423,128,0,9584:0:0:0:0:
448,192,9584,128,0,9746:0:0:0:0:
192,192,9746,128,0,9907:0:0:0:0:
64,192,10068,128,0,10229:0:0:0:0:
320,192,10229,128,0,10391:0:0:0:0:
448,192,10391,128,0,10552:0:0:0:0:
192,192,10552,1,14,0:0:0:0:
64,192,10552,1,0,0:0:0:0:
448,192,10713,1,10,0:0:0:0:
320,192,10713,1,0,0:0:0:0:
192,192,10875,1,2,0:0:0:0:
64,192,10875,1,0,0:0:0:0:
320,192,11036,1,0,0:0:0:0:
448,192,11197,1,2,0:0:0:0:
64,192,11197,1,0,0:0:0:0:
192,192,11359,1,0,0:0:0:0:
320,192,11520,1,2,0:0:0:0:
64,192,11520,1,0,0:0:0:0:
192,192,11681,1,0,0:0:0:0:
448,192,11842,1,0,0:0:0:0:
320,192,11842,1,2,0:0:0:0:
64,192,12004,1,0,0:0:0:0:
192,192,12165,1,0,0:0:0:0:
448,192,12165,1,2,0:0:0:0:
320,192,12326,1,0,0:0:0:0:
192,192,12488,1,2,0:0:0:0:
64,192,12488,1,0,0:0:0:0:
448,192,12649,1,0,0:0:0:0:
320,192,12810,1,2,0:0:0:0:
192,192,12810,1,0,0:0:0:0:
64,192,12971,1,0,0:0:0:0:
192,192,13133,1,12,0:0:0:0:
448,192,13133,1,2,0:0:0:0:
320,192,13294,1,10,0:0:0:0:
64,192,13294,1,0,0:0:0:0:
192,192,13455,1,2,0:0:0:0:
448,192,13455,1,0,0:0:0:0:
320,192,13617,1,0,0:0:0:0:
192,192,13778,1,2,0:0:0:0:
64,192,13778,1,0,0:0:0:0:
448,192,13939,1,0,0:0:0:0:
320,192,14100,1,0,0:0:0:0:
192,192,14100,1,2,0:0:0:0:
64,192,14262,1,0,0:0:0:0:
192,192,14423,1,2,0:0:0:0:
448,192,14423,1,0,0:0:0:0:
320,192,14584,1,0,0:0:0:0:
448,192,14746,1,2,0:0:0:0:
64,192,14746,1,0,0:0:0:0:
192,192,14907,1,0,0:0:0:0:
320,192,15068,1,2,0:0:0:0:
64,192,15068,1,0,0:0:0:0:
192,192,15229,1,0,0:0:0:0:
448,192,15391,1,2,0:0:0:0:
320,192,15391,1,0,0:0:0:0:
64,192,15552,1,0,0:0:0:0:
192,192,15713,1,10,0:0:0:0:
320,192,15713,1,4,0:0:0:0:
448,192,15875,1,8,0:0:0:0:
64,192,15875,1,2,0:0:0:0:
192,192,16036,1,2,0:0:0:0:
320,192,16036,1,0,0:0:0:0:
448,192,16197,1,0,0:0:0:0:
320,192,16359,1,2,0:0:0:0:
64,192,16359,1,0,0:0:0:0:
192,192,16520,1,0,0:0:0:0:
448,192,16681,1,0,0:0:0:0:
320,192,16681,1,2,0:0:0:0:
64,192,16842,1,0,0:0:0:0:
192,192,17004,1,0,0:0:0:0:
448,192,17004,1,2,0:0:0:0:
320,192,17165,1,0,0:0:0:0:
192,192,17326,1,2,0:0:0:0:
64,192,17326,1,0,0:0:0:0:
448,192,17488,1,0,0:0:0:0:
320,192,17649,1,2,0:0:0:0:
64,192,17649,1,0,0:0:0:0:
192,192,17810,1,0,0:0:0:0:
448,192,17971,1,2,0:0:0:0:
64,192,17971,1,0,0:0:0:0:
320,192,18133,1,0,0:0:0:0:
192,192,18294,1,14,0:0:0:0:
64,192,18294,1,0,0:0:0:0:
320,192,18455,1,2,0:0:0:0:
448,192,18455,1,8,0:0:0:0:
192,192,18617,1,2,0:0:0:0:
64,192,18617,1,0,0:0:0:0:
448,192,18939,1,12,0:0:0:0:
64,192,18939,1,2,0:0:0:0:
320,192,19100,1,10,0:0:0:0:
192,192,19100,1,0,0:0:0:0:
448,192,19262,1,2,0:0:0:0:
64,192,19262,1,0,0:0:0:0:
320,192,19584,1,12,0:0:0:0:
448,192,19584,1,2,0:0:0:0:
64,192,19746,1,2,0:0:0:0:
192,192,19746,1,8,0:0:0:0:
320,192,19907,1,0,0:0:0:0:
448,192,20068,1,2,0:0:0:0:
192,192,20068,1,8,0:0:0:0:
64,192,20391,128,0,20875:0:0:0:0:
448,192,20875,1,8,0:0:0:0:
192,192,20875,1,6,0:0:0:0:
320,192,21036,1,0,0:0:0:0:
448,192,21197,1,8,0:0:0:0:
64,192,21197,1,0,0:0:0:0:
192,192,21359,1,0,0:0:0:0:
320,192,21520,1,2,0:0:0:0:
448,192,21520,1,0,0:0:0:0:
64,192,21681,1,0,0:0:0:0:
192,192,21842,1,8,0:0:0:0:
448,192,21842,1,0,0:0:0:0:
320,192,22004,1,0,0:0:0:0:
192,192,22165,1,2,0:0:0:0:
64,192,22165,1,0,0:0:0:0:
320,192,22326,1,0,0:0:0:0:
448,192,22326,1,2,0:0:0:0:
192,192,22488,1,8,0:0:0:0:
64,192,22488,1,0,0:0:0:0:
320,192,22649,1,2,0:0:0:0:
64,192,22649,1,0,0:0:0:0:
192,192,22971,1,0,0:0:0:0:
448,192,22971,1,2,0:0:0:0:
320,192,23133,1,8,0:0:0:0:
64,192,23133,1,0,0:0:0:0:
192,192,23294,1,0,0:0:0:0:
320,192,23455,1,2,0:0:0:0:
448,192,23455,1,0,0:0:0:0:
192,192,23617,1,0,0:0:0:0:
64,192,23778,1,0,0:0:0:0:
448,192,23778,1,8,0:0:0:0:
320,192,23939,1,0,0:0:0:0:
192,192,24100,1,2,0:0:0:0:
448,192,24100,1,0,0:0:0:0:
64,192,24262,1,0,0:0:0:0:
320,192,24262,1,2,0:0:0:0:
448,192,24423,1,8,0:0:0:0:
192,192,24423,1,0,0:0:0:0:
320,192,24584,1,0,0:0:0:0:
64,192,24746,1,2,0:0:0:0:
448,192,24746,1,0,0:0:0:0:
320,192,24907,1,2,0:0:0:0:
192,192,24907,1,0,0:0:0:0:
64,192,25068,1,8,0:0:0:0:
448,192,25068,1,0,0:0:0:0:
192,192,25229,1,2,0:0:0:0:
448,192,25229,1,0,0:0:0:0:
64,192,25552,1,2,0:0:0:0:
320,192,25552,1,0,0:0:0:0:
448,192,25713,1,8,0:0:0:0:
192,192,25713,1,0,0:0:0:0:
320,192,25875,1,0,0:0:0:0:
64,192,26036,1,2,0:0:0:0:
192,192,26036,1,0,0:0:0:0:
320,192,26197,1,0,0:0:0:0:
448,192,26359,1,8,0:0:0:0:
64,192,26359,1,0,0:0:0:0:
192,192,26520,1,0,0:0:0:0:
320,192,26681,1,2,0:0:0:0:
64,192,26681,1,0,0:0:0:0:
192,192,26842,1,2,0:0:0:0:
448,192,26842,1,0,0:0:0:0:
320,192,27004,1,8,0:0:0:0:
64,192,27004,1,0,0:0:0:0:
192,192,27165,1,0,0:0:0:0:
320,192,27326,1,2,0:0:0:0:
448,192,27326,1,0,0:0:0:0:
192,192,27488,1,2,0:0:0:0:
64,192,27488,1,0,0:0:0:0:
320,192,27649,1,8,0:0:0:0:
448,192,27649,1,0,0:0:0:0:
448,192,27810,1,2,0:0:0:0:
192,192,27810,1,0,0:0:0:0:
64,192,28133,1,2,0:0:0:0:
192,192,28213,1,2,0:0:0:0:
320,192,28294,1,12,0:0:0:0:
448,192,28294,1,2,0:0:0:0:
64,192,28455,1,0,0:0:0:0:
192,192,28617,1,10,0:0:0:0:
448,192,28617,1,4,0:0:0:0:
320,192,28778,1,2,0:0:0:0:
192,192,28939,1,2,0:0:0:0:
64,192,29100,1,8,0:0:0:0:
320,192,29100,1,0,0:0:0:0:
192,192,29262,1,2,0:0:0:0:
320,192,29423,1,2,0:0:0:0:
448,192,29584,1,8,0:0:0:0:
192,192,29584,1,0,0:0:0:0:
64,192,29746,1,0,0:0:0:0:
320,192,29746,1,2,0:0:0:0:
192,192,29907,1,0,0:0:0:0:
448,192,30068,1,8,0:0:0:0:
320,192,30149,1,8,0:0:0:0:
192,192,30229,1,8,0:0:0:0:
64,192,30229,1,0,0:0:0:0:
320,192,30391,1,8,0:0:0:0:
448,192,30391,1,0,0:0:0:0:
320,192,30552,1,8,0:0:0:0:
64,192,30552,1,2,0:0:0:0:
192,192,30713,1,8,0:0:0:0:
448,192,30713,1,2,0:0:0:0:
448,192,30875,1,2,0:0:0:0:
64,192,30875,1,0,0:0:0:0:
320,192,31036,1,2,0:0:0:0:
192,192,31036,1,0,0:0:0:0:
320,192,31197,1,10,0:0:0:0:
448,192,31197,1,4,0:0:0:0:
192,192,31359,1,0,0:0:0:0:
448,192,31520,1,2,0:0:0:0:
64,192,31520,1,0,0:0:0:0:
320,192,31681,1,0,0:0:0:0:
192,192,31842,1,2,0:0:0:0:
64,192,31842,1,0,0:0:0:0:
320,192,32004,1,0,0:0:0:0:
192,192,32165,1,0,0:0:0:0:
448,192,32165,1,2,0:0:0:0:
64,192,32326,1,8,0:0:0:0:
320,192,32326,1,0,0:0:0:0:
448,192,32488,128,0,32810:0:0:0:0:
192,192,32488,1,2,0:0:0:0:
64,192,32649,1,0,0:0:0:0:
320,192,32810,128,0,33133:0:0:0:0:
192,192,32810,1,2,0:0:0:0:
64,192,32971,1,0,0:0:0:0:
192,192,33133,128,0,33455:0:0:0:0:
448,192,33133,1,2,0:0:0:0:
320,192,33294,1,0,0:0:0:0:
448,192,33455,1,2,0:0:0:0:
64,192,33617,1,8,0:0:0:0:
192,192,33697,1,8,0:0:0:0:
448,192,33778,1,2,0:0:0:0:
320,192,33778,1,0,0:0:0:0:
192,192,33939,1,0,0:0:0:0:
64,192,34100,1,2,0:0:0:0:
320,192,34100,1,0,0:0:0:0:
448,192,34262,1,0,0:0:0:0:
64,192,34423,1,2,0:0:0:0:
192,192,34423,1,0,0:0:0:0:
320,192,34584,1,0,0:0:0:0:
448,192,34746,1,2,0:0:0:0:
64,192,34746,1,0,0:0:0:0:
192,192,34907,1,8,0:0:0:0:
448,192,34907,1,0,0:0:0:0:
64,192,35068,128,0,35391:0:0:0:0:
320,192,35068,1,2,0:0:0:0:
448,192,35229,1,0,0:0:0:0:
192,192,35391,128,2,35713:0:0:0:0:
320,192,35391,1,0,0:0:0:0:
448,192,35552,1,0,0:0:0:0:
320,192,35713,128,2,36036:0:0:0:0:
64,192,35713,1,0,0:0:0:0:
192,192,35875,1,0,0:0:0:0:
64,192,36036,1,0,0:0:0:0:
192,192,36117,1,10,0:0:0:0:
320,192,36197,1,8,0:0:0:0:
448,192,36278,1,10,0:0:0:0:
64,192,36359,1,12,0:0:0:0:
192,192,36359,1,2,0:0:0:0:
320,192,36520,1,0,0:0:0:0:
448,192,36681,1,2,0:0:0:0:
64,192,36681,1,0,0:0:0:0:
192,192,36842,1,0,0:0:0:0:
320,192,37004,1,2,0:0:0:0:
64,192,37004,1,0,0:0:0:0:
448,192,37165,1,0,0:0:0:0:
192,192,37326,1,2,0:0:0:0:
64,192,37326,1,0,0:0:0:0:
448,192,37488,1,8,0:0:0:0:
320,192,37488,1,0,0:0:0:0:
64,192,37649,1,0,0:0:0:0:
192,192,37649,1,2,0:0:0:0:
320,192,37810,5,0,0:0:0:0:
448,192,37971,1,2,0:0:0:0:
64,192,37971,1,0,0:0:0:0:
192,192,38133,1,0,0:0:0:0:
320,192,38294,1,2,0:0:0:0:
448,192,38294,1,0,0:0:0:0:
192,192,38455,1,0,0:0:0:0:
320,192,38617,1,2,0:0:0:0:
64,192,38617,1,0,0:0:0:0:
448,192,38778,1,8,0:0:0:0:
320,192,38859,1,10,0:0:0:0:
192,192,38939,1,14,0:0:0:0:
64,192,38939,1,0,0:0:0:0:
448,192,39423,1,8,0:0:0:0:
192,192,39423,1,0,0:0:0:0:
320,192,39584,1,2,0:0:0:0:
192,192,39746,1,2,0:0:0:0:
64,192,39907,1,8,0:0:0:0:
320,192,39907,1,0,0:0:0:0:
192,192,40068,1,2,0:0:0:0:
448,192,40229,1,8,0:0:0:0:
64,192,40229,1,0,0:0:0:0:
320,192,40391,1,2,0:0:0:0:
192,192,40552,1,2,0:0:0:0:
64,192,40713,1,8,0:0:0:0:
320,192,40713,1,2,0:0:0:0:
192,192,40875,1,0,0:0:0:0:
448,192,40875,1,2,0:0:0:0:
320,192,41036,1,2,0:0:0:0:
192,192,41117,1,2,0:0:0:0:
448,192,41197,1,8,0:0:0:0:
64,192,41197,1,2,0:0:0:0:
192,192,41520,1,12,0:0:0:0:
448,192,41520,1,2,0:0:0:0:
192,192,41842,1,2,0:0:0:0:
320,192,41842,1,8,0:0:0:0:
320,192,42165,1,10,0:0:0:0:
64,192,42165,1,0,0:0:0:0:
192,192,42326,1,2,0:0:0:0:
64,192,42407,1,2,0:0:0:0:
320,192,42488,1,10,0:0:0:0:
448,192,42488,1,0,0:0:0:0:
192,192,42649,1,2,0:0:0:0:
64,192,42649,1,0,0:0:0:0:
320,192,42810,1,10,0:0:0:0:
448,192,42810,1,0,0:0:0:0:
192,192,43133,1,2,0:0:0:0:
448,192,43133,1,8,0:0:0:0:
192,192,43455,1,8,0:0:0:0:
64,192,43455,1,2,0:0:0:0:
448,192,43617,1,2,0:0:0:0:
320,192,43697,1,2,0:0:0:0:
192,192,43778,1,8,0:0:0:0:
64,192,43778,1,2,0:0:0:0:
320,192,43939,1,2,0:0:0:0:
448,192,43939,1,0,0:0:0:0:
64,192,44100,1,10,0:0:0:0:
192,192,44100,1,0,0:0:0:0:
448,192,44423,1,10,0:0:0:0:
192,192,44423,1,0,0:0:0:0:
448,192,44746,1,10,0:0:0:0:
320,192,44746,1,0,0:0:0:0:
192,192,44907,1,2,0:0:0:0:
320,192,44988,1,2,0:0:0:0:
64,192,45068,1,10,0:0:0:0:
448,192,45068,1,0,0:0:0:0:
64,192,45391,1,8,0:0:0:0:
320,192,45391,1,2,0:0:0:0:
192,192,45713,1,8,0:0:0:0:
448,192,45713,1,2,0:0:0:0:
320,192,46036,1,10,0:0:0:0:
64,192,46036,1,0,0:0:0:0:
448,192,46197,1,2,0:0:0:0:
320,192,46278,1,2,0:0:0:0:
64,192,46359,1,8,0:0:0:0:
192,192,46359,1,0,0:0:0:0:
320,192,46439,1,8,0:0:0:0:
448,192,46439,1,0,0:0:0:0:
192,192,46520,1,2,0:0:0:0:
64,192,46520,1,0,0:0:0:0:
320,192,46600,1,2,0:0:0:0:
448,192,46600,1,0,0:0:0:0:
192,192,46681,1,10,0:0:0:0:
64,192,46681,1,4,0:0:0:0:
320,192,46842,1,2,0:0:0:0:
192,192,47004,1,2,0:0:0:0:
320,192,47165,1,8,0:0:0:0:
64,192,47165,1,0,0:0:0:0:
192,192,47326,1,2,0:0:0:0:
320,192,47488,1,2,0:0:0:0:
448,192,47649,1,8,0:0:0:0:
192,192,47649,1,0,0:0:0:0:
320,192,47810,1,2,0:0:0:0:
448,192,47971,1,8,0:0:0:0:
64,192,47971,1,0,0:0:0:0:
320,192,48052,1,0,0:0:0:0:
192,192,48133,1,0,0:0:0:0:
64,192,48213,1,0,0:0:0:0:
448,192,48294,1,0,0:0:0:0:
320,192,48375,1,0,0:0:0:0:
192,192,48455,1,8,0:0:0:0:
64,192,48455,1,0,0:0:0:0:
320,192,48617,1,2,0:0:0:0:
448,192,48617,1,0,0:0:0:0:
64,192,48778,1,2,0:0:0:0:
192,192,48859,1,2,0:0:0:0:
320,192,48939,1,8,0:0:0:0:
448,192,48939,1,0,0:0:0:0:
192,192,49100,1,2,0:0:0:0:
448,192,49262,1,10,0:0:0:0:
64,192,49262,1,4,0:0:0:0:
64,192,49423,1,10,0:0:0:0:
448,192,49423,1,0,0:0:0:0:
320,192,49746,1,12,0:0:0:0:
64,192,49746,1,2,0:0:0:0:
320,192,49907,1,10,0:0:0:0:
64,192,49907,1,0,0:0:0:0:
448,192,50229,1,14,0:0:0:0:
320,192,50229,1,0,0:0:0:0:
192,192,50391,128,0,50875:0:0:0:0:
448,192,50875,1,0,0:0:0:0:
320,192,50955,1,0,0:0:0:0:
64,192,51036,1,0,0:0:0:0:
192,192,51117,1,0,0:0:0:0:
320,192,51197,1,8,0:0:0:0:
448,192,51197,1,2,0:0:0:0:
192,192,51359,1,10,0:0:0:0:
64,192,51359,1,0,0:0:0:0:
448,192,51681,1,2,0:0:0:0:
64,192,51681,1,4,0:0:0:0:
320,192,52165,1,8,0:0:0:0:
448,192,52165,1,0,0:0:0:0:
192,192,52326,1,0,0:0:0:0:
64,192,52488,1,0,0:0:0:0:
448,192,52488,1,2,0:0:0:0:
320,192,52649,1,0,0:0:0:0:
64,192,52810,1,0,0:0:0:0:
192,192,52810,1,8,0:0:0:0:
320,192,52971,1,2,0:0:0:0:
448,192,52971,1,0,0:0:0:0:
192,192,53294,1,2,0:0:0:0:
64,192,53294,1,0,0:0:0:0:
320,192,53455,1,8,0:0:0:0:
448,192,53455,1,0,0:0:0:0:
192,192,53617,1,0,0:0:0:0:
448,192,53778,1,2,0:0:0:0:
64,192,53778,1,0,0:0:0:0:
320,192,53939,1,0,0:0:0:0:
192,192,54100,1,8,0:0:0:0:
448,192,54100,1,0,0:0:0:0:
320,192,54262,1,2,0:0:0:0:
64,192,54262,1,0,0:0:0:0:
192,192,54584,1,2,0:0:0:0:
448,192,54584,1,0,0:0:0:0:
320,192,54746,1,8,0:0:0:0:
64,192,54746,1,0,0:0:0:0:
192,192,54907,1,0,0:0:0:0:
320,192,55068,1,2,0:0:0:0:
448,192,55068,1,0,0:0:0:0:
192,192,55229,1,0,0:0:0:0:
64,192,55391,1,0,0:0:0:0:
320,192,55391,1,8,0:0:0:0:
192,192,55552,1,0,0:0:0:0:
448,192,55552,1,2,0:0:0:0:
64,192,55875,1,2,0:0:0:0:
192,192,55875,1,0,0:0:0:0:
320,192,56036,1,8,0:0:0:0:
448,192,56036,1,0,0:0:0:0:
192,192,56197,1,0,0:0:0:0:
64,192,56359,1,0,0:0:0:0:
448,192,56359,1,2,0:0:0:0:
320,192,56520,1,0,0:0:0:0:
192,192,56681,1,8,0:0:0:0:
64,192,56681,1,0,0:0:0:0:
320,192,56842,1,8,0:0:0:0:
448,192,56842,1,0,0:0:0:0:
192,192,57004,1,2,0:0:0:0:
64,192,57004,1,0,0:0:0:0:
320,192,57165,1,0,0:0:0:0:
448,192,57326,1,8,0:0:0:0:
64,192,57326,1,0,0:0:0:0:
192,192,57488,1,0,0:0:0:0:
320,192,57649,1,0,0:0:0:0:
64,192,57649,1,2,0:0:0:0:
448,192,57810,1,0,0:0:0:0:
192,192,57971,1,8,0:0:0:0:
64,192,57971,1,0,0:0:0:0:
320,192,58133,1,0,0:0:0:0:
448,192,58294,1,2,0:0:0:0:
64,192,58294,1,0,0:0:0:0:
192,192,58455,1,0,0:0:0:0:
320,192,58617,1,8,0:0:0:0:
448,192,58617,1,0,0:0:0:0:
192,192,58778,1,0,0:0:0:0:
448,192,58939,1,0,0:0:0:0:
64,192,58939,1,2,0:0:0:0:
320,192,59100,1,0,0:0:0:0:
192,192,59262,1,8,0:0:0:0:
64,192,59262,1,0,0:0:0:0:
448,192,59423,1,0,0:0:0:0:
320,192,59584,1,10,0:0:0:0:
192,192,59584,1,0,0:0:0:0:
64,192,59746,1,0,0:0:0:0:
192,192,59907,1,10,0:0:0:0:
448,192,59907,1,0,0:0:0:0:
320,192,60068,1,0,0:0:0:0:
448,192,60229,1,2,0:0:0:0:
64,192,60229,1,8,0:0:0:0:
192,192,60391,1,0,0:0:0:0:
320,192,60552,1,10,0:0:0:0:
448,192,60552,1,0,0:0:0:0:
192,192,60713,1,10,0:0:0:0:
64,192,60713,1,4,0:0:0:0:
64,192,61036,1,2,0:0:0:0:
192,192,61117,1,10,0:0:0:0:
320,192,61197,1,10,0:0:0:0:
448,192,61197,1,0,0:0:0:0:
192,192,61359,1,0,0:0:0:0:
64,192,61520,1,0,0:0:0:0:
320,192,61520,1,8,0:0:0:0:
64,192,61681,1,8,0:0:0:0:
448,192,61681,1,2,0:0:0:0:
320,192,62004,1,10,0:0:0:0:
64,192,62004,1,4,0:0:0:0:
192,192,62488,1,8,0:0:0:0:
448,192,62488,1,0,0:0:0:0:
320,192,62649,1,0,0:0:0:0:
192,192,62810,1,2,0:0:0:0:
64,192,62810,1,0,0:0:0:0:
448,192,62971,1,0,0:0:0:0:
320,192,63133,1,8,0:0:0:0:
64,192,63133,1,0,0:0:0:0:
192,192,63294,1,0,0:0:0:0:
320,192,63455,1,2,0:0:0:0:
448,192,63455,1,0,0:0:0:0:
64,192,63617,1,0,0:0:0:0:
192,192,63778,1,8,0:0:0:0:
320,192,63778,1,0,0:0:0:0:
448,192,63939,1,0,0:0:0:0:
320,192,64100,1,2,0:0:0:0:
64,192,64100,1,0,0:0:0:0:
192,192,64262,1,0,0:0:0:0:
448,192,64423,1,8,0:0:0:0:
64,192,64423,1,0,0:0:0:0:
320,192,64584,1,0,0:0:0:0:
64,192,64746,1,2,0:0:0:0:
192,192,64746,1,0,0:0:0:0:
448,192,64907,1,0,0:0:0:0:
320,192,65068,1,8,0:0:0:0:
192,192,65068,1,0,0:0:0:0:
64,192,65229,1,0,0:0:0:0:
192,192,65391,1,0,0:0:0:0:
448,192,65391,1,2,0:0:0:0:
320,192,65552,1,0,0:0:0:0:
448,192,65713,1,8,0:0:0:0:
64,192,65713,1,0,0:0:0:0:
192,192,65875,1,0,0:0:0:0:
320,192,66036,1,2,0:0:0:0:
448,192,66036,1,0,0:0:0:0:
192,192,66197,1,0,0:0:0:0:
448,192,66359,1,8,0:0:0:0:
64,192,66359,1,0,0:0:0:0:
320,192,66520,1,0,0:0:0:0:
192,192,66681,1,2,0:0:0:0:
448,192,66681,1,0,0:0:0:0:
320,192,66842,1,0,0:0:0:0:
192,192,67004,1,8,0:0:0:0:
64,192,67004,1,0,0:0:0:0:
448,192,67165,1,10,0:0:0:0:
320,192,67165,1,4,0:0:0:0:
448,192,67649,1,8,0:0:0:0:
192,192,67649,1,0,0:0:0:0:
320,192,67810,1,2,0:0:0:0:
192,192,67971,1,8,0:0:0:0:
64,192,67971,1,0,0:0:0:0:
448,192,68133,1,2,0:0:0:0:
320,192,68213,1,2,0:0:0:0:
64,192,68294,1,8,0:0:0:0:
192,192,68294,1,0,0:0:0:0:
320,192,68455,1,2,0:0:0:0:
448,192,68455,1,0,0:0:0:0:
192,192,68617,1,8,0:0:0:0:
64,192,68617,1,0,0:0:0:0:
320,192,68778,1,2,0:0:0:0:
448,192,68939,1,8,0:0:0:0:
64,192,68939,1,0,0:0:0:0:
192,192,69100,1,2,0:0:0:0:
320,192,69262,1,8,0:0:0:0:
448,192,69262,1,0,0:0:0:0:
192,192,69423,1,2,0:0:0:0:
320,192,69584,1,8,0:0:0:0:
64,192,69584,1,0,0:0:0:0:
192,192,69907,1,10,0:0:0:0:
448,192,69907,1,4,0:0:0:0:
320,192,70068,1,2,0:0:0:0:
192,192,70149,1,2,0:0:0:0:
64,192,70229,1,2,0:0:0:0:
192,192,70310,1,2,0:0:0:0:
320,192,70391,1,0,0:0:0:0:
448,192,70391,1,12,0:0:0:0:
192,192,70552,1,2,0:0:0:0:
320,192,70633,1,2,0:0:0:0:
448,192,70713,1,2,0:0:0:0:
320,192,70794,1,2,0:0:0:0:
64,192,70875,1,4,0:0:0:0:
192,192,70875,1,8,0:0:0:0:
320,192,71036,1,2,0:0:0:0:
448,192,71036,1,0,0:0:0:0:
64,192,71278,1,8,0:0:0:0:
192,192,71359,1,8,0:0:0:0:
320,192,71439,1,8,0:0:0:0:
448,192,71520,1,8,0:0:0:0:
320,192,71600,1,8,0:0:0:0:
192,192,71681,1,8,0:0:0:0:
64,192,71762,1,8,0:0:0:0:
448,192,71842,1,8,0:0:0:0:
320,192,71923,1,8,0:0:0:0:
192,192,72004,1,8,0:0:0:0:
64,192,72084,1,8,0:0:0:0:
448,192,72165,1,8,0:0:0:0:
320,192,72165,1,0,0:0:0:0:
64,192,72326,1,2,0:0:0:0:
192,192,72326,1,4,0:0:0:0:
320,192,72810,1,8,0:0:0:0:
64,192,72810,1,0,0:0:0:0:
192,192,72971,1,0,0:0:0:0:
320,192,73133,1,2,0:0:0:0:
448,192,73133,1,0,0:0:0:0:
64,192,73294,1,0,0:0:0:0:
192,192,73455,1,8,0:0:0:0:
448,192,73455,1,0,0:0:0:0:
320,192,73617,1,0,0:0:0:0:
448,192,73778,1,2,0:0:0:0:
64,192,73778,1,0,0:0:0:0:
192,192,73939,1,0,0:0:0:0:
320,192,74100,1,8,0:0:0:0:
448,192,74100,1,0,0:0:0:0:
64,192,74262,1,0,0:0:0:0:
192,192,74423,1,2,0:0:0:0:
320,192,74423,1,0,0:0:0:0:
448,192,74584,1,0,0:0:0:0:
320,192,74746,1,8,0:0:0:0:
64,192,74746,1,0,0:0:0:0:
192,192,74907,1,0,0:0:0:0:
320,192,75068,1,2,0:0:0:0:
448,192,75068,1,0,0:0:0:0:
64,192,75229,1,0,0:0:0:0:
192,192,75391,1,8,0:0:0:0:
448,192,75391,1,0,0:0:0:0:
320,192,75552,1,0,0:0:0:0:
64,192,75713,1,2,0:0:0:0:
448,192,75713,1,0,0:0:0:0:
192,192,75875,1,0,0:0:0:0:
320,192,76036,1,8,0:0:0:0:
64,192,76036,1,0,0:0:0:0:
448,192,76197,1,0,0:0:0:0:
320,192,76359,1,2,0:0:0:0:
192,192,76359,1,0,0:0:0:0:
64,192,76520,1,0,0:0:0:0:
192,192,76681,1,8,0:0:0:0:
448,192,76681,1,0,0:0:0:0:
320,192,76842,1,0,0:0:0:0:
192,192,77004,1,2,0:0:0:0:
64,192,77004,1,0,0:0:0:0:
448,192,77165,1,0,0:0:0:0:
64,192,77326,1,8,0:0:0:0:
320,192,77326,1,0,0:0:0:0:
192,192,77649,1,6,0:0:0:0:
448,192,77649,1,8,0:0:0:0:
320,192,77810,1,10,0:0:0:0:
64,192,77810,1,0,0:0:0:0:
448,192,78133,1,12,0:0:0:0:
320,192,78133,1,2,0:0:0:0:
192,192,78294,1,8,0:0:0:0:
64,192,78294,1,2,0:0:0:0:
448,192,78617,1,14,0:0:0:0:
64,192,78617,1,0,0:0:0:0:
320,192,78778,1,10,0:0:0:0:
192,192,78778,1,0,0:0:0:0:
448,192,79100,1,10,0:0:0:0:
64,192,79100,1,4,0:0:0:0:
320,192,79423,1,0,0:0:0:0:
192,192,79584,1,10,0:0:0:0:
64,192,79584,1,0,0:0:0:0:
320,192,79826,1,10,0:0:0:0:
192,192,79826,1,0,0:0:0:0:
320,192,80068,1,10,0:0:0:0:
448,192,80068,1,0,0:0:0:0:
192,192,80229,1,2,0:0:0:0:
64,192,80229,1,0,0:0:0:0:
320,192,80391,1,8,0:0:0:0:
448,192,80391,1,0,0:0:0:0:
320,192,80713,1,2,0:0:0:0:
64,192,80713,1,0,0:0:0:0:
192,192,80875,1,2,0:0:0:0:
448,192,80875,1,0,0:0:0:0:
320,192,81036,1,2,0:0:0:0:
192,192,81117,1,2,0:0:0:0:
64,192,81197,1,8,0:0:0:0:
448,192,81278,1,8,0:0:0:0:
320,192,81359,1,8,0:0:0:0:
192,192,81439,1,8,0:0:0:0:
64,192,81520,1,0,0:0:0:0:
320,192,81842,1,0,0:0:0:0:
192,192,82004,1,0,0:0:0:0:
448,192,82326,1,0,0:0:0:0:
320,192,82649,1,0,0:0:0:0:
192,192,82810,1,12,0:0:0:0:
64,192,82810,1,2,0:0:0:0:
192,192,82971,1,10,0:0:0:0:
64,192,82971,1,0,0:0:0:0:
320,192,83294,1,12,0:0:0:0:
64,192,83294,1,2,0:0:0:0:
320,192,83455,1,10,0:0:0:0:
64,192,83455,1,0,0:0:0:0:
448,192,83778,1,6,0:0:0:0:
192,192,83778,1,8,0:0:0:0:
448,192,83939,1,10,0:0:0:0:
192,192,83939,1,0,0:0:0:0:
448,192,84262,1,14,0:0:0:0:
320,192,84262,1,0,0:0:0:0:
448,192,84423,1,8,0:0:0:0:
320,192,84423,1,2,0:0:0:0:
320,192,84746,1,2,0:0:0:0:
64,192,84746,1,0,0:0:0:0:
192,192,84907,1,8,0:0:0:0:
64,192,84907,1,0,0:0:0:0:
320,192,84988,1,8,0:0:0:0:
448,192,84988,1,0,0:0:0:0:
192,192,85068,1,8,0:0:0:0:
64,192,85068,1,2,0:0:0:0:
320,192,85149,1,8,0:0:0:0:
448,192,85149,1,2,0:0:0:0:
192,192,85229,1,2,0:0:0:0:
64,192,85229,1,0,0:0:0:0:
320,192,85391,1,12,0:0:0:0:
448,192,85391,1,2,0:0:0:0:
320,192,85552,1,2,0:0:0:0:
448,192,85552,1,8,0:0:0:0:
192,192,85875,1,10,0:0:0:0:
320,192,85875,1,4,0:0:0:0:
192,192,86036,1,2,0:0:0:0:
320,192,86036,1,8,0:0:0:0:
448,192,86197,1,2,0:0:0:0:
320,192,86278,1,8,0:0:0:0:
192,192,86359,1,8,0:0:0:0:
64,192,86359,1,0,0:0:0:0:
192,192,86520,1,4,0:0:0:0:
64,192,86520,1,0,0:0:0:0:
