osu file format v14

[General]
AudioFilename: audio.mp3
AudioLeadIn: 0
PreviewTime: 255834
Countdown: 0
SampleSet: Soft
StackLeniency: 0.5
Mode: 0
LetterboxInBreaks: 0
WidescreenStoryboard: 1

[Editor]
Bookmarks: 21834,43167,64500,85834,139167,181667,213834,235167,256500,279000,311167,332500
DistanceSpacing: 0.5
BeatDivisor: 4
GridSize: 4
TimelineZoom: 2.399999

[Metadata]
Title:High Free Spirits (nenpulse bootleg remix)
TitleUnicode:High Free Spirits (nenpulse bootleg remix)
Artist:TrySail
ArtistUnicode:TrySail
Creator:Kibbleru
Version:Horizon~
Source:ハイスクール・フリート
Tags:麻倉もも 雨宮天 夏川椎菜 School Fleet はいふり Hai-Furi haifuri 麻倉もも 雨宮天 夏川椎菜 dnb drum and bass opening
BeatmapID:1506561
BeatmapSetID:555749

[Difficulty]
HPDrainRate:7
CircleSize:4
OverallDifficulty:8
ApproachRate:9.3
SliderMultiplier:1.79
SliderTickRate:1

[Events]
//Background and Video events
0,0,"cropped-1920-1080-753540.png",0,0
//Break Periods
2,118033,132780
2,256700,266613
//Storyboard Layer 0 (Background)
//Storyboard Layer 1 (Fail)
//Storyboard Layer 2 (Pass)
//Storyboard Layer 3 (Foreground)
//Storyboard Sound Samples

[TimingPoints]
501,333.333333333333,4,2,2,50,1,0
501,-100,4,2,2,50,0,0
750,-125,4,2,2,50,0,0
1000,-125,4,2,2,40,0,0
1167,-125,4,2,2,30,0,0
1667,-250,4,2,2,50,0,0
11167,-100,4,2,1,60,0,0
11667,-125,4,2,1,60,0,0
21167,-71.4285714285714,4,2,1,60,0,0
21500,-58.8235294117647,4,2,1,60,0,0
21834,-100,4,2,1,60,0,0
31000,-71.4285714285714,4,2,1,60,0,0
32500,-100,4,2,1,60,0,0
38834,-76.9230769230769,4,2,1,60,0,0
39167,-90.9090909090909,4,2,1,60,0,0
40167,-71.4285714285714,4,2,1,60,0,0
40500,-58.8235294117647,4,2,1,60,0,0
41167,-66.6666666666667,4,2,1,60,0,0
41500,-71.4285714285714,4,2,1,60,0,0
41834,-166.666666666667,4,2,1,60,0,0
42834,-83.3333333333333,4,2,1,60,0,0
43167,-142.857142857143,4,2,1,50,0,0
52500,-100,4,2,1,60,0,0
53334,-71.4285714285714,4,2,1,60,0,0
53500,-71.4285714285714,4,2,1,60,0,0
53834,-71.4285714285714,4,2,1,60,0,0
54167,-111.111111111111,4,2,1,60,0,0
56500,-71.4285714285714,4,2,1,60,0,0
56833,-111.111111111111,4,2,1,60,0,0
59167,-71.4285714285714,4,2,1,60,0,0
59500,-111.111111111111,4,2,1,60,0,0
62834,-83.3333333333333,4,2,1,60,0,0
63167,-83.3333333333333,4,2,1,60,0,0
63834,-71.4285714285714,4,2,1,60,0,0
64500,-83.3333333333333,4,2,1,60,0,0
64834,-100,4,2,1,60,0,0
67167,-83.3333333333333,4,2,1,60,0,0
67500,-100,4,2,1,60,0,0
69500,-71.4285714285714,4,2,1,60,0,0
69834,-83.3333333333333,4,2,1,60,0,0
70168,-100,4,2,1,60,0,0
73167,-55.5555555555556,4,2,1,60,0,0
73667,-125,4,2,1,60,0,0
74500,-71.4285714285714,4,2,1,60,0,0
75167,-83.3333333333333,4,2,1,60,0,0
75500,-100,4,2,1,60,0,0
77834,-83.3333333333333,4,2,1,60,0,0
78167,-100,4,2,1,60,0,0
80500,-100,4,2,1,60,0,0
81500,-83.3333333333333,4,2,1,60,0,0
81834,-71.4285714285714,4,2,1,60,0,0
82500,-62.5,4,2,1,60,0,0
82834,-55.5555555555556,4,2,1,60,0,0
85334,-71.4285714285714,4,2,1,60,0,0
85834,-66.6666666666667,4,2,1,70,0,1
87334,-76.9230769230769,4,2,1,70,0,1
87834,-66.6666666666667,4,2,1,70,0,1
89667,-83.3333333333333,4,2,1,70,0,1
91167,-66.6666666666667,4,2,1,70,0,1
93000,-76.9230769230769,4,2,1,70,0,1
93834,-66.6666666666667,4,2,1,70,0,1
96167,-55.5555555555556,4,2,1,70,0,1
96500,-66.6666666666667,4,2,1,70,0,1
98001,-76.9230769230769,4,2,1,70,0,1
98667,-66.6666666666667,4,2,1,70,0,1
100167,-100,4,2,1,70,0,1
101500,-83.3333333333333,4,2,1,70,0,1
104500,-71.4285714285714,4,2,1,70,0,1
106167,-66.6666666666667,4,2,1,70,0,0
107167,-66.6666666666667,4,2,1,70,0,1
108667,-76.9230769230769,4,2,1,70,0,1
109334,-66.6666666666667,4,2,1,70,0,1
110834,-100,4,2,1,70,0,1
112000,-83.3333333333333,4,2,1,70,0,1
112500,-71.4285714285714,4,2,1,70,0,1
114500,-58.8235294117647,4,2,1,70,0,1
115167,-100,4,2,1,70,0,1
116167,-83.3333333333333,4,2,1,70,0,1
116500,-125,4,2,1,60,0,0
116833,-142.857142857143,4,2,1,55,0,0
117166,-166.666666666667,4,2,1,50,0,0
117500,-71.4285714285714,4,2,1,70,0,1
117834,-71.4285714285714,4,2,1,60,0,0
133834,-100,4,2,1,60,0,0
134834,-76.9230769230769,4,2,1,60,0,0
135167,-90.9090909090909,4,2,1,60,0,0
136167,-71.4285714285714,4,2,1,60,0,0
136500,-58.8235294117647,4,2,1,60,0,0
137167,-66.6666666666667,4,2,1,60,0,0
137500,-71.4285714285714,4,2,1,60,0,0
137834,-166.666666666667,4,2,1,60,0,0
138834,-71.4285714285714,4,2,1,60,0,0
139167,-83.3333333333333,4,2,1,50,0,0
139500,-90.9090909090909,4,2,1,50,0,0
139834,-100,4,2,1,50,0,0
140167,-111.111111111111,4,2,1,50,0,0
140500,-71.4285714285714,4,2,1,60,0,0
141000,-66.6666666666667,4,2,1,60,0,0
141334,-71.4285714285714,4,2,1,60,0,0
141667,-100,4,2,1,60,0,0
142167,-83.3333333333333,4,2,1,60,0,0
142667,-111.111111111111,4,2,1,60,0,0
148000,-83.3333333333333,4,2,1,60,0,0
148500,-83.3333333333333,4,2,1,60,0,0
149334,-71.4285714285714,4,2,1,60,0,0
149834,-71.4285714285714,4,2,1,60,0,0
150167,-111.111111111111,4,2,1,60,0,0
152500,-71.4285714285714,4,2,1,60,0,0
152833,-111.111111111111,4,2,1,60,0,0
155167,-71.4285714285714,4,2,1,60,0,0
155500,-111.111111111111,4,2,1,60,0,0
158834,-83.3333333333333,4,2,1,60,0,0
159167,-83.3333333333333,4,2,1,60,0,0
160500,-200,4,2,1,60,0,0
170000,-100,4,2,1,60,0,0
170334,-83.3333333333333,4,2,1,60,0,0
171167,-83.3333333333333,4,2,1,60,0,0
171500,-100,4,2,1,60,0,0
173834,-83.3333333333333,4,2,1,60,0,0
174167,-100,4,2,1,60,0,0
177834,-71.4285714285714,4,2,1,60,0,0
178500,-62.5,4,2,1,60,0,0
178834,-55.5555555555556,4,2,1,60,0,0
180334,-166.666666666667,4,2,1,60,0,0
181167,-71.4285714285714,4,2,1,70,0,1
181417,-71.4285714285714,4,2,1,60,0,0
181667,-125,4,2,1,60,0,0
182167,-66.6666666666667,4,2,1,70,0,1
183334,-76.9230769230769,4,2,1,70,0,1
183834,-66.6666666666667,4,2,1,70,0,1
185667,-83.3333333333333,4,2,1,70,0,1
187167,-66.6666666666667,4,2,1,70,0,1
189000,-76.9230769230769,4,2,1,70,0,1
189834,-66.6666666666667,4,2,1,70,0,1
192167,-55.5555555555556,4,2,1,70,0,1
192500,-66.6666666666667,4,2,1,70,0,1
194001,-76.9230769230769,4,2,1,70,0,1
194667,-66.6666666666667,4,2,1,70,0,1
196167,-100,4,2,1,70,0,1
197500,-83.3333333333333,4,2,1,70,0,1
200500,-71.4285714285714,4,2,1,70,0,1
202167,-71.4285714285714,4,2,1,60,0,0
202834,-66.6666666666667,4,2,1,60,0,0
203167,-66.6666666666667,4,2,1,70,0,1
204667,-76.9230769230769,4,2,1,70,0,1
205334,-66.6666666666667,4,2,1,70,0,1
206834,-76.9230769230769,4,2,1,70,0,1
208000,-83.3333333333333,4,2,1,70,0,1
208500,-71.4285714285714,4,2,1,70,0,1
210501,-58.8235294117647,4,2,1,70,0,1
211167,-100,4,2,1,70,0,1
212167,-83.3333333333333,4,2,1,70,0,1
212500,-125,4,2,1,60,0,0
212833,-142.857142857143,4,2,1,55,0,0
213166,-166.666666666667,4,2,1,50,0,0
213500,-71.4285714285714,4,2,1,70,0,1
213834,-166.666666666667,4,2,1,60,0,0
214167,-300,4,2,1,60,0,0
216834,-270.27027027027,4,2,1,60,0,0
219500,-243.90243902439,4,2,1,60,0,0
222167,-222.222222222222,4,2,1,60,0,0
224500,-142.857142857143,4,2,1,60,0,0
233167,-83.3333333333333,4,2,1,60,0,0
233500,-58.8235294117647,4,2,1,60,0,0
234667,-71.4285714285714,4,2,1,60,0,0
234834,-83.3333333333333,4,2,1,60,0,0
235167,-111.111111111111,4,2,1,55,0,0
244334,-71.4285714285714,4,2,1,55,0,0
245834,-111.111111111111,4,2,1,55,0,0
252500,-83.3333333333333,4,2,1,55,0,0
253500,-71.4285714285714,4,2,1,55,0,0
253834,-58.8235294117647,4,2,1,55,0,0
254500,-66.6666666666667,4,2,1,55,0,0
255834,-200,4,2,1,55,0,0
256167,-71.4285714285714,4,2,1,60,0,0
256500,-142.857142857143,4,2,1,60,0,0
267167,-166.666666666667,4,2,1,60,0,0
272167,-71.4285714285715,4,2,1,60,0,0
272500,-100,4,2,1,60,0,0
274500,-71.4285714285714,4,2,1,60,0,0
275167,-111.111111111111,4,2,1,60,0,0
276334,-142.857142857143,4,2,1,60,0,0
276667,-142.857142857143,4,2,2,30,0,0
277110,410.958904109589,4,2,2,30,1,8
277110,-142.857142857143,4,2,2,30,0,0
277850,410.958904109589,4,2,2,30,1,8
277850,-142.857142857143,4,2,2,30,0,0
278500,333.333333333333,4,2,1,70,1,9
278500,-71.4285714285714,4,2,1,70,0,1
278750,-71.4285714285714,4,2,1,70,0,0
279000,-125,4,2,1,70,0,0
279166,333.333333333333,4,2,1,70,1,0
279499,-66.6666666666667,4,2,1,70,0,1
280666,-76.9230769230769,4,2,1,70,0,1
281166,-66.6666666666667,4,2,1,70,0,1
282999,-83.3333333333333,4,2,1,70,0,1
284499,-66.6666666666667,4,2,1,70,0,1
286332,-76.9230769230769,4,2,1,70,0,1
287166,-66.6666666666667,4,2,1,70,0,1
289499,-55.5555555555556,4,2,1,70,0,1
289832,-66.6666666666667,4,2,1,70,0,1
291332,-76.9230769230769,4,2,1,70,0,1
291999,-66.6666666666667,4,2,1,70,0,1
293499,-100,4,2,1,70,0,1
294832,-83.3333333333333,4,2,1,70,0,1
297832,-71.4285714285714,4,2,1,70,0,1
299499,-71.4285714285714,4,2,1,70,0,0
300166,-66.6666666666667,4,2,1,70,0,0
300499,-66.6666666666667,4,2,1,70,0,1
301999,-76.9230769230769,4,2,1,70,0,1
302666,-66.6666666666667,4,2,1,70,0,1
304166,-100,4,2,1,70,0,1
305332,-83.3333333333333,4,2,1,70,0,1
305832,-71.4285714285714,4,2,1,70,0,1
307832,-58.8235294117647,4,2,1,70,0,1
308499,-100,4,2,1,70,0,1
309499,-83.3333333333333,4,2,1,70,0,1
309832,-125,4,2,1,60,0,0
310165,-142.857142857143,4,2,1,55,0,0
310499,-166.666666666667,4,2,1,50,0,0
310832,-71.4285714285714,4,2,1,70,0,1
311165,-100,4,2,1,60,0,0
320332,-71.4285714285714,4,2,1,60,0,0
321832,-100,4,2,1,60,0,0
328165,-71.4285714285714,4,2,1,60,0,0
328499,-90.9090909090909,4,2,1,60,0,0
329499,-66.6666666666667,4,2,1,60,0,0
330499,-66.6666666666667,4,2,1,60,0,0
332499,-125,4,2,1,55,0,0
348499,-100,4,2,1,60,0,0
350832,-71.4285714285714,4,2,1,60,0,0
352332,-125,4,2,1,50,0,0
352665,-142.857142857143,4,2,1,45,0,0
352999,-166.666666666667,4,2,1,40,0,0
353332,-66.6666666666667,4,2,1,60,0,0
355165,-58.8235294117647,4,2,32,30,0,0
355832,-58.8235294117647,4,2,32,20,0,0
356499,-58.8235294117647,4,2,32,10,0,0
357165,-58.8235294117647,4,2,32,5,0,0

[Colours]
Combo1 : 153,162,196
Combo2 : 255,159,43
Combo3 : 83,187,249
Combo4 : 197,83,240

[HitObjects]
74,228,501,6,0,L|185:220,1,89.5,4|0,0:0|0:0,0:0:0:0:
194,207,750,1,0,0:0:0:0:
194,207,834,2,0,L|188:254,6,35.8,2|0|0|0|2|0|0,0:0|0:0|0:0|0:0|0:0|0:0|0:0,0:0:0:0:
316,134,1667,6,0,P|410:94|392:195,1,250.6,2|0,0:0|0:0,0:0:0:0:
499,217,3167,2,0,B|393:181|408:282|297:251,1,214.8,2|0,0:0|0:0,0:0:0:0:
214,296,4334,6,0,P|205:261|202:225,1,71.6,2|0,0:0|0:0,0:0:0:0:
107,206,4834,2,0,P|125:175|149:149,1,71.6,2|0,0:0|0:0,0:0:0:0:
93,74,5334,2,0,P|126:62|167:56,1,71.6,2|0,0:0|0:0,0:0:0:0:
240,123,5834,6,0,B|321:114|321:114|359:70|359:70|435:61,1,214.8,2|0,0:0|0:0,0:0:0:0:
487,233,7000,2,0,P|387:254|425:160,1,250.6,2|0,0:0|0:0,0:0:0:0:
375,358,8500,2,0,B|331:336|307:298|307:298|257:338|191:335,1,214.8,2|0,0:0|0:0,0:0:0:0:
164,245,9667,6,0,P|199:243|234:236,1,71.6,2|0,0:0|0:0,0:0:0:0:
320,298,10167,2,0,P|355:299|390:306,1,71.6,2|0,0:0|0:0,0:0:0:0:
368,196,10667,2,0,P|403:194|438:187,1,71.6,2|0,0:0|0:0,0:0:0:0:
257,108,11167,5,4,3:2:0:0:
264,120,11250,1,0,0:0:0:0:
271,132,11334,2,0,L|226:127,2,44.75,0|0|0,0:0|0:0|0:0,0:0:0:0:
353,85,11667,1,2,0:0:0:0:
245,291,11834,2,0,B|236:254|236:254|244:221,1,71.6,0|0,0:0|0:0,0:0:0:0:
409,231,12167,1,0,0:0:0:0:
434,38,12334,6,0,B|448:74|448:74|431:140,1,107.4,2|0,0:0|0:0,0:0:0:0:
409,231,12667,2,0,L|481:240,1,71.6,2|0,0:0|0:0,0:0:0:0:
239,175,13000,1,0,0:0:0:0:
281,93,13167,2,0,L|353:84,1,71.6,2|0,0:0|0:0,0:0:0:0:
165,236,13500,2,0,P|173:270|177:306,1,71.6,2|0,0:0|0:0,0:0:0:0:
11,162,13834,6,0,P|82:169|142:133,1,143.2,2|0,0:0|0:0,0:0:0:0:
311,32,14334,1,2,0:0:0:0:
311,32,14500,2,0,P|318:67|320:102,1,71.6,0|0,0:0|0:0,0:0:0:0:
220,77,14834,1,0,0:0:0:0:
282,201,15000,6,0,L|404:211,1,107.4,2|0,0:0|0:0,0:0:0:0:
418,222,15334,2,0,L|468:217,2,35.8,2|0|0,0:0|0:0|0:0,0:0:0:0:
348,291,15667,1,0,0:0:0:0:
451,127,15834,5,2,0:0:0:0:
343,312,16167,1,2,0:0:0:0:
199,46,16500,5,4,3:2:0:0:
143,179,16667,2,0,P|138:143|131:109,1,71.6,2|0,0:0|0:0,0:0:0:0:
316,138,17000,1,2,0:0:0:0:
360,220,17167,2,0,P|352:254|347:290,1,71.6,2|0,3:2|0:0,0:0:0:0:
142,338,17500,2,0,P|136:302|129:267,1,71.6,2|0,0:0|0:0,0:0:0:0:
18,45,17834,5,4,3:2:0:0:
145,127,18000,2,0,P|109:124|75:117,1,71.6,2|0,0:0|0:0,0:0:0:0:
255,176,18334,1,0,0:0:0:0:
291,89,18500,2,0,P|335:60|396:61,1,107.4,2|0,3:2|0:0,0:0:0:0:
473,118,18834,2,0,P|463:152|457:187,1,71.6,2|0,0:0|0:0,0:0:0:0:
146,297,19167,5,4,3:2:0:0:
362,150,19500,1,0,3:2:0:0:
129,71,19834,5,4,3:2:0:0:
382,247,20167,1,0,3:2:0:0:
146,297,20500,5,4,3:2:0:0:
456,187,20667,1,0,3:2:0:0:
129,71,20834,5,0,3:2:0:0:
456,187,21000,1,0,3:2:0:0:
447,203,21084,1,0,3:2:0:0:
438,218,21167,6,0,L|431:155,1,62.6499980880738,0|0,3:2|3:2,0:0:0:0:
229,221,21334,2,0,L|235:158,1,62.6499980880738,0|0,3:2|3:2,0:0:0:0:
376,79,21500,2,0,B|311:39|311:39|331:189,1,228.225004353046,8|0,0:1|0:0,0:0:0:0:
372,284,21834,6,0,P|315:218|228:220,1,179,4|8,3:2|0:0,0:0:0:0:
111,253,22334,1,0,0:0:0:0:
111,253,22417,1,0,0:0:0:0:
111,252,22500,2,0,P|116:207|119:162,1,89.5,2|0,0:0|3:2,0:0:0:0:
173,67,22834,2,0,P|217:65|261:58,1,89.5,8|2,0:0|0:0,0:0:0:0:
279,55,23084,1,0,0:0:0:0:
296,49,23167,5,0,3:2:0:0:
488,133,23334,1,0,0:0:0:0:
416,193,23500,2,0,L|327:179,1,89.5,10|0,0:0|0:0,0:0:0:0:
291,170,23750,1,0,0:0:0:0:
323,200,23834,1,2,0:0:0:0:
337,242,23917,1,0,0:0:0:0:
330,286,24000,1,0,3:2:0:0:
411,355,24167,1,10,0:0:0:0:
241,250,24334,1,0,0:0:0:0:
146,304,24500,6,0,P|140:259|134:215,1,89.5,2|0,3:2|0:0,0:0:0:0:
300,84,24834,1,8,0:0:0:0:
201,47,25000,1,2,0:0:0:0:
201,47,25084,1,0,0:0:0:0:
201,47,25167,2,0,P|206:91|212:135,1,89.5,0|0,0:0|3:2,0:0:0:0:
305,191,25500,1,10,0:0:0:0:
300,84,25667,1,0,0:0:0:0:
300,84,25750,1,0,0:0:0:0:
300,84,25834,6,0,B|214:67|223:130|129:114,1,179,2|8,3:2|0:0,0:0:0:0:
109,237,26334,1,2,0:0:0:0:
126,237,26417,1,0,0:0:0:0:
143,240,26500,1,0,0:0:0:0:
335,208,26667,1,0,3:2:0:0:
243,294,26834,2,0,L|236:204,1,89.5,10|0,0:0|0:0,0:0:0:0:
310,104,27167,6,0,P|396:118|445:193,1,179,2|8,3:2|0:0,0:0:0:0:
428,338,27667,1,0,0:0:0:0:
428,338,27750,1,0,0:0:0:0:
428,338,27834,2,0,P|383:334|338:333,1,89.5,2|0,0:0|3:2,0:0:0:0:
232,361,28167,2,0,P|241:318|246:273,1,89.5,10|0,0:0|0:0,0:0:0:0:
119,118,28500,6,0,P|109:161|104:206,1,89.5,2|0,3:2|0:0,0:0:0:0:
205,71,28834,1,8,0:0:0:0:
205,174,29000,1,2,0:0:0:0:
248,165,29084,1,0,0:0:0:0:
291,176,29167,1,0,0:0:0:0:
326,204,29250,1,0,0:0:0:0:
346,243,29334,1,0,3:2:0:0:
308,332,29500,2,0,P|264:332|219:337,1,89.5,10|0,0:0|0:0,0:0:0:0:
111,268,29834,6,0,P|104:223|102:179,1,89.5,2|0,3:2|0:0,0:0:0:0:
93,83,30167,1,8,0:0:0:0:
200,216,30334,1,2,0:0:0:0:
217,216,30417,1,0,0:0:0:0:
234,217,30500,1,0,0:0:0:0:
31,337,30667,5,2,3:2:0:0:
188,119,30834,1,10,0:0:0:0:
339,263,31000,1,0,0:0:0:0:
200,216,31167,6,0,B|148:213|105:236|105:236|107:182|97:146,1,187.949994264221,2|0,3:2|3:2,0:0:0:0:
203,58,31500,2,0,P|193:87|188:118,1,62.6499980880738,10|0,0:0|0:0,0:0:0:0:
132,312,31667,2,0,P|127:281|117:251,1,62.6499980880738,2|0,3:2|0:0,0:0:0:0:
324,176,31834,5,10,0:0:0:0:
311,161,31917,1,2,3:2:0:0:
298,146,32000,2,0,L|374:137,1,62.6499980880738,2|0,3:2|0:0,0:0:0:0:
248,268,32167,6,0,L|324:277,1,62.6499980880738,10|0,0:0|0:0,0:0:0:0:
277,36,32334,2,0,L|214:43,1,62.6499980880738,2|0,3:2|0:0,0:0:0:0:
31,128,32500,6,0,B|124:110|106:181|199:167,1,179,4|8,3:2|0:0,0:0:0:0:
295,219,33000,1,0,0:0:0:0:
295,219,33084,1,0,0:0:0:0:
295,219,33167,2,0,P|307:147|307:117,1,89.5,2|0,0:0|3:2,0:0:0:0:
62,231,33500,2,0,P|50:303|50:333,1,89.5,8|2,0:0|0:0,0:0:0:0:
51,337,33750,1,0,0:0:0:0:
54,354,33834,5,0,3:2:0:0:
159,182,34000,1,0,0:0:0:0:
172,292,34167,2,0,L|285:283,1,89.5,10|0,0:0|0:0,0:0:0:0:
291,293,34417,1,0,0:0:0:0:
261,259,34500,1,2,0:0:0:0:
249,216,34583,1,0,0:0:0:0:
256,173,34667,1,0,3:2:0:0:
438,338,34834,1,10,0:0:0:0:
352,216,35000,1,0,0:0:0:0:
172,292,35167,6,0,P|85:283|23:344,1,179,2|8,3:2|0:0,0:0:0:0:
97,89,35667,1,2,0:0:0:0:
97,89,35750,1,0,0:0:0:0:
96,89,35834,2,0,P|84:132|83:176,1,89.5,0|0,0:0|3:2,0:0:0:0:
172,292,36167,1,10,0:0:0:0:
252,217,36334,1,0,0:0:0:0:
336,280,36500,6,0,L|425:274,1,89.5,2|0,3:2|0:0,0:0:0:0:
384,374,36834,1,10,0:0:0:0:
472,165,37000,1,2,0:0:0:0:
449,126,37084,1,0,0:0:0:0:
413,101,37167,1,0,0:0:0:0:
369,93,37250,1,0,0:0:0:0:
326,103,37334,1,2,3:2:0:0:
502,41,37500,5,10,0:0:0:0:
377,191,37667,1,0,3:2:0:0:
377,191,37750,1,0,3:2:0:0:
377,191,37834,6,0,L|379:253,3,44.75,4|0|0|0,3:2|0:0|0:0|0:0,0:0:0:0:
286,224,38167,2,0,L|288:286,3,44.75,0|0|0|0,3:2|0:0|0:0|0:0,0:0:0:0:
195,190,38500,2,0,L|197:252,3,44.75,0|0|0|0,3:2|0:0|0:0|0:0,0:0:0:0:
99,222,38834,6,0,B|70:216|70:216|33:227,3,58.17499733696,2|2|0|0,3:2|0:0|0:0|0:0,0:0:0:0:
123,79,39167,6,0,L|119:128,3,49.2250015022278,4|0|0|0,3:2|0:0|0:0|0:0,0:0:0:0:
225,54,39500,2,0,L|221:103,3,49.2250015022278,0|0|0|0,3:2|0:0|0:0|0:0,0:0:0:0:
316,103,39834,2,0,L|312:152,3,49.2250015022278,0|0|0|0,3:2|0:0|0:0|0:0,0:0:0:0:
391,40,40167,6,0,P|423:39|454:35,1,62.6499980880738,2|0,3:2|0:0,0:0:0:0:
227,197,40334,2,0,P|195:198|164:202,1,62.6499980880738,2|0,3:2|0:0,0:0:0:0:
356,262,40500,1,4,3:2:0:0:
465,158,40667,5,0,3:2:0:0:
461,180,40750,1,0,3:2:0:0:
458,202,40834,1,8,0:0:0:0:
168,62,41000,1,0,3:2:0:0:
180,52,41084,1,0,3:2:0:0:
190,43,41167,2,0,L|197:128,1,67.1250025606156,4|0,3:2|3:2,0:0:0:0:
231,287,41334,1,8,0:0:0:0:
285,68,41500,5,0,3:2:0:0:
103,151,41667,1,0,3:2:0:0:
282,207,41834,6,2,P|193:199|139:272,1,187.949994264221,2|0,0:0|0:0,0:0:0:0:
139,271,42500,2,2,P|146:304|151:340,1,53.6999983612061,0|2,0:0|3:2,0:0:0:0:
377,364,42834,6,2,B|353:272|353:272|375:246|378:212,1,161.099995083618,10|0,0:1|0:1,0:0:0:0:
368,189,43167,6,0,L|457:185,1,62.6499980880738,4|0,3:2|0:0,0:0:0:0:
294,123,43500,2,0,L|232:126,1,62.6499980880738,2|0,0:0|0:0,0:0:0:0:
108,238,43834,1,0,0:0:0:0:
178,183,44000,2,0,P|193:122|191:60,1,125.299996176148,2|0,0:0|0:0,0:0:0:0:
88,150,44500,5,0,0:0:0:0:
199,275,44667,2,0,L|261:278,1,62.6499980880738,2|0,0:0|0:0,0:0:0:0:
173,103,45000,2,0,L|235:99,1,62.6499980880738,2|0,0:0|0:0,0:0:0:0:
434,58,45334,1,2,0:0:0:0:
320,157,45500,1,2,0:0:0:0:
252,9,45667,1,0,0:0:0:0:
165,165,45834,6,0,L|172:102,1,62.6499980880738,2|0,0:0|0:0,0:0:0:0:
79,52,46167,2,0,L|71:114,1,62.6499980880738,0|0,0:0|0:0,0:0:0:0:
47,284,46500,1,0,0:0:0:0:
113,226,46667,2,0,P|170:208|238:212,1,125.299996176148,2|0,0:0|0:0,0:0:0:0:
300,283,47167,5,0,0:0:0:0:
399,147,47334,2,0,L|402:226,1,62.6499980880738,2|0,0:0|0:0,0:0:0:0:
201,241,47667,2,0,L|204:320,1,62.6499980880738,2|0,0:0|0:0,0:0:0:0:
197,143,48000,1,2,0:0:0:0:
300,283,48167,1,2,0:0:0:0:
114,194,48334,1,0,0:0:0:0:
287,192,48500,6,0,P|319:190|409:167,1,125.299996176148,2|0,0:0|0:0,0:0:0:0:
203,303,49000,1,0,0:0:0:0:
142,230,49167,2,0,P|111:224|79:221,1,62.6499980880738,2|0,0:0|0:0,0:0:0:0:
284,107,49500,2,0,P|315:104|346:98,1,62.6499980880738,2|0,0:0|0:0,0:0:0:0:
152,39,49834,5,0,0:0:0:0:
143,123,50000,2,0,L|136:206,1,62.6499980880738,2|0,0:0|0:0,0:0:0:0:
346,98,50334,5,0,0:0:0:0:
354,181,50500,2,0,L|365:310,1,125.299996176148,2|0,0:0|0:0,0:0:0:0:
365,306,51000,1,0,0:0:0:0:
473,265,51167,5,2,0:0:0:0:
270,144,51334,1,0,0:0:0:0:
207,217,51500,1,2,0:0:0:0:
207,217,51667,1,0,0:0:0:0:
423,76,51834,5,2,0:0:0:0:
302,235,52000,1,0,0:0:0:0:
175,123,52167,1,2,0:0:0:0:
175,123,52334,1,0,0:0:0:0:
78,248,52500,5,4,3:2:0:0:
101,235,52584,1,0,0:0:0:0:
127,230,52667,1,0,0:0:0:0:
154,232,52750,1,0,0:0:0:0:
179,241,52834,1,0,0:0:0:0:
200,257,52917,1,0,0:0:0:0:
216,278,53000,5,0,0:0:0:0:
239,315,53084,1,2,0:0:0:0:
277,338,53167,1,2,0:0:0:0:
321,341,53250,1,2,0:0:0:0:
363,325,53334,1,0,3:2:0:0:
369,189,53500,6,0,P|291:170|305:249,1,187.949994264221,8|0,0:1|0:0,0:0:0:0:
402,276,53834,6,8,B|366:282|335:276|335:276|301:314|301:314|268:310|231:317,1,187.949994264221,4|0,3:2|0:0,0:0:0:0:
144,358,54167,2,0,P|142:317|137:277,1,80.5499975418092,10|0,0:0|0:0,0:0:0:0:
303,248,54500,2,0,P|304:207|309:167,1,80.5499975418092,2|0,0:0|3:2,0:0:0:0:
385,108,54834,1,8,0:0:0:0:
221,201,55000,1,0,0:0:0:0:
221,201,55084,1,0,0:0:0:0:
221,201,55167,5,2,3:2:0:0:
403,209,55334,2,0,L|483:217,1,80.5499975418092,0|8,0:0|0:0,0:0:0:0:
259,116,55667,1,2,0:0:0:0:
220,106,55750,1,0,0:0:0:0:
180,114,55834,1,0,0:0:0:0:
148,137,55917,1,0,0:0:0:0:
127,171,56000,1,0,3:2:0:0:
215,293,56167,2,0,P|215:252|221:212,1,80.5499975418092,10|0,0:0|0:0,0:0:0:0:
288,358,56500,6,0,B|241:346|210:315|210:315|178:343|122:356,1,187.949994264221,2|0,3:2|0:0,0:0:0:0:
46,309,56834,2,0,P|43:269|37:230,1,80.5499975418092,10|0,0:0|0:0,0:0:0:0:
32,214,57084,1,0,0:0:0:0:
25,199,57167,1,0,0:0:0:0:
103,58,57334,1,2,3:2:0:0:
134,248,57500,1,8,0:0:0:0:
12,105,57667,1,0,0:0:0:0:
114,153,57834,6,0,P|153:158|193:166,1,80.5499975418092,2|0,3:2|0:0,0:0:0:0:
274,120,58167,1,8,0:0:0:0:
331,196,58334,1,2,0:0:0:0:
367,178,58417,1,0,0:0:0:0:
392,147,58500,1,0,0:0:0:0:
401,109,58584,1,0,0:0:0:0:
393,70,58667,1,0,3:2:0:0:
463,217,58834,2,0,P|464:257|472:296,1,80.5499975418092,10|0,0:0|0:0,0:0:0:0:
373,320,59167,6,0,B|265:283|265:283|216:342,1,187.949994264221,2|0,3:2|0:0,0:0:0:0:
210,356,59500,1,8,0:0:0:0:
138,152,59667,1,0,0:0:0:0:
215,192,59834,2,0,P|255:188|294:181,1,80.5499975418092,2|0,0:0|3:2,0:0:0:0:
385,218,60167,2,0,P|386:177|391:137,1,80.5499975418092,10|0,0:0|0:0,0:0:0:0:
297,271,60500,5,2,3:2:0:0:
478,188,60667,1,0,0:0:0:0:
478,188,60834,1,8,0:0:0:0:
304,48,61000,1,2,0:0:0:0:
306,64,61084,1,0,0:0:0:0:
308,79,61167,1,0,0:0:0:0:
390,231,61334,5,2,3:2:0:0:
245,160,61500,1,10,0:0:0:0:
170,236,61667,1,0,0:0:0:0:
89,164,61834,5,4,3:2:0:0:
273,262,62000,1,2,0:0:0:0:
61,305,62167,1,10,0:0:0:0:
217,142,62334,5,0,3:2:0:0:
217,142,62500,2,0,L|230:53,1,80.5499975418092,4|0,0:0|3:2,0:0:0:0:
220,44,62750,1,0,3:2:0:0:
220,44,62834,2,0,L|290:38,1,53.6999983612061,8|0,0:0|0:0,0:0:0:0:
365,34,63000,1,0,3:2:0:0:
62,163,63167,6,0,L|132:157,1,53.6999983612061,12|0,0:0|0:0,0:0:0:0:
325,130,63334,1,0,3:2:0:0:
322,151,63417,1,0,3:2:0:0:
319,173,63500,1,0,3:2:0:0:
217,142,63667,1,8,0:0:0:0:
407,46,63834,5,2,3:2:0:0:
425,63,63917,1,2,3:2:0:0:
435,85,64000,2,0,P|440:115|441:147,1,62.6499980880738,2|0,3:2|0:0,0:0:0:0:
242,278,64167,5,10,0:0:0:0:
218,255,64250,1,2,0:0:0:0:
205,227,64334,2,0,P|197:186|195:145,1,62.6499980880738,10|8,0:0|0:0,0:0:0:0:
330,333,64500,6,0,B|237:305|237:305|186:344,1,161.099995083618,4|0,3:2|0:0,0:0:0:0:
102,313,64834,2,0,P|91:269|89:224,1,89.5,8|2,0:1|0:0,0:0:0:0:
304,97,65167,1,0,3:2:0:0:
304,97,65334,2,0,P|314:140|316:185,1,89.5,2|8,0:0|0:1,0:0:0:0:
218,214,65667,5,2,0:0:0:0:
219,196,65750,1,0,0:0:0:0:
220,178,65834,1,0,3:2:0:0:
389,243,66000,1,2,0:0:0:0:
200,85,66167,1,8,0:1:0:0:
124,190,66334,1,2,0:0:0:0:
78,76,66500,5,0,3:2:0:0:
245,203,66667,1,2,0:0:0:0:
321,129,66834,2,0,L|409:118,1,89.5,8|2,0:1|0:0,0:0:0:0:
460,342,67167,6,0,P|396:294|313:293,1,161.099995083618,0|0,3:2|0:0,0:0:0:0:
237,338,67500,2,0,P|192:344|148:346,1,89.5,8|2,0:1|0:0,0:0:0:0:
111,126,67834,1,0,3:2:0:0:
111,126,68000,2,0,P|155:119|199:117,1,89.5,2|8,0:0|0:1,0:0:0:0:
181,256,68334,5,2,0:0:0:0:
179,238,68417,1,0,0:0:0:0:
177,220,68500,1,0,3:2:0:0:
285,138,68667,1,2,0:0:0:0:
79,233,68834,2,0,L|33:229,2,44.75,8|0|2,0:1|0:0|0:0,0:0:0:0:
293,238,69167,5,0,3:2:0:0:
175,117,69334,1,2,0:0:0:0:
172,283,69500,2,0,P|175:251|177:220,1,62.6499980880738,8|0,0:1|0:0,0:0:0:0:
280,76,69667,2,0,P|281:107|285:138,1,62.6499980880738,2|0,3:2|0:0,0:0:0:0:
465,254,69834,6,0,B|371:222|371:222|318:262,1,161.099995083618,0|0,3:2|0:0,0:0:0:0:
308,272,70167,1,8,0:1:0:0:
414,47,70334,2,0,P|425:90|429:134,1,89.5,2|0,0:0|3:2,0:0:0:0:
396,327,70667,1,2,0:0:0:0:
273,156,70834,2,0,L|184:149,1,89.5,8|2,0:1|0:0,0:0:0:0:
73,351,71167,6,0,P|129:317|198:318,1,134.25,0|0,3:2|0:0,0:0:0:0:
227,336,71500,2,8,B|215:292|215:292|226:249,1,89.5,8|2,0:1|0:0,0:0:0:0:
388,44,71834,2,8,B|399:87|399:87|388:130,1,89.5,0|2,3:2|0:0,0:0:0:0:
300,177,72167,1,8,0:1:0:0:
492,86,72334,1,0,0:0:0:0:
388,236,72500,5,0,3:2:0:0:
293,79,72667,2,0,P|207:71|138:136,1,179,2|2,0:0|3:2,0:0:0:0:
226,231,73167,2,0,P|228:204|234:172,6,40.2749987709046,8|0|0|0|0|0|0,0:0|0:0|0:0|0:0|0:0|0:0|0:0,0:0:0:0:
239,253,73500,1,0,3:2:0:0:
119,223,73667,6,0,L|36:225,1,71.6,2|0,0:0|0:0,0:0:0:0:
333,205,74000,2,0,L|404:203,1,71.6,2|0,0:0|0:0,0:0:0:0:
187,306,74334,1,2,0:0:0:0:
119,223,74500,6,0,P|114:191|114:160,1,62.6499980880738,10|0,0:0|0:0,0:0:0:0:
384,162,74667,2,0,P|388:193|388:224,1,62.6499980880738,2|0,0:0|0:0,0:0:0:0:
208,193,74834,6,0,P|285:174|271:253,1,187.949994264221,8|0,0:1|0:0,0:0:0:0:
187,306,75167,6,0,B|233:298|273:271|273:271|289:291|330:310,1,161.099995083618,4|0,3:2|0:0,0:0:0:0:
423,345,75500,2,0,P|425:301|436:258,1,89.5,10|0,0:0|0:0,0:0:0:0:
217,111,75834,2,0,P|214:155|203:198,1,89.5,2|0,0:0|3:2,0:0:0:0:
125,151,76167,2,0,B|214:132|205:202|295:183,1,179,10|0,0:0|3:2,0:0:0:0:
368,119,76667,6,0,L|362:53,2,44.75,2|0|8,0:0|0:0|0:0,0:0:0:0:
441,185,77000,1,2,0:0:0:0:
265,88,77167,1,0,0:0:0:0:
438,11,77334,5,0,3:2:0:0:
438,11,77417,1,0,0:0:0:0:
438,11,77500,1,10,0:0:0:0:
295,183,77667,1,2,0:0:0:0:
132,59,77834,6,0,B|180:63|224:38|224:38|249:52|265:87,1,161.099995083618,2|0,3:2|0:0,0:0:0:0:
199,239,78167,2,0,P|198:194|193:149,1,89.5,10|0,0:0|0:0,0:0:0:0:
363,127,78500,2,0,P|363:82|368:37,1,89.5,2|0,0:0|3:2,0:0:0:0:
464,165,78834,2,0,P|377:155|308:209,1,179,10|0,0:0|3:2,0:0:0:0:
357,291,79334,6,0,L|358:335,2,44.75,2|0|8,0:0|0:0|0:0,0:0:0:0:
285,197,79667,1,2,0:0:0:0:
450,317,79834,1,0,0:0:0:0:
273,376,80000,5,0,3:2:0:0:
273,376,80084,1,0,0:0:0:0:
273,376,80167,1,10,0:0:0:0:
428,220,80334,1,2,0:0:0:0:
211,288,80500,6,0,L|166:286,3,44.75,4|0|0|0,3:2|0:0|0:0|0:0,0:0:0:0:
285,225,80834,2,0,L|329:226,3,44.75,0|0|0|0,3:2|0:0|0:0|0:0,0:0:0:0:
207,161,81167,2,0,L|162:159,3,44.75,0|0|0|0,3:2|0:0|0:0|0:0,0:0:0:0:
290,117,81500,2,0,L|294:59,3,53.6999983612061,0|0|0|0,3:2|0:0|0:0|0:0,0:0:0:0:
398,37,81834,6,0,P|404:67|406:99,1,62.6499980880738,4|0,3:2|0:3,0:0:0:0:
209,253,82000,1,0,3:2:0:0:
186,240,82084,1,0,3:2:0:0:
170,220,82167,2,0,P|163:189|161:157,1,62.6499980880738,2|0,3:2|0:3,0:0:0:0:
279,108,82334,5,0,3:2:0:0:
282,132,82417,1,0,3:2:0:0:
285,156,82500,2,0,L|323:160,6,35.8,2|0|0|0|0|0|0,3:2|3:2|3:2|3:2|3:2|3:2|3:2,0:0:0:0:
400,215,82834,2,0,L|452:211,6,40.2749987709046,2|0|0|0|0|0|0,3:2|3:2|3:2|3:2|3:2|3:2|3:2,0:0:0:0:
463,209,83167,5,4,3:2:0:0:
234,33,83334,1,4,3:2:0:0:
234,33,83667,5,4,3:2:0:0:
196,319,83834,1,4,3:2:0:0:
196,319,84167,5,12,3:2:0:0:
463,209,84334,1,12,3:2:0:0:
304,174,85334,6,0,P|296:139|300:106,1,62.6499980880738,0|0,3:2|0:0,0:0:0:0:
170,93,85500,2,2,B|221:57|221:57|204:181,1,187.949994264221,10|0,0:1|0:1,0:1:0:0:
92,236,85834,6,0,B|157:237|201:205|201:205|220:243|260:266,1,201.375007681847,4|0,3:1|0:0,0:0:0:0:
95,136,86167,2,0,P|128:131|160:121,1,67.1250025606156,10|0,0:0|0:3,0:0:0:0:
173,316,86334,1,2,0:0:0:0:
173,316,86417,1,2,0:0:0:0:
173,316,86500,5,2,0:0:0:0:
289,154,86667,1,2,3:2:0:0:
92,236,86834,1,8,0:0:0:0:
186,160,87000,5,2,0:0:0:0:
187,182,87084,1,2,0:0:0:0:
187,202,87167,1,2,3:2:0:0:
478,153,87334,2,0,P|448:151|420:144,1,58.17499733696,2|0,0:0|0:0,0:0:0:0:
360,75,87500,2,0,B|400:118|400:118|376:231,1,174.52499201088,10|0,0:0|0:0,0:0:0:0:
342,328,87834,6,0,L|417:337,1,67.1250025606156,2|0,0:0|0:0,0:0:0:0:
504,349,88000,1,2,3:2:0:0:
289,154,88167,1,8,0:0:0:0:
451,183,88334,1,2,0:0:0:0:
451,183,88417,1,2,0:0:0:0:
451,183,88500,6,0,B|383:192|383:192|348:239|348:239|273:248,1,201.375007681847,2|0,3:2|0:0,0:0:0:0:
191,176,88834,2,0,P|190:143|194:110,1,67.1250025606156,10|0,0:0|0:0,0:0:0:0:
365,19,89000,2,0,P|364:53|360:86,1,67.1250025606156
112,65,89167,5,2,0:0:0:0:
138,35,89250,1,0,0:0:0:0:
175,18,89333,1,0,3:2:0:0:
215,19,89417,1,0,0:0:0:0:
250,36,89500,1,10,0:0:0:0:
472,222,89667,6,0,L|363:208,1,107.399996722412,2|0,0:0|3:2,0:0:0:0:
344,195,89917,1,0,0:0:0:0:
344,195,90000,2,0,L|347:259,1,53.6999983612061,2|0,0:0|0:0,0:0:0:0:
419,314,90167,1,10,0:0:0:0:
254,222,90334,1,0,0:0:0:0:
413,120,90500,5,2,0:0:0:0:
277,312,90667,1,2,3:2:0:0:
443,219,90834,1,8,0:0:0:0:
245,38,91000,1,2,0:0:0:0:
245,38,91084,1,2,0:0:0:0:
245,38,91167,6,0,B|180:11|180:11|202:144,1,201.375007681847,4|0,3:2|0:0,0:0:0:0:
144,274,91500,2,0,P|135:242|133:208,1,67.1250025606156,10|0,0:0|0:0,0:0:0:0:
314,121,91667,5,2,0:0:0:0:
330,133,91750,1,0,0:0:0:0:
341,150,91834,2,0,P|351:181|353:215,1,67.1250025606156,0|0,0:0|0:0,0:0:0:0:
276,301,92000,1,2,3:2:0:0:
442,172,92167,1,8,0:0:0:0:
261,202,92334,1,2,0:0:0:0:
261,202,92417,1,2,0:0:0:0:
261,202,92500,6,0,B|300:214|333:209|333:209|360:257|360:257|396:251|432:263,1,201.375007681847,2|0,3:2|0:0,0:0:0:0:
454,270,92834,1,8,0:0:0:0:
417,92,93000,2,0,L|419:157,1,58.17499733696,2|0,0:0|0:0,0:0:0:0:
277,359,93167,2,0,L|275:300,1,58.17499733696,0|0,0:0|0:0,0:0:0:0:
261,202,93334,5,2,3:2:0:0:
371,339,93500,1,8,0:0:0:0:
170,267,93667,1,0,3:2:0:0:
170,267,93750,1,0,3:2:0:0:
170,267,93834,6,0,L|76:260,1,67.1250025606156,4|2,3:2|0:0,0:0:0:0:
74,259,94000,1,0,0:0:0:0:
209,93,94167,6,0,L|115:86,1,67.1250025606156,8|2,0:0|0:0,0:0:0:0:
113,85,94333,1,0,0:0:0:0:
305,174,94500,5,10,0:0:0:0:
309,200,94584,1,0,3:2:0:0:
313,226,94667,1,0,3:2:0:0:
485,346,94834,1,8,0:0:0:0:
379,361,95000,6,0,B|390:288|390:288|437:254|437:254|451:185,1,201.375007681847,4|0,3:2|0:0,0:0:0:0:
343,141,95334,1,0,3:2:0:0:
338,161,95417,1,0,3:2:0:0:
333,181,95500,2,0,L|265:183,1,67.1250025606156,8|0,0:0|0:0,0:0:0:0:
258,354,95667,5,2,3:2:0:0:
253,334,95750,1,2,3:2:0:0:
248,314,95833,2,0,L|180:310,1,67.1250025606156,8|0,0:0|0:0,0:0:0:0:
82,219,96000,2,0,P|75:187|72:154,1,67.1250025606156,0|2,3:0|0:0,0:0:0:0:
278,138,96167,6,2,P|181:120|221:210,1,241.649992625428,10|0,0:2|0:1,0:1:0:0:
359,358,96500,6,0,B|325:307|322:240|322:240|305:277|272:295,1,201.375007681847,4|0,3:1|0:0,0:0:0:0:
272,295,96834,2,0,L|362:287,1,67.1250025606156,10|0,0:0|0:0,0:0:0:0:
442,281,97000,1,2,0:0:0:0:
442,281,97084,1,2,0:0:0:0:
442,281,97167,5,2,0:0:0:0:
220,209,97334,1,2,3:2:0:0:
392,376,97500,1,8,0:0:0:0:
335,242,97667,5,2,0:0:0:0:
334,262,97750,1,2,0:0:0:0:
333,282,97834,1,2,3:2:0:0:
119,245,98000,2,0,P|116:211|108:171,1,67.1250025606156,2|0,0:0|0:0,0:0:0:0:
46,310,98167,2,0,B|102:303|130:274|130:274|161:301|203:307,1,174.52499201088,10|0,0:0|0:0,0:0:0:0:
223,307,98500,1,0,0:0:0:0:
452,104,98667,6,0,L|376:110,1,67.1250025606156,2|0,3:2|0:0,0:0:0:0:
220,209,98834,1,10,0:0:0:0:
320,41,99000,1,0,0:0:0:0:
388,207,99167,6,0,B|318:188|318:188|294:134|294:134|226:116,1,201.375007681847,2|0,3:2|0:0,0:0:0:0:
204,127,99500,2,0,P|201:93|196:60,2,67.1250025606156,10|0|0,0:0|0:0|0:0,0:0:0:0:
287,29,99834,1,2,0:0:0:0:
132,205,100000,1,0,3:2:0:0:
15,117,100167,2,0,L|117:108,1,89.5,10|0,0:0|0:0,0:0:0:0:
300,275,100500,5,2,3:2:0:0:
204,127,100667,1,0,0:0:0:0:
56,257,100834,1,8,0:0:0:0:
50,23,101000,5,2,0:0:0:0:
161,217,101167,1,2,0:0:0:0:
296,97,101334,1,0,3:2:0:0:
145,16,101500,6,0,L|139:74,1,53.6999983612061,10|0,0:0|0:0,0:0:0:0:
272,203,101667,2,0,L|266:261,1,53.6999983612061,2|0,0:0|0:0,0:0:0:0:
191,324,101834,5,4,3:2:0:0:
370,175,102000,1,0,0:0:0:0:
161,217,102167,1,8,0:0:0:0:
350,324,102334,5,2,0:0:0:0:
350,324,102417,1,2,0:0:0:0:
350,324,102500,1,2,0:0:0:0:
203,126,102667,1,0,3:2:0:0:
86,251,102834,6,0,L|139:246,1,53.6999983612061,10|0,0:0|0:0,0:0:0:0:
316,179,103000,2,0,L|369:174,1,53.6999983612061,2|0,0:0|0:0,0:0:0:0:
444,84,103167,6,0,B|408:169|408:169|442:243,1,161.099995083618,4|0,3:2|0:0,0:0:0:0:
453,337,103500,2,0,B|407:316|407:316|350:325,1,107.399996722412,10|0,0:0|0:0,0:0:0:0:
225,197,103834,2,0,L|231:139,1,53.6999983612061,2|0,0:0|0:0,0:0:0:0:
245,6,104000,1,0,3:2:0:0:
188,75,104167,2,0,B|234:96|234:96|290:86,1,107.399996722412,10|0,0:0|0:0,0:0:0:0:
98,330,104500,6,0,L|161:323,1,62.6499980880738,12|0,3:2|0:0,0:0:0:0:
309,174,104666,1,0,3:2:0:0:
307,192,104750,1,0,3:2:0:0:
305,210,104833,1,0,3:2:0:0:
107,247,105000,6,0,L|170:240,1,62.6499980880738,12|0,0:0|0:0,0:0:0:0:
398,214,105166,1,0,3:2:0:0:
396,232,105250,1,0,3:2:0:0:
394,250,105333,1,0,3:2:0:0:
116,164,105500,6,0,L|179:157,1,62.6499980880738,12|0,0:0|0:0,0:0:0:0:
487,254,105667,1,0,3:2:0:0:
485,272,105751,1,0,3:2:0:0:
483,290,105835,1,0,3:2:0:0:
125,81,106000,6,0,L|188:74,1,62.6499980880738,12|0,0:0|0:0,0:0:0:0:
475,128,106167,1,0,3:2:0:0:
426,94,106251,1,0,3:2:0:0:
370,118,106334,1,0,3:2:0:0:
360,177,106416,1,2,0:0:0:0:
405,218,106500,5,10,0:0:0:0:
450,258,106583,1,2,0:0:0:0:
440,317,106666,1,2,0:0:0:0:
385,341,106750,1,2,0:0:0:0:
335,307,106834,6,2,B|305:300|305:300|259:309,1,67.1250025606156,10|0,0:1|0:1,0:1:0:0:
475,128,107000,2,0,B|445:135|445:135|409:127,1,67.1250025606156,2|0,3:1|0:0,0:0:0:0:
172,116,107167,6,8,B|209:130|243:130|243:130|266:182|266:182|299:183|336:195,1,201.375007681847,4|0,3:2|0:0,0:0:0:0:
123,249,107500,2,0,L|206:235,1,67.1250025606156,10|0,0:0|0:0,0:0:0:0:
330,87,107667,1,2,0:0:0:0:
330,87,107750,1,2,0:0:0:0:
330,87,107834,5,2,0:0:0:0:
203,255,108000,1,2,3:2:0:0:
232,25,108167,1,8,0:0:0:0:
239,159,108334,5,2,0:0:0:0:
240,139,108417,1,2,0:0:0:0:
241,119,108500,1,2,3:2:0:0:
77,140,108667,2,0,L|135:136,1,58.17499733696,2|0,0:0|0:0,0:0:0:0:
392,226,108834,2,0,B|306:208|320:280|227:264,1,174.52499201088,10|0,0:0|0:0,0:0:0:0:
203,255,109167,1,0,0:0:0:0:
337,101,109334,6,0,L|251:112,1,67.1250025606156,2|0,3:2|0:0,0:0:0:0:
174,124,109500,1,10,0:0:0:0:
316,292,109667,1,0,0:0:0:0:
337,101,109834,6,0,B|280:65|280:65|298:199,1,201.375007681847,2|0,3:2|0:0,0:0:0:0:
413,343,110167,2,0,P|419:311|419:275,2,67.1250025606156,10|0|0,0:0|0:0|0:0,0:0:0:0:
394,184,110500,5,2,0:0:0:0:
260,380,110667,1,0,3:2:0:0:
316,292,110834,2,0,L|215:279,1,89.5,10|0,0:0|0:0,0:0:0:0:
38,156,111167,5,2,3:2:0:0:
161,360,111334,1,0,0:0:0:0:
283,194,111500,1,10,0:0:0:0:
97,252,111667,1,0,0:0:0:0:
114,250,111750,1,0,0:0:0:0:
132,249,111834,1,0,0:0:0:0:
135,90,112000,6,0,L|139:143,1,53.6999983612061,2|0,3:2|0:0,0:0:0:0:
224,332,112167,2,0,L|228:278,1,53.6999983612061,10|0,0:0|0:0,0:0:0:0:
283,194,112334,1,2,3:2:0:0:
417,73,112500,6,0,P|384:74|354:77,1,62.6499980880738,4|0,3:2|0:0,0:0:0:0:
244,88,112666,1,0,3:2:0:0:
242,70,112750,1,0,3:2:0:0:
240,52,112833,1,0,3:2:0:0:
400,162,113000,6,0,P|368:163|337:166,1,62.6499980880738,12|0,0:0|0:0,0:0:0:0:
160,119,113166,1,0,3:2:0:0:
158,101,113249,1,0,3:2:0:0:
156,83,113333,1,0,3:2:0:0:
383,251,113500,6,0,P|350:252|320:255,1,62.6499980880738,12|0,0:0|0:0,0:0:0:0:
76,150,113666,1,0,3:2:0:0:
74,132,113750,1,0,3:2:0:0:
72,114,113834,1,0,3:2:0:0:
366,340,114000,6,0,P|332:341|303:344,1,62.6499980880738,12|0,0:0|0:0,0:0:0:0:
22,211,114167,1,0,3:2:0:0:
61,192,114250,1,0,3:2:0:0:
104,195,114334,1,0,3:2:0:0:
141,218,114417,1,0,3:2:0:0:
161,256,114500,6,0,B|214:278|214:278|244:246|244:246|297:240,1,152.150002902031,4|0,3:2|0:0,0:0:0:0:
434,370,114750,2,0,B|403:329|403:329|303:343,1,152.150002902031,4|0,3:2|0:0,0:0:0:0:
403,242,115000,2,0,P|412:205|410:167,1,76.0750014510155,4|0,3:2|0:0,0:0:0:0:
208,35,115167,6,0,B|271:25|271:25|311:62|304:131,1,179,4|0,3:2|0:0,0:0:0:0:
265,310,115667,1,0,3:2:0:0:
222,223,115834,2,0,B|268:213|268:213|307:229,1,89.5,10|0,0:0|0:0,0:0:0:0:
266,363,116167,6,0,L|264:301,1,53.6999983612061,2|0,3:2|0:0,0:0:0:0:
126,174,116334,2,0,L|127:227,1,53.6999983612061,2|0,3:2|0:0,0:0:0:0:
76,327,116500,6,0,P|111:316|156:312,1,71.6,0|0,3:2|0:0,0:0:0:0:
197,117,116834,2,0,P|228:126|259:129,1,62.6499980880738
264,309,117167,2,0,P|290:303|317:301,1,53.6999983612061,0|0,0:0|3:2,0:0:0:0:
511,231,117500,6,0,B|462:226|462:226|432:195|432:195|392:245|392:245|369:215|369:215|312:211,1,250.599992352295,8|4,0:0|0:0,0:0:0:0:
234,94,133334,5,0,3:2:0:0:
99,274,133500,1,8,0:0:0:0:
138,167,133667,5,0,3:2:0:0:
148,160,133751,1,0,3:2:0:0:
158,153,133834,2,0,L|154:197,3,44.75,4|0|0|0,3:2|0:0|0:0|0:0,0:0:0:0:
244,182,134167,2,0,L|240:226,3,44.75,0|0|0|0,3:2|0:0|0:0|0:0,0:0:0:0:
333,161,134500,2,0,L|329:205,3,44.75,0|0|0|0,3:2|0:0|0:0|0:0,0:0:0:0:
421,187,134834,6,0,B|452:192|452:192|487:177,3,58.17499733696,2|2|0|0,3:2|0:0|0:0|0:0,0:0:0:0:
405,335,135167,6,0,L|401:272,3,49.2250015022278,4|0|0|0,3:2|0:0|0:0|0:0,0:0:0:0:
314,363,135500,2,0,L|310:300,3,49.2250015022278,0|0|0|0,3:2|0:0|0:0|0:0,0:0:0:0:
219,339,135834,2,0,L|215:276,3,49.2250015022278,0|0|0|0,3:2|0:0|0:0|0:0,0:0:0:0:
134,366,136167,6,0,L|49:359,1,62.6499980880738,2|0,3:2|0:0,0:0:0:0:
249,206,136334,2,0,L|164:199,1,62.6499980880738,2|0,3:2|0:0,0:0:0:0:
92,191,136500,1,4,3:2:0:0:
380,178,136667,5,0,3:2:0:0:
382,200,136750,1,0,3:2:0:0:
384,222,136834,1,8,0:0:0:0:
209,57,137000,1,0,3:2:0:0:
221,48,137084,1,0,3:2:0:0:
232,40,137167,2,0,L|225:117,1,67.1250025606156,4|0,3:2|3:2,0:0:0:0:
215,288,137334,1,8,0:0:0:0:
323,84,137500,5,0,3:2:0:0:
135,237,137667,1,0,3:2:0:0:
221,196,137834,5,0,3:2:0:0:
262,206,138000,1,0,0:0:0:0:
287,226,138167,1,0,0:0:0:0:
298,244,138334,1,0,0:0:0:0:
302,253,138500,1,0,0:0:0:0:
304,257,138667,1,0,3:2:0:0:
379,51,138834,6,2,B|319:57|270:38|270:38|290:67|293:110,1,187.949994264221,10|0,0:1|0:1,0:1:0:0:
189,109,139167,6,0,P|193:132|195:162,3,53.6999983612061,4|0|0|0,3:2|0:0|0:0|0:0,0:0:0:0:
377,143,139500,2,0,P|373:169|371:194,3,49.2250015022278,2|0|0|0,0:0|0:0|0:0|0:0,0:0:0:0:
192,194,139834,2,0,L|196:249,3,44.75,2|0|0|0,0:0|0:0|0:0|0:0,0:0:0:0:
376,229,140167,2,0,L|371:287,3,40.2749987709046,2|0|0|0,0:0|0:0|0:0|0:0,0:0:0:0:
278,349,140500,6,0,P|276:317|273:286,1,62.6499980880738,2|0,0:0|0:0,0:0:0:0:
467,252,140667,2,0,P|468:220|471:189,1,62.6499980880738,2|0,0:0|0:0,0:0:0:0:
203,166,140834,2,0,P|201:134|198:103,1,62.6499980880738,2|0,0:0|0:0,0:0:0:0:
459,92,141000,6,0,P|377:64|375:150,1,201.375007681847,4|0,3:2|0:0,0:0:0:0:
477,227,141334,2,0,B|421:219|381:187|381:187|356:220|318:240,1,187.949994264221,4|0,3:2|0:0,0:0:0:0:
221,264,141667,2,0,P|220:237|216:210,3,44.75,4|0|0|0,3:2|0:0|0:0|0:0,0:0:0:0:
208,200,142000,1,0,0:0:0:0:
329,47,142167,6,0,B|269:6|269:6|292:158,1,214.799993444824,4|0,3:1|0:0,0:0:0:0:
409,288,142667,1,0,3:2:0:0:
325,246,142834,2,0,P|285:239|245:239,1,80.5499975418092,10|0,0:0|0:0,0:0:0:0:
153,278,143167,6,0,P|144:238|141:198,1,80.5499975418092,2|0,3:2|0:0,0:0:0:0:
204,31,143500,1,8,0:0:0:0:
292,65,143667,1,2,0:0:0:0:
292,65,143750,1,0,0:0:0:0:
292,65,143834,2,0,P|300:104|303:144,1,80.5499975418092,0|0,0:0|3:2,0:0:0:0:
369,13,144167,1,10,0:0:0:0:
208,121,144334,1,0,0:0:0:0:
388,239,144500,6,0,P|320:197|242:208,1,161.099995083618,2|8,3:2|0:0,0:0:0:0:
126,255,145000,1,0,0:0:0:0:
126,255,145084,1,0,0:0:0:0:
126,255,145167,2,0,L|115:162,1,80.5499975418092,2|0,0:0|3:2,0:0:0:0:
293,373,145500,2,0,L|304:280,1,80.5499975418092,10|0,0:0|0:0,0:0:0:0:
304,113,145834,5,2,3:2:0:0:
395,341,146000,1,0,0:0:0:0:
251,199,146167,1,8,0:0:0:0:
353,204,146334,1,2,0:0:0:0:
353,204,146417,1,0,0:0:0:0:
353,204,146500,2,0,P|393:200|432:193,1,80.5499975418092,0|0,0:0|3:2,0:0:0:0:
279,299,146834,2,0,P|239:292|199:288,1,80.5499975418092,10|0,0:0|0:0,0:0:0:0:
0,101,147167,6,0,L|120:111,1,120.824996312714,2|0,3:2|0:0,0:0:0:0:
144,114,147500,1,8,0:0:0:0:
235,71,147667,2,0,L|241:151,1,80.5499975418092,2|0,3:2|0:0,0:0:0:0:
424,170,148000,2,0,L|417:240,1,53.6999983612061,2|0,3:2|3:2,0:0:0:0:
408,323,148167,1,12,0:0:0:0:
512,208,148334,1,0,3:2:0:0:
328,192,148500,5,4,3:2:0:0:
305,179,148584,1,0,0:0:0:0:
279,174,148667,1,0,0:0:0:0:
252,176,148750,1,0,0:0:0:0:
227,185,148834,1,0,0:0:0:0:
206,201,148917,1,0,0:0:0:0:
190,222,149000,5,0,0:0:0:0:
167,259,149084,1,2,0:0:0:0:
129,282,149167,1,2,0:0:0:0:
85,285,149250,1,2,0:0:0:0:
43,269,149334,1,0,3:2:0:0:
37,133,149500,6,0,P|115:114|101:193,1,187.949994264221,8|0,0:1|0:0,0:0:0:0:
6,253,149834,6,0,B|64:248|107:215|107:215|126:244|170:268,1,187.949994264221,4|0,3:2|0:0,0:0:0:0:
256,308,150167,2,0,P|257:267|265:228,1,80.5499975418092,10|0,0:0|0:0,0:0:0:0:
46,53,150500,2,0,P|44:93|36:132,1,80.5499975418092,2|0,0:0|3:2,0:0:0:0:
144,1,150834,1,8,0:0:0:0:
149,94,151000,1,0,0:0:0:0:
149,94,151084,1,0,0:0:0:0:
149,94,151167,6,0,L|251:86,1,80.5499975418092,2|0,3:2|0:0,0:0:0:0:
242,277,151500,1,8,0:0:0:0:
281,194,151667,1,2,0:0:0:0:
242,183,151750,1,0,0:0:0:0:
203,189,151834,1,0,0:0:0:0:
168,209,151917,1,0,0:0:0:0:
145,241,152000,1,0,3:2:0:0:
55,287,152167,2,0,P|45:247|41:207,1,80.5499975418092,10|0,0:0|0:0,0:0:0:0:
318,108,152500,6,0,B|264:72|264:72|282:205,1,187.949994264221,2|0,3:2|0:0,0:0:0:0:
324,279,152834,2,0,P|281:278|239:280,1,80.5499975418092,10|0,0:0|0:0,0:0:0:0:
227,283,153084,1,0,0:0:0:0:
211,287,153167,1,0,0:0:0:0:
182,179,153334,1,2,3:2:0:0:
289,369,153500,1,8,0:0:0:0:
369,220,153667,1,0,0:0:0:0:
369,220,153750,1,0,0:0:0:0:
369,220,153834,6,0,L|360:300,1,80.5499975418092,2|0,3:2|0:0,0:0:0:0:
317,98,154167,1,8,0:0:0:0:
270,180,154334,1,2,0:0:0:0:
307,192,154417,1,0,0:0:0:0:
347,188,154500,1,0,0:0:0:0:
381,166,154584,1,0,0:0:0:0:
402,133,154667,1,0,3:2:0:0:
371,10,154834,2,0,P|330:8|290:4,1,80.5499975418092,10|0,0:0|0:0,0:0:0:0:
125,38,155167,6,0,B|158:48|197:46|197:46|223:88|223:88|253:87|288:96,1,187.949994264221,2|0,3:2|0:0,0:0:0:0:
381,100,155500,2,0,P|371:139|365:178,1,80.5499975418092,8|0,0:0|0:0,0:0:0:0:
366,195,155750,1,0,0:0:0:0:
369,210,155834,1,2,0:0:0:0:
258,132,156000,1,0,3:2:0:0:
164,216,156167,2,0,P|157:176|148:137,1,80.5499975418092,10|0,0:0|0:0,0:0:0:0:
247,270,156500,5,2,3:2:0:0:
64,191,156667,1,0,0:0:0:0:
64,191,156834,1,8,0:0:0:0:
237,54,157000,1,2,0:0:0:0:
235,70,157084,1,0,0:0:0:0:
233,85,157167,1,0,0:0:0:0:
171,193,157334,5,2,3:2:0:0:
336,127,157500,1,10,0:0:0:0:
382,227,157667,1,0,0:0:0:0:
454,142,157834,5,4,3:2:0:0:
276,225,158000,1,2,0:0:0:0:
324,19,158167,1,10,0:0:0:0:
336,127,158334,5,0,3:2:0:0:
336,127,158500,2,0,L|255:118,1,80.5499975418092,4|0,0:0|3:2,0:0:0:0:
235,116,158750,1,0,3:2:0:0:
214,113,158834,2,0,L|215:172,1,53.6999983612061,8|0,0:0|0:0,0:0:0:0:
211,265,159000,1,0,3:2:0:0:
343,347,159167,6,0,L|342:293,1,53.6999983612061,12|0,0:0|0:0,0:0:0:0:
343,61,159334,1,0,3:3:0:0:
342,84,159417,1,0,3:3:0:0:
341,105,159500,1,0,3:3:0:0:
442,91,159667,1,8,0:0:0:0:
423,245,159834,5,2,3:2:0:0:
417,224,159917,1,2,3:2:0:0:
411,203,160000,2,0,L|348:198,1,53.6999983612061,2|0,3:2|0:0,0:0:0:0:
245,34,160167,5,8,0:1:0:0:
237,61,160250,1,2,0:0:0:0:
229,88,160334,2,0,L|147:94,1,53.6999983612061,10|8,0:0|0:0,0:0:0:0:
49,208,160500,6,0,L|115:202,1,67.125,4|0,3:2|0:0,0:0:0:0:
136,200,160834,1,8,0:0:0:0:
104,314,161000,6,0,L|170:308,1,67.125,4|0,3:2|0:0,0:0:0:0:
191,306,161334,1,8,0:0:0:0:
245,211,161500,6,0,L|311:205,1,67.125,4|0,3:2|0:0,0:0:0:0:
332,203,161834,1,8,0:0:0:0:
300,317,162000,6,0,L|366:311,1,67.125,4|0,3:2|0:0,0:0:0:0:
387,309,162334,1,8,0:0:0:0:
482,68,162500,6,0,L|479:112,1,44.75,4|0,3:2|0:0,0:0:0:0:
287,111,162834,2,0,L|284:155,1,44.75,4|8,3:2|0:0,0:0:0:0:
388,37,163167,6,0,L|383:103,1,67.125,4|0,3:2|0:0,0:0:0:0:
384,124,163500,1,8,0:0:0:0:
289,69,163667,6,0,L|284:135,1,67.125,4|0,3:2|0:0,0:0:0:0:
284,155,164000,1,8,0:0:0:0:
196,16,164167,6,0,L|191:82,1,67.125,4|0,3:2|0:0,0:0:0:0:
192,103,164500,1,8,0:0:0:0:
97,48,164667,6,0,L|92:114,1,67.125,4|0,3:2|0:0,0:0:0:0:
92,134,165000,1,8,0:0:0:0:
225,206,165167,6,0,L|166:201,1,44.75,4|8,3:2|0:0,0:0:0:0:
123,380,165500,2,0,L|64:375,1,44.75,4|0,3:2|3:2,0:0:0:0:
194,292,165750,1,0,3:2:0:0:
194,292,165834,6,0,L|113:285,1,67.125,4|0,3:2|0:0,0:0:0:0:
106,285,166167,1,8,0:0:0:0:
244,188,166334,6,0,L|163:181,1,67.125,4|0,3:2|0:0,0:0:0:0:
156,181,166667,1,8,0:0:0:0:
379,355,166834,6,0,L|298:348,1,67.125,4|0,3:2|0:0,0:0:0:0:
291,348,167167,1,8,0:0:0:0:
429,251,167334,6,0,L|348:244,1,67.125,4|0,3:2|0:0,0:0:0:0:
341,244,167667,1,8,0:0:0:0:
50,213,167834,6,0,L|45:168,1,44.75,4|0,3:2|0:0,0:0:0:0:
240,147,168167,2,0,L|235:102,1,44.75,4|0,3:2|3:2,0:0:0:0:
149,233,168417,1,0,3:2:0:0:
149,233,168500,6,0,L|141:161,1,67.125,4|0,3:2|0:0,0:0:0:0:
139,146,168834,1,8,0:0:0:0:
359,295,169000,6,0,L|367:223,1,67.125,4|0,3:2|0:0,0:0:0:0:
369,208,169334,1,8,0:0:0:0:
240,147,169500,6,0,L|232:75,1,67.125,4|0,3:2|0:0,0:0:0:0:
230,60,169834,1,8,0:0:0:0:
467,212,170000,6,0,L|471:167,1,44.75,4|0,3:2|0:0,0:0:0:0:
474,147,170167,1,8,0:0:0:0:
310,228,170334,5,4,3:2:0:0:
306,201,170417,1,4,3:2:0:0:
302,174,170500,2,0,L|218:169,1,53.6999983612061,12|0,0:0|0:0,0:0:0:0:
116,161,170667,1,8,0:0:0:0:
91,292,171167,6,0,B|187:266|187:266|231:310,1,161.099995083618,4|0,3:2|0:0,0:0:0:0:
317,353,171500,2,0,L|324:263,1,89.5,10|0,0:0|0:0,0:0:0:0:
137,81,171834,2,0,L|129:170,1,89.5,2|0,3:2|0:0,0:0:0:0:
44,127,172167,2,0,B|108:117|108:117|151:145|220:144,1,179,10|0,0:0|3:2,0:0:0:0:
300,99,172667,6,0,L|306:34,2,44.75,2|0|8,0:0|0:0|0:0,0:0:0:0:
365,182,173000,1,2,0:0:0:0:
204,44,173167,1,0,3:2:0:0:
217,144,173334,5,0,0:0:0:0:
217,144,173417,1,0,0:0:0:0:
217,144,173500,1,10,0:0:0:0:
404,88,173667,1,2,0:0:0:0:
415,229,173834,6,0,B|369:222|324:198|324:198|295:211|274:238,1,161.099995083618,2|0,3:2|0:0,0:0:0:0:
251,336,174167,2,0,P|294:326|339:326,1,89.5,10|0,0:0|0:0,0:0:0:0:
382,101,174500,2,0,P|337:101|293:91,1,89.5,2|0,3:2|0:0,0:0:0:0:
212,31,174834,2,0,P|150:62|126:168,1,179,10|0,0:0|3:2,0:0:0:0:
194,233,175334,6,0,L|189:303,2,44.75,2|0|8,0:0|0:0|0:0,0:0:0:0:
222,134,175667,1,2,0:0:0:0:
111,326,175834,1,0,3:2:0:0:
288,222,176000,5,0,0:0:0:0:
288,222,176084,1,0,0:0:0:0:
288,222,176167,1,10,0:0:0:0:
121,154,176334,1,2,0:0:0:0:
330,89,176500,1,4,3:2:0:0:
182,235,176667,5,0,3:2:0:0:
181,252,176750,1,2,0:0:0:0:
180,270,176834,1,8,0:0:0:0:
330,89,177000,6,0,L|385:92,1,44.75,0|2,3:2|0:0,0:0:0:0:
397,94,177167,1,8,0:0:0:0:
82,187,177334,5,0,3:2:0:0:
81,204,177417,1,2,0:0:0:0:
80,222,177501,1,8,0:0:0:0:
345,187,177667,6,0,L|400:190,1,44.75,0|0,3:2|0:0,0:0:0:0:
411,191,177834,2,0,P|416:223|416:254,1,62.6499980880738,4|0,3:2|0:3,0:0:0:0:
198,342,178000,5,0,3:2:0:0:
185,327,178084,1,0,3:2:0:0:
176,310,178167,2,0,P|171:278|171:247,1,62.6499980880738,2|0,3:2|0:3,0:0:0:0:
293,147,178334,5,0,3:2:0:0:
283,139,178417,1,0,3:2:0:0:
273,132,178500,2,0,L|275:167,6,35.8,2|0|0|0|0|0|0,3:2|3:2|3:2|3:2|3:2|3:2|3:2,0:0:0:0:
300,273,178834,2,0,L|295:337,6,40.2749987709046,2|0|0|0|0|0|0,3:2|3:2|3:2|3:2|3:2|3:2|3:2,0:0:0:0:
296,333,179167,5,4,3:2:0:0:
112,112,179334,1,4,3:2:0:0:
112,112,179667,5,4,3:2:0:0:
395,63,179834,1,4,3:2:0:0:
395,63,180167,5,12,3:2:0:0:
295,332,180334,1,12,3:2:0:0:
259,69,181167,6,0,P|228:77|197:79,1,62.6499980880738,4|0,3:2|0:0,0:0:0:0:
450,98,181334,2,0,P|419:89|388:87,1,62.6499980880738,4|0,3:2|0:0,0:0:0:0:
334,22,181667,6,0,P|313:95|389:87,1,179,4|0,3:2|0:0,0:0:0:0:
361,203,182167,6,0,B|294:202|255:161|255:161|230:195|189:213,1,201.375007681847,4|0,3:2|0:0,0:0:0:0:
97,121,182500,2,0,L|175:108,1,67.1250025606156,2|0,0:0|0:0,0:0:0:0:
270,277,182667,1,2,3:2:0:0:
226,33,182834,1,8,0:0:0:0:
361,203,183000,5,2,0:0:0:0:
340,201,183084,1,2,0:0:0:0:
319,200,183167,1,2,3:2:0:0:
116,279,183334,2,0,P|120:250|120:221,1,58.17499733696,2|0,0:0|0:0,0:0:0:0:
252,124,183500,2,0,B|212:163|212:163|231:279,1,174.52499201088,10|0,0:0|0:0,0:0:0:0:
222,310,183834,6,0,P|254:302|288:301,1,67.1250025606156,2|0,0:0|0:0,0:0:0:0:
479,161,184000,1,2,3:2:0:0:
324,312,184167,1,8,0:0:0:0:
491,275,184334,1,2,0:0:0:0:
491,275,184417,1,2,0:0:0:0:
491,275,184500,6,0,B|452:256|418:258|418:258|391:215|391:215|350:215|318:199,1,201.375007681847,2|0,3:2|0:0,0:0:0:0:
220,220,184834,2,0,P|218:186|214:153,1,67.1250025606156,10|0,0:0|0:0,0:0:0:0:
165,345,185000,1,0,0:0:0:0:
116,260,185167,5,2,0:0:0:0:
153,247,185250,1,0,0:0:0:0:
193,249,185334,1,0,3:2:0:0:
228,267,185417,1,0,0:0:0:0:
254,298,185500,1,10,0:0:0:0:
512,77,185667,6,0,L|390:86,1,107.399996722412,2|0,0:0|3:2,0:0:0:0:
381,80,185917,1,0,0:0:0:0:
381,80,186000,2,0,L|386:146,1,53.6999983612061,2|0,0:0|0:0,0:0:0:0:
400,232,186167,1,10,0:0:0:0:
277,103,186334,1,0,0:0:0:0:
304,305,186500,6,0,L|297:197,1,107.399996722412,2|2,0:0|3:2,0:0:0:0:
400,232,186834,1,8,0:0:0:0:
117,323,187000,1,2,0:0:0:0:
117,323,187084,1,2,0:0:0:0:
117,323,187167,6,0,B|155:276|159:206|159:206|170:241|203:263,1,201.375007681847,4|0,3:2|0:0,0:0:0:0:
203,264,187500,2,0,L|136:255,1,67.1250025606156,10|0,0:0|0:0,0:0:0:0:
37,235,187667,1,2,0:0:0:0:
37,235,187750,1,0,0:0:0:0:
37,235,187834,5,0,0:0:0:0:
209,362,188000,1,2,3:2:0:0:
87,150,188167,1,8,0:0:0:0:
281,278,188334,1,2,0:0:0:0:
281,278,188417,1,2,0:0:0:0:
281,278,188500,6,0,B|223:270|189:241|189:241|165:283|111:309,1,201.375007681847,2|0,3:2|0:0,0:0:0:0:
96,315,188834,1,8,0:0:0:0:
269,176,189000,6,0,P|272:142|281:111,1,58.17499733696,2|0,0:0|0:0,0:0:0:0:
97,197,189167,2,0,P|94:163|85:132,1,58.17499733696,0|0,0:0|0:0,0:0:0:0:
147,60,189334,5,2,3:2:0:0:
0,181,189500,1,8,0:0:0:0:
181,153,189667,1,0,3:2:0:0:
181,153,189750,1,0,3:2:0:0:
181,153,189834,6,0,L|248:156,1,67.1250025606156,4|2,3:2|0:0,0:0:0:0:
275,159,190000,1,0,0:0:0:0:
127,305,190167,6,0,L|194:308,1,67.1250025606156,8|2,0:0|0:0,0:0:0:0:
221,311,190333,1,0,0:0:0:0:
413,286,190500,5,10,0:0:0:0:
408,259,190584,1,0,3:2:0:0:
403,232,190667,1,0,3:2:0:0:
254,69,190834,1,8,0:0:0:0:
361,61,191000,6,0,B|353:94|352:131|352:131|309:164|309:164|307:206|299:241,1,201.375007681847,4|0,3:2|0:0,0:0:0:0:
312,379,191334,1,0,3:2:0:0:
307,359,191417,1,0,3:2:0:0:
301,339,191500,2,0,P|268:333|235:332,1,67.1250025606156,8|0,0:0|0:0,0:0:0:0:
136,252,191667,5,2,3:2:0:0:
127,234,191750,1,2,3:2:0:0:
122,213,191834,2,0,P|121:179|127:146,1,67.1250025606156,8|0,0:0|0:0,0:0:0:0:
427,160,192000,2,0,P|427:193|421:226,1,67.1250025606156,0|2,3:0|0:0,0:0:0:0:
223,186,192167,6,2,P|311:141|299:239,1,241.649992625428,10|0,0:2|0:1,0:1:0:0:
202,304,192500,6,0,B|262:299|304:254|304:254|326:287|371:304,1,201.375007681847,4|0,3:1|0:0,0:0:0:0:
458,357,192834,2,0,P|461:323|468:290,1,67.1250025606156,10|0,0:0|0:0,0:0:0:0:
212,119,193000,2,0,P|219:151|222:185,1,67.1250025606156,2|2,0:0|0:0,0:0:0:0:
202,304,193167,1,2,0:0:0:0:
318,136,193334,5,2,3:2:0:0:
132,223,193500,1,8,0:0:0:0:
298,356,193667,1,2,0:0:0:0:
299,335,193750,1,2,0:0:0:0:
300,314,193834,1,2,3:2:0:0:
302,71,194000,6,0,P|312:102|317:135,1,67.1250025606156,2|0,0:0|0:0,0:0:0:0:
398,165,194167,2,0,B|312:148|323:217|231:200,1,174.52499201088,10|0,0:0|0:0,0:0:0:0:
213,191,194500,1,0,0:0:0:0:
48,115,194667,6,0,P|83:115|120:108,1,67.1250025606156,2|0,3:2|0:0,0:0:0:0:
194,69,194834,1,10,0:0:0:0:
72,285,195000,1,0,0:0:0:0:
48,115,195167,6,0,B|95:61|95:61|81:199,1,201.375007681847,2|0,3:2|0:0,0:0:0:0:
72,285,195500,2,0,L|141:280,1,67.1250025606156,10|0,0:0|0:0,0:0:0:0:
317,275,195667,1,0,0:0:0:0:
117,371,195834,5,2,0:0:0:0:
257,136,196000,1,0,3:2:0:0:
228,317,196167,2,0,P|228:272|232:227,1,89.5,10|0,0:0|0:0,0:0:0:0:
343,82,196500,5,2,3:2:0:0:
154,166,196667,1,0,0:0:0:0:
333,225,196834,1,8,0:0:0:0:
96,27,197000,5,2,0:0:0:0:
253,151,197167,1,2,0:0:0:0:
135,268,197334,1,0,3:2:0:0:
251,349,197500,6,0,L|247:295,1,53.6999983612061,10|0,0:0|0:0,0:0:0:0:
154,166,197667,2,0,L|150:112,1,53.6999983612061,2|0,0:0|0:0,0:0:0:0:
58,203,197834,5,4,3:2:0:0:
231,51,198000,1,0,0:0:0:0:
341,146,198167,1,8,0:0:0:0:
426,75,198334,5,2,0:0:0:0:
426,75,198417,1,2,0:0:0:0:
426,75,198500,1,2,0:0:0:0:
253,208,198667,1,0,3:2:0:0:
132,19,198834,6,0,L|127:94,1,53.6999983612061,10|0,0:0|0:0,0:0:0:0:
359,177,199000,2,0,L|354:252,1,53.6999983612061,2|0,0:0|0:0,0:0:0:0:
427,304,199167,6,0,B|374:291|346:266|346:266|324:288|287:304,1,161.099995083618,4|0,3:2|0:0,0:0:0:0:
244,307,199500,2,0,B|267:263|267:263|252:207,1,107.399996722412,10|0,0:0|0:0,0:0:0:0:
49,68,199834,2,0,L|102:72,1,53.6999983612061,2|0,0:0|0:0,0:0:0:0:
258,90,200000,1,0,3:2:0:0:
174,31,200167,2,0,B|151:75|151:75|165:130,1,107.399996722412,10|0,0:0|0:0,0:0:0:0:
432,366,200500,6,0,L|426:303,1,62.6499980880738,4|0,3:2|0:0,0:0:0:0:
258,90,200667,1,0,3:2:0:0:
257,108,200750,1,0,3:2:0:0:
256,126,200834,1,0,3:2:0:0:
342,360,201000,6,0,L|336:297,1,62.6499980880738,12|0,0:0|0:0,0:0:0:0:
348,81,201167,1,0,3:2:0:0:
347,99,201250,1,0,3:2:0:0:
346,117,201334,1,0,3:2:0:0:
252,354,201500,6,0,L|246:291,1,62.6499980880738,12|0,0:0|0:0,0:0:0:0:
438,72,201667,1,0,3:2:0:0:
437,90,201750,1,0,3:2:0:0:
436,108,201834,1,0,3:2:0:0:
162,348,202000,6,0,L|156:285,1,62.6499980880738,12|0,0:0|0:0,0:0:0:0:
115,39,202167,1,0,3:2:0:0:
81,88,202250,1,0,3:2:0:0:
105,144,202334,1,0,3:2:0:0:
164,154,202417,1,2,0:0:0:0:
205,109,202500,5,10,0:0:0:0:
245,64,202584,1,2,0:0:0:0:
304,74,202667,1,2,0:0:0:0:
328,129,202750,1,2,0:0:0:0:
294,179,202834,6,2,L|298:259,1,67.1250025606156,10|0,0:1|0:1,0:1:0:0:
115,39,203000,2,0,L|119:119,1,67.1250025606156,2|0,3:1|0:0,0:0:0:0:
27,190,203167,6,0,B|77:180|120:132|120:132|143:167|191:183,1,201.375007681847,4|0,3:2|0:0,0:0:0:0:
180,282,203500,2,0,P|147:275|113:273,1,67.1250025606156,10|0,0:0|0:0,0:0:0:0:
213,79,203667,1,2,0:0:0:0:
213,79,203750,1,2,0:0:0:0:
213,79,203834,6,0,P|246:77|279:70,1,67.1250025606156,2|0,0:0|0:0,0:0:0:0:
191,183,204000,1,2,3:2:0:0:
357,10,204167,1,8,0:0:0:0:
300,172,204334,5,2,0:0:0:0:
298,192,204417,1,2,0:0:0:0:
297,212,204500,1,2,3:2:0:0:
83,165,204667,2,0,P|87:192|90:222,1,58.17499733696,2|0,0:0|0:0,0:0:0:0:
11,294,204834,2,0,B|106:250|106:250|164:288,1,174.52499201088,8|0,0:0|0:0,0:0:0:0:
181,300,205167,1,0,0:0:0:0:
351,227,205334,6,0,P|317:227|284:222,1,67.1250025606156,2|0,3:2|0:0,0:0:0:0:
191,183,205500,1,10,0:0:0:0:
413,141,205667,1,0,0:0:0:0:
265,284,205834,6,0,B|298:241|304:167|304:167|317:202|350:226,1,201.375007681847,2|0,3:2|0:0,0:0:0:0:
435,295,206167,2,0,P|438:261|445:228,1,67.1250025606156,10|0,0:0|0:0,0:0:0:0:
191,134,206334,2,0,P|198:166|201:200,1,67.1250025606156,0|0,0:0|0:0,0:0:0:0:
134,277,206500,5,2,0:0:0:0:
266,57,206667,1,0,3:2:0:0:
108,187,206834,2,0,B|198:169|185:243|272:229,1,174.52499201088,10|0,0:0|0:0,0:0:0:0:
270,229,207167,5,2,3:2:0:0:
398,292,207334,1,0,0:0:0:0:
254,136,207500,1,10,0:0:0:0:
147,298,207667,1,0,0:0:0:0:
147,298,207750,1,0,0:0:0:0:
147,298,207834,1,0,0:0:0:0:
290,296,208000,6,0,L|296:242,1,53.6999983612061,2|0,3:2|0:0,0:0:0:0:
150,32,208167,2,0,L|140:108,1,53.6999983612061,10|0,0:0|0:0,0:0:0:0:
128,183,208334,1,2,3:2:0:0:
449,76,208500,6,0,P|417:79|386:81,1,62.6499980880738,4|0,3:2|0:0,0:0:0:0:
240,81,208667,1,0,3:2:0:0:
242,99,208750,1,0,3:2:0:0:
244,117,208834,1,0,3:2:0:0:
437,162,209000,6,0,P|405:165|374:167,1,62.6499980880738,12|0,0:0|0:0,0:0:0:0:
153,120,209167,1,0,3:2:0:0:
155,138,209250,1,0,3:2:0:0:
157,156,209334,1,0,3:2:0:0:
425,248,209500,6,0,P|393:251|362:253,1,62.6499980880738,12|0,0:0|0:0,0:0:0:0:
66,159,209667,1,0,3:2:0:0:
68,177,209750,1,0,3:2:0:0:
70,195,209834,1,0,3:2:0:0:
413,334,210000,6,0,P|381:337|350:339,1,62.6499980880738,12|0,0:0|0:0,0:0:0:0:
21,294,210167,1,0,3:2:0:0:
41,255,210250,1,0,3:2:0:0:
75,228,210334,1,0,3:2:0:0:
118,219,210417,1,0,3:2:0:0:
160,229,210500,6,0,B|128:257|128:257|122:346,1,125.299996176148,4|0,3:2|0:0,0:0:0:0:
273,272,210750,2,0,B|267:203|267:203|273:167|273:167|245:131,1,152.150002902031,4|0,3:2|0:0,0:0:0:0:
398,291,211000,2,0,B|384:325|384:325|388:364,1,76.0750014510155,4|0,3:2|0:0,0:0:0:0:
505,165,211167,6,0,B|458:125|391:137|391:137|371:198,1,179,4|0,3:2|0:0,0:0:0:0:
194,100,211667,1,0,3:2:0:0:
287,135,211834,2,0,P|286:90|274:42,1,89.5,10|0,0:0|0:0,0:0:0:0:
194,100,212167,6,0,L|127:98,1,53.6999983612061,2|0,3:2|0:0,0:0:0:0:
205,203,212334,2,0,L|138:201,1,53.6999983612061,2|0,3:2|0:0,0:0:0:0:
49,186,212500,6,0,P|56:220|60:256,1,71.6,0|0,3:2|0:0,0:0:0:0:
329,330,212834,2,0,P|334:299|343:269,1,62.6499980880738
132,45,213167,2,0,P|137:71|140:97,1,53.6999983612061,0|0,0:0|3:2,0:0:0:0:
337,138,213500,6,0,B|351:77|275:46|203:107|264:234,1,250.599992352295,8|4,0:1|3:2,0:0:0:0:
20,142,214167,6,0,P|47:129|77:123,1,59.6666666666667,2|0,3:2|3:2,0:0:0:0:
109,45,214667,2,0,P|133:61|152:84,1,59.6666666666667,2|0,0:0|0:0,0:0:0:0:
237,73,215167,2,0,P|234:102|224:130,1,59.6666666666667,2|0,3:2|3:2,0:0:0:0:
278,197,215667,2,0,P|251:209|221:215,1,59.6666666666667,2|0,0:0|0:0,0:0:0:0:
148,173,216167,1,2,3:2:0:0:
148,173,216500,1,0,3:2:0:0:
496,146,216834,6,0,P|467:130|435:123,1,66.2300016169434,2|0,3:2|3:2,0:0:0:0:
408,40,217334,2,0,P|380:58|359:83,1,66.2300016169434,2|0,0:0|0:0,0:0:0:0:
275,66,217834,2,0,P|276:99|287:130,1,66.2300016169434,2|0,3:2|3:2,0:0:0:0:
229,191,218334,2,0,P|258:208|290:215,1,66.2300016169434,2|0,0:0|0:0,0:0:0:0:
364,173,218834,1,2,3:2:0:0:
364,173,219000,1,0,3:2:0:0:
364,173,219167,1,0,3:2:0:0:
276,302,219500,6,0,P|246:322|211:330,1,73.3900011198426,2|0,3:2|3:2,0:0:0:0:
225,174,220000,2,0,P|224:210|213:245,1,73.3900011198426,2|0,0:0|0:0,0:0:0:0:
84,157,220500,2,0,P|117:172|141:199,1,73.3900011198426,2|0,3:2|3:2,0:0:0:0:
0,258,221000,2,0,P|32:241|68:237,1,73.3900011198426,2|0,0:0|0:0,0:0:0:0:
137,288,221500,1,0,3:2:0:0:
137,288,221833,1,0,3:2:0:0:
225,293,222167,6,0,P|257:318|295:327,1,80.5499975418092,2|0,3:2|3:2,0:0:0:0:
283,164,222667,2,0,P|280:204|293:243,1,80.5499975418092,2|0,0:0|0:0,0:0:0:0:
429,154,223167,2,0,P|392:167|365:196,1,80.5499975418092,2|0,3:2|3:2,0:0:0:0:
512,258,223667,2,0,P|476:240|435:238,1,80.5499975418092,2|0,0:0|0:0,0:0:0:0:
370,286,224167,1,8,0:0:0:0:
286,154,224334,1,8,0:0:0:0:
286,154,224417,1,8,0:0:0:0:
286,154,224500,6,0,P|288:122|293:91,1,62.6499980880738,4|0,3:2|0:0,0:0:0:0:
227,33,224834,2,0,P|164:28|91:37,1,125.299996176148,8|8,0:0|0:0,0:0:0:0:
94,124,225334,2,0,P|125:118|157:115,1,62.6499980880738,0|8,0:0|0:0,0:0:0:0:
205,186,225667,1,0,0:0:0:0:
286,154,225834,6,0,P|297:237|293:296,1,125.299996176148,8|8,0:0|0:0,0:0:0:0:
372,321,226334,2,0,P|380:290|386:254,1,62.6499980880738,0|8,0:0|0:0,0:0:0:0:
387,172,226667,1,0,0:0:0:0:
449,110,226834,2,0,P|387:119|324:123,1,125.299996176148,8|8,0:0|0:0,0:0:0:0:
47,227,227500,6,0,P|108:217|171:213,1,125.299996176148,8|8,0:0|0:0,0:0:0:0:
256,191,228000,2,0,P|253:222|249:253,1,62.6499980880738,0|8,0:0|0:0,0:0:0:0:
314,313,228334,1,0,0:0:0:0:
388,267,228500,6,0,P|390:235|394:204,1,62.6499980880738,8|0,0:0|0:0,0:0:0:0:
358,123,228834,2,0,P|389:119|420:116,1,62.6499980880738,8|0,0:0|0:0,0:0:0:0:
438,29,229167,2,0,P|375:34|312:46,1,125.299996176148,8|8,0:0|0:0,0:0:0:0:
257,148,229667,1,0,3:2:0:0:
152,98,229834,5,12,0:0:0:0:
360,206,230000,1,0,3:2:0:0:
141,133,230167,1,8,0:0:0:0:
371,170,230334,1,0,3:2:0:0:
141,170,230500,1,8,0:0:0:0:
371,133,230667,1,0,3:2:0:0:
152,206,230834,1,8,0:0:0:0:
360,98,231000,1,0,3:2:0:0:
78,36,231167,5,12,0:0:0:0:
465,118,231334,1,0,3:2:0:0:
48,205,231500,1,8,0:0:0:0:
418,279,231667,1,0,3:2:0:0:
94,279,231834,1,8,0:0:0:0:
464,205,232001,1,0,3:2:0:0:
47,118,232167,1,8,0:0:0:0:
434,36,232334,1,0,3:2:0:0:
149,154,232500,5,12,0:0:0:0:
157,113,232584,1,8,0:0:0:0:
180,79,232667,1,8,0:0:0:0:
215,58,232750,1,8,0:0:0:0:
256,50,232834,1,8,0:0:0:0:
296,60,232917,1,8,0:0:0:0:
329,85,233000,1,8,0:0:0:0:
350,120,233084,1,8,0:0:0:0:
356,161,233167,1,8,0:0:0:0:
345,201,233250,1,8,0:0:0:0:
320,233,233334,1,8,0:0:0:0:
284,254,233417,1,8,0:0:0:0:
243,257,233500,5,0,3:2:0:0:
245,236,233584,1,0,3:2:0:0:
248,208,233667,2,0,L|245:159,4,38.0375007255077,0|0|0|0|0,3:2|3:2|3:2|3:2|0:0,0:0:0:0:
140,283,234667,5,0,3:2:0:0:
141,264,234751,1,0,3:2:0:0:
142,241,234834,2,2,B|122:152|122:152|150:129|162:95,1,161.099995083618,10|0,0:1|0:1,0:1:0:0:
77,73,235167,6,0,P|130:131|215:127,1,161.099995083618,4|8,3:2|0:0,0:0:0:0:
290,185,235667,2,0,P|298:145|303:105,1,80.5499975418092,2|0,0:0|0:0,0:0:0:0:
363,34,236000,1,0,3:2:0:0:
207,130,236167,1,8,0:0:0:0:
399,136,236334,6,0,L|479:130,1,80.5499975418092,2|0,0:0|3:2,0:0:0:0:
378,270,236667,1,0,0:0:0:0:
298,221,236834,2,0,L|217:226,1,80.5499975418092,10|0,0:0|0:0,0:0:0:0:
116,184,237167,1,2,0:0:0:0:
116,184,237250,1,0,0:0:0:0:
116,184,237334,1,0,3:2:0:0:
116,184,237417,1,0,0:0:0:0:
116,184,237500,2,0,P|110:144|111:103,1,80.5499975418092,8|0,0:0|0:0,0:0:0:0:
347,63,237834,6,0,P|356:142|352:223,1,161.099995083618,2|8,3:2|0:0,0:0:0:0:
352,223,238334,1,0,0:0:0:0:
248,284,238500,2,0,L|246:187,1,80.5499975418092,2|0,0:0|3:2,0:0:0:0:
243,108,238834,1,8,0:0:0:0:
134,229,239000,1,0,0:0:0:0:
134,48,239167,6,0,L|135:128,1,80.5499975418092,2|0,3:2|0:0,0:0:0:0:
54,239,239500,2,0,P|93:232|133:228,1,80.5499975418092,8|0,0:0|0:0,0:0:0:0:
134,229,239750,1,0,0:0:0:0:
134,229,239834,1,2,0:0:0:0:
39,122,240000,1,0,3:2:0:0:
227,277,240167,2,0,P|234:237|238:197,1,80.5499975418092,8|0,0:0|0:0,0:0:0:0:
310,127,240500,6,0,P|388:137|446:202,1,161.099995083618,2|8,3:2|0:0,0:0:0:0:
407,41,241000,1,0,0:0:0:0:
407,41,241084,1,0,0:0:0:0:
407,41,241167,2,0,L|486:30,1,80.5499975418092,2|0,0:0|3:2,0:0:0:0:
339,226,241500,2,0,P|346:265|348:305,1,80.5499975418092,10|0,0:0|0:0,0:0:0:0:
134,225,241834,6,0,P|180:161|257:147,1,161.099995083618,2|8,3:2|0:0,0:0:0:0:
339,60,242334,1,0,0:0:0:0:
339,60,242417,1,0,0:0:0:0:
339,60,242500,2,0,P|298:56|253:47,1,80.5499975418092,2|0,0:0|3:2,0:0:0:0:
242,247,242834,2,0,P|281:240|321:236,1,80.5499975418092,10|0,0:0|0:0,0:0:0:0:
489,289,243167,5,2,3:2:0:0:
362,151,243334,1,0,0:0:0:0:
298,325,243500,1,8,0:0:0:0:
456,190,243667,2,0,L|465:110,1,80.5499975418092,2|0,0:0|0:0,0:0:0:0:
298,325,244000,2,0,L|288:245,1,80.5499975418092,2|8,3:2|0:0,0:0:0:0:
392,272,244334,1,0,0:0:0:0:
328,149,244500,6,0,B|229:127|229:127|197:150|198:204,1,187.949994264221,2|0,3:2|3:2,0:0:0:0:
120,246,244834,2,0,P|112:215|109:184,1,62.6499980880738,10|0,0:0|0:0,0:0:0:0:
255,47,245000,2,0,P|247:77|244:108,1,62.6499980880738,2|0,3:2|0:0,0:0:0:0:
310,277,245167,5,10,0:0:0:0:
299,261,245250,1,2,3:2:0:0:
288,245,245334,2,0,L|350:252,1,62.6499980880738,2|0,3:2|0:0,0:0:0:0:
448,275,245500,6,0,P|454:244|454:207,1,62.6499980880738,10|0,0:0|0:0,0:0:0:0:
196,297,245667,2,0,P|190:327|190:365,1,62.6499980880738,2|0,3:2|0:0,0:0:0:0:
47,216,245834,6,0,P|124:229|187:183,1,161.099995083618,4|8,3:2|0:0,0:0:0:0:
148,87,246334,1,0,0:0:0:0:
148,87,246417,1,0,0:0:0:0:
148,87,246500,2,0,L|244:81,1,80.5499975418092,2|0,0:0|3:2,0:0:0:0:
303,147,246834,2,0,P|308:186|309:227,1,80.5499975418092,10|0,0:0|0:0,0:0:0:0:
242,294,247167,5,2,3:2:0:0:
404,182,247334,1,0,0:0:0:0:
404,182,247417,1,0,0:0:0:0:
404,182,247500,1,8,0:0:0:0:
209,202,247667,1,0,0:0:0:0:
326,258,247834,2,0,P|365:266|403:280,1,80.5499975418092,2|0,0:0|3:2,0:0:0:0:
129,121,248167,2,0,P|168:112|206:98,1,80.5499975418092,10|0,0:0|0:0,0:0:0:0:
293,45,248500,6,0,P|365:76|385:160,1,161.099995083618,2|8,3:2|0:0,0:0:0:0:
262,249,249000,1,0,0:0:0:0:
273,260,249084,1,0,0:0:0:0:
284,271,249167,2,0,L|291:182,1,80.5499975418092,2|0,0:0|3:2,0:0:0:0:
227,111,249500,1,8,0:0:0:0:
386,239,249667,1,0,0:0:0:0:
188,203,249834,6,0,L|107:207,1,80.5499975418092,2|0,3:2|0:0,0:0:0:0:
20,245,250167,2,0,P|1:164|11:87,1,161.099995083618,8|2,0:0|0:0,0:0:0:0:
231,36,250667,2,0,P|237:76|237:117,1,80.5499975418092,0|8,3:2|0:0,0:0:0:0:
129,145,251000,1,0,3:2:0:0:
130,165,251084,1,0,3:2:0:0:
132,184,251167,6,0,L|174:187,3,40.2749987709046,4|0|0|0,3:2|0:0|0:0|0:0,0:0:0:0:
157,269,251500,2,0,L|199:272,3,40.2749987709046,0|0|0|0,3:2|0:0|0:0|0:0,0:0:0:0:
260,200,251834,2,0,L|302:203,3,40.2749987709046,0|0|0|0,3:2|0:0|0:0|0:0,0:0:0:0:
285,285,252167,2,0,L|327:288,3,40.2749987709046,0|0|0|0,3:2|0:0|0:0|0:0,0:0:0:0:
435,345,252500,6,0,L|430:288,3,53.6999983612061,4|0|0|0,3:2|0:0|0:0|0:0,0:0:0:0:
401,145,252834,2,0,L|396:202,3,53.6999983612061,0|0|0|0,3:2|0:0|0:0|0:0,0:0:0:0:
343,354,253167,2,0,L|338:297,3,53.6999983612061,0|0|0|0,3:2|0:0|0:0|0:0,0:0:0:0:
301,148,253501,6,0,L|295:210,1,62.6499980880738,2|0,3:2|0:0,0:0:0:0:
251,363,253667,2,0,L|245:300,1,62.6499980880738,2|0,3:2|0:0,0:0:0:0:
163,240,253834,1,4,3:2:0:0:
408,176,254000,5,0,3:2:0:0:
406,198,254084,1,0,3:2:0:0:
404,220,254167,1,8,0:0:0:0:
210,73,254334,1,0,3:2:0:0:
198,64,254417,1,0,3:2:0:0:
188,56,254500,2,0,L|196:142,1,67.1250025606156,4|0,3:2|3:2,0:0:0:0:
225,314,254667,1,8,0:0:0:0:
101,100,254833,5,0,3:2:0:0:
316,285,255000,1,0,3:2:0:0:
234,224,255167,5,0,3:2:0:0:
191,225,255333,1,0,0:0:0:0:
163,240,255500,1,0,0:0:0:0:
149,256,255667,1,0,0:0:0:0:
143,264,255833,1,0,0:0:0:0:
140,268,256000,5,0,3:2:0:0:
418,334,256167,1,8,0:1:0:0:
418,334,256500,5,4,3:2:0:0:
216,94,267167,6,8,B|257:105|304:72|310:-27|138:-59|97:37|70:154|175:153|223:171|246:263|246:263|282:181|332:162|410:199|430:69|352:16|291:57,1,805.499975418092,4|0,3:2|3:2,0:0:0:0:
216,94,269834,1,4,3:2:0:0:
143,329,271167,6,0,B|208:320|243:272|243:272|270:308|323:321,1,214.799993444824,0|0,3:2|3:2,0:0:0:0:
142,166,272167,6,0,P|150:196|153:227,1,62.6499980880738,0|0,3:2|0:0,0:0:0:0:
330,216,272334,2,0,P|332:184|341:154,1,62.6499980880738,0|0,3:2|0:0,0:0:0:0:
235,110,272500,6,0,L|237:158,7,44.75,4|0|0|0|0|0|0|0,3:2|0:0|0:0|0:0|0:0|0:0|0:0|0:0,0:0:0:0:
431,212,273167,2,0,L|429:260,7,44.75,0|0|0|0|0|0|0|0,3:2|0:0|0:0|0:0|0:0|0:0|0:0|0:0,0:0:0:0:
230,249,273834,2,0,L|232:297,7,44.75,4|0|0|0|0|0|0|0,3:2|0:0|0:0|0:0|0:0|0:0|0:0|0:0,0:0:0:0:
360,309,274500,5,4,3:2:0:0:
345,326,274584,1,0,0:0:0:0:
331,343,274667,2,0,L|333:280,1,62.6499980880738,0|0,0:0|0:0,0:0:0:0:
434,139,274834,6,0,P|432:171|428:202,1,62.6499980880738,0|0,3:2|0:0,0:0:0:0:
230,154,275000,2,0,P|232:122|237:92,1,62.6499980880738,0|0,3:2|0:0,0:0:0:0:
334,152,275167,5,4,3:2:0:0:
125,54,275334,2,0,P|118:93|117:133,1,80.5499975418092,4|0,3:2|0:0,0:0:0:0:
334,152,275667,5,4,3:2:0:0:
38,177,275834,2,0,P|48:215|66:251,1,80.5499975418092,4|0,3:2|0:0,0:0:0:0:
334,152,276167,5,4,3:2:0:0:
96,351,276334,2,0,P|160:305|229:309,1,125.299996176148,4|0,3:2|0:0,0:0:0:0:
111,164,277110,6,0,P|138:150|170:149,1,62.6499980880738,0|0,3:2|3:2,0:0:0:0:
310,285,277850,2,0,P|340:291|367:308,1,62.6499980880738,0|0,3:2|3:2,0:0:0:0:
367,308,278500,6,0,P|340:291|309:286,1,62.6499980880738,4|0,3:2|0:0,0:0:0:0:
170,149,278667,2,0,P|138:151|111:165,1,62.6499980880738,4|0,3:2|0:0,0:0:0:0:
326,195,279000,6,0,B|238:180|254:256|159:241,1,179,0|0,3:2|0:0,0:0:0:0:
130,61,279499,6,0,B|185:18|185:18|168:159,1,201.375007681847,4|0,3:2|0:0,0:0:0:0:
139,244,279832,2,0,L|205:238,1,67.1250025606156,2|0,0:0|0:0,0:0:0:0:
299,235,279999,1,2,3:2:0:0:
73,137,280166,1,8,0:0:0:0:
188,373,280332,5,2,0:0:0:0:
186,353,280416,1,2,0:0:0:0:
184,333,280499,1,2,3:2:0:0:
243,36,280666,2,0,P|236:64|237:96,1,58.17499733696,2|0,0:0|0:0,0:0:0:0:
330,104,280832,2,0,B|251:89|261:165|168:147,1,174.52499201088,10|0,0:0|0:0,0:0:0:0:
54,56,281166,6,0,L|124:67,1,67.1250025606156,2|0,0:0|0:0,0:0:0:0:
235,236,281332,1,2,3:2:0:0:
210,26,281499,1,8,0:0:0:0:
68,206,281666,1,2,0:0:0:0:
68,206,281749,1,2,0:0:0:0:
68,206,281832,6,0,B|142:193|142:193|169:146|169:146|243:132,1,201.375007681847,2|0,3:2|0:0,0:0:0:0:
335,156,282166,2,0,P|334:122|330:87,1,67.1250025606156,10|0,0:0|0:0,0:0:0:0:
501,249,282332,2,0,P|501:215|506:180,1,67.1250025606156
406,202,282499,5,2,0:0:0:0:
367,189,282582,1,0,0:0:0:0:
327,192,282666,1,0,3:2:0:0:
291,209,282749,1,0,0:0:0:0:
263,237,282832,1,10,0:0:0:0:
45,71,282999,6,0,L|159:61,1,107.399996722412,2|0,0:0|3:2,0:0:0:0:
173,49,283249,1,0,0:0:0:0:
173,49,283332,2,0,L|168:113,1,53.6999983612061,2|0,0:0|0:0,0:0:0:0:
158,202,283499,1,10,0:0:0:0:
269,72,283666,1,0,0:0:0:0:
255,279,283832,6,0,L|262:171,1,107.399996722412,2|2,0:0|3:2,0:0:0:0:
355,228,284166,1,8,0:0:0:0:
158,202,284332,1,2,0:0:0:0:
158,202,284416,1,2,0:0:0:0:
158,202,284499,6,0,B|109:210|61:190|61:190|83:237|77:289,1,201.375007681847,4|0,3:2|0:0,0:0:0:0:
56,384,284832,2,0,L|122:372,1,67.1250025606156,10|0,0:0|0:0,0:0:0:0:
294,361,284999,5,2,0:0:0:0:
281,323,285082,1,0,0:0:0:0:
252,295,285166,1,0,0:0:0:0:
214,283,285249,1,0,0:0:0:0:
175,290,285332,1,2,3:2:0:0:
327,94,285499,1,8,0:0:0:0:
286,185,285666,1,2,0:0:0:0:
286,185,285749,1,2,0:0:0:0:
286,185,285833,6,0,B|346:206|391:169|391:169|437:179|461:226,1,201.375007681847,2|0,3:2|0:0,0:0:0:0:
461,240,286166,1,8,0:0:0:0:
366,339,286332,2,0,P|368:311|373:282,1,58.17499733696,2|0,0:0|0:0,0:0:0:0:
271,207,286499,2,0,P|268:178|263:149,1,58.17499733696
320,69,286666,5,2,3:2:0:0:
205,276,286833,1,8,0:0:0:0:
367,164,286999,1,0,3:2:0:0:
367,164,287083,1,0,3:2:0:0:
367,164,287166,6,0,L|433:156,1,67.1250025606156,4|2,3:2|0:0,0:0:0:0:
462,153,287333,1,0,0:0:0:0:
343,300,287499,6,0,L|409:292,1,67.1250025606156,8|2,0:0|0:0,0:0:0:0:
438,289,287666,1,0,0:0:0:0:
211,224,287833,5,10,0:0:0:0:
208,250,287916,1,0,3:2:0:0:
205,276,287999,1,0,3:2:0:0:
358,76,288166,1,8,0:0:0:0:
197,114,288333,6,0,B|232:130|270:126|270:126|301:173|301:173|334:169|369:184,1,201.375007681847,4|0,3:2|0:0,0:0:0:0:
314,278,288666,1,0,3:2:0:0:
294,273,288749,1,0,3:2:0:0:
273,273,288833,2,0,P|239:278|208:289,1,67.1250025606156,8|0,0:0|0:0,0:0:0:0:
72,227,288999,5,2,3:2:0:0:
61,209,289083,1,2,3:2:0:0:
56,188,289166,2,0,P|54:154|56:120,1,67.1250025606156,8|0,0:0|0:0,0:0:0:0:
353,98,289333,2,0,P|354:131|352:165,1,67.1250025606156,0|2,3:0|0:0,0:0:0:0:
185,191,289499,6,2,P|173:93|260:138,1,241.649992625428,10|0,0:2|0:1,0:1:0:0:
360,283,289833,6,0,B|309:272|277:238|277:238|242:276|184:286,1,201.375007681847,4|0,3:1|0:0,0:0:0:0:
118,199,290166,2,0,P|151:197|184:190,1,67.1250025606156,10|0,0:0|0:0,0:0:0:0:
277,354,290333,1,2,0:0:0:0:
277,354,290416,1,2,0:0:0:0:
277,354,290499,5,2,0:0:0:0:
363,177,290666,1,2,3:2:0:0:
176,300,290833,1,8,0:0:0:0:
269,156,290999,5,2,0:0:0:0:
271,176,291083,1,2,0:0:0:0:
273,196,291166,1,2,3:2:0:0:
460,292,291333,2,0,P|462:263|468:234,1,58.17499733696,2|0,0:0|0:0,0:0:0:0:
414,146,291499,2,0,B|368:181|368:181|361:297,1,174.52499201088,10|0,0:0|0:0,0:0:0:0:
363,318,291833,1,0,0:0:0:0:
38,248,291999,6,0,L|104:240,1,67.1250025606156,2|0,3:2|0:0,0:0:0:0:
219,88,292166,1,10,0:0:0:0:
84,330,292333,1,0,0:0:0:0:
56,122,292499,6,0,B|95:132|129:133|129:133|166:176|166:176|195:178|236:187,1,201.375007681847,2|0,3:2|0:0,0:0:0:0:
256,203,292833,2,0,P|253:169|248:136,2,67.1250025606156,10|0|0,0:0|0:0|0:0,0:0:0:0:
222,292,293166,5,2,0:0:0:0:
471,96,293333,1,0,3:2:0:0:
389,254,293499,2,0,P|390:209|397:165,1,89.5,10|0,0:0|0:0,0:0:0:0:
338,59,293833,5,2,3:2:0:0:
496,189,293999,1,0,0:0:0:0:
264,231,294166,1,8,0:0:0:0:
426,129,294333,5,2,0:0:0:0:
292,316,294499,1,2,0:0:0:0:
185,174,294666,1,0,3:2:0:0:
73,235,294833,6,0,L|125:244,1,53.6999983612061,10|0,0:0|0:0,0:0:0:0:
276,135,294999,2,0,L|328:144,1,53.6999983612061,2|0,0:0|0:0,0:0:0:0:
393,219,295166,5,4,3:2:0:0:
229,48,295333,1,0,0:0:0:0:
290,243,295499,1,8,0:0:0:0:
409,68,295666,5,2,0:0:0:0:
409,68,295749,1,2,0:0:0:0:
409,68,295833,1,2,0:0:0:0:
254,142,295999,1,0,3:2:0:0:
133,30,296166,6,0,L|141:97,1,53.6999983612061,10|0,0:0|0:0,0:0:0:0:
375,162,296333,2,0,L|383:229,1,53.6999983612061,2|0,0:0|0:0,0:0:0:0:
454,287,296499,6,0,B|408:272|380:248|380:248|347:272|309:277,1,161.099995083618,4|0,3:2|0:0,0:0:0:0:
274,300,296833,2,0,B|293:255|293:255|279:197,1,107.399996722412,10|0,0:0|0:0,0:0:0:0:
83,37,297165,2,0,L|23:20,1,53.6999983612061,2|0,0:0|0:0,0:0:0:0:
82,137,297332,2,0,L|31:153,1,53.6999983612061,0|0,3:2|0:0,0:0:0:0:
184,44,297499,2,0,B|165:89|165:89|181:156,1,107.399996722412,10|0,0:0|0:0,0:0:0:0:
483,304,297833,6,0,L|420:297,1,62.6499980880738,4|0,3:2|0:0,0:0:0:0:
267,106,297998,1,0,3:2:0:0:
269,124,298082,1,0,3:2:0:0:
271,142,298165,1,0,3:2:0:0:
474,221,298333,6,0,L|411:214,1,62.6499980880738,12|0,0:0|0:0,0:0:0:0:
178,146,298498,1,0,3:2:0:0:
180,164,298582,1,0,3:2:0:0:
182,182,298665,1,0,3:2:0:0:
465,138,298833,6,0,L|402:131,1,62.6499980880738,12|0,0:0|0:0,0:0:0:0:
89,186,298999,1,0,3:2:0:0:
91,204,299083,1,0,3:2:0:0:
93,222,299165,1,0,3:2:0:0:
456,55,299333,6,0,L|393:48,1,62.6499980880738,12|0,0:0|0:0,0:0:0:0:
112,91,299499,1,0,3:2:0:0:
161,57,299583,1,0,3:2:0:0:
217,81,299666,1,0,3:2:0:0:
227,140,299749,1,2,0:0:0:0:
182,181,299833,5,10,0:0:0:0:
137,221,299916,1,2,0:0:0:0:
147,280,299999,1,2,0:0:0:0:
202,304,300083,1,2,0:0:0:0:
252,270,300166,6,2,P|285:265|318:263,1,67.1250025606156,10|0,0:1|0:1,0:1:0:0:
112,91,300333,2,0,P|145:96|178:98,1,67.1250025606156,2|0,3:1|0:0,0:0:0:0:
363,61,300499,6,0,B|304:62|265:41|265:41|287:88|279:139,1,201.375007681847,4|0,3:2|0:0,0:0:0:0:
368,234,300833,2,0,P|369:200|373:167,1,67.1250025606156,10|0,0:0|0:0,0:0:0:0:
178,98,300999,1,2,0:0:0:0:
178,98,301083,1,2,0:0:0:0:
178,98,301166,5,2,0:0:0:0:
291,301,301333,1,2,3:2:0:0:
463,202,301499,1,8,0:0:0:0:
267,188,301666,5,2,0:0:0:0:
247,191,301749,1,2,0:0:0:0:
227,194,301833,1,2,3:2:0:0:
374,166,301999,2,0,P|367:194|367:232,1,58.17499733696,2|0,0:0|0:0,0:0:0:0:
291,301,302166,2,0,B|337:292|371:262|371:262|399:293|440:309,1,174.52499201088,8|0,0:0|0:0,0:0:0:0:
459,314,302499,1,0,0:0:0:0:
408,71,302666,6,0,L|341:79,1,67.1250025606156,2|0,3:2|0:0,0:0:0:0:
241,94,302833,1,10,0:0:0:0:
478,147,302999,1,0,0:0:0:0:
408,71,303166,6,0,B|356:31|356:31|373:167,1,201.375007681847,2|0,3:2|0:0,0:0:0:0:
403,263,303499,2,0,P|370:256|332:252,2,67.1250025606156,10|0|0,0:0|0:0|0:0,0:0:0:0:
255,303,303833,5,2,0:0:0:0:
478,147,303999,1,0,3:2:0:0:
318,77,304166,2,0,L|407:70,1,89.5,10|0,0:0|0:0,0:0:0:0:
234,21,304499,5,2,3:2:0:0:
373,165,304666,1,0,0:0:0:0:
204,270,304833,1,10,0:0:0:0:
264,159,304999,1,0,0:0:0:0:
266,176,305083,1,0,0:0:0:0:
268,193,305166,1,0,0:0:0:0:
126,109,305333,6,0,L|179:105,1,53.6999983612061,2|0,3:2|0:0,0:0:0:0:
344,259,305499,2,0,L|397:255,1,53.6999983612061,10|0,0:0|0:0,0:0:0:0:
467,182,305666,1,2,3:2:0:0:
203,367,305833,6,0,P|206:335|207:304,1,62.6499980880738,4|0,3:2|0:0,0:0:0:0:
193,201,305999,1,0,3:2:0:0:
211,203,306083,1,0,3:2:0:0:
229,205,306166,1,0,3:2:0:0:
300,349,306333,6,0,P|303:317|304:286,1,62.6499980880738,12|0,0:0|0:0,0:0:0:0:
224,117,306499,1,0,3:2:0:0:
242,119,306583,1,0,3:2:0:0:
260,121,306666,1,0,3:2:0:0:
397,331,306833,6,0,P|400:299|401:268,1,62.6499980880738,12|0,0:0|0:0,0:0:0:0:
255,33,306999,1,0,3:2:0:0:
273,35,307083,1,0,3:2:0:0:
291,37,307166,1,0,3:2:0:0:
494,313,307333,6,0,P|497:281|498:250,1,62.6499980880738,12|0,0:0|0:0,0:0:0:0:
512,76,307499,1,0,3:2:0:0:
497,116,307583,1,0,3:2:0:0:
464,144,307666,1,0,3:2:0:0:
421,151,307749,1,0,3:2:0:0:
381,135,307832,6,0,B|342:104|342:104|306:127|306:127|239:132,1,152.150002902031,4|0,3:2|0:0,0:0:0:0:
27,172,308082,2,0,B|87:176|87:176|125:158|125:158|160:192,1,152.150002902031,4|0,3:2|0:0,0:0:0:0:
293,283,308333,2,0,B|260:266|260:266|219:276,1,76.0750014510155,4|0,3:2|0:0,0:0:0:0:
180,373,308499,6,0,B|117:382|117:382|84:332|107:272,1,179,4|0,3:2|0:0,0:0:0:0:
283,113,308999,1,0,3:2:0:0:
189,65,309166,2,0,L|192:154,1,89.5,10|0,0:0|0:0,0:0:0:0:
43,107,309499,6,0,L|100:103,1,53.6999983612061,2|0,3:2|0:0,0:0:0:0:
336,109,309666,2,0,L|282:112,1,53.6999983612061,2|0,3:2|0:0,0:0:0:0:
107,271,309833,6,0,L|104:199,1,71.6,0|0,3:2|0:0,0:0:0:0:
338,171,310166,2,0,L|335:103,1,62.6499980880738
96,103,310499,2,0,L|93:39,1,53.6999983612061,0|0,0:0|3:2,0:0:0:0:
276,19,310833,6,0,B|229:54|229:54|234:183,1,187.949994264221,8|0,0:1|0:0,0:0:0:0:
81,258,311165,6,0,P|168:256|232:316,1,179,4|8,3:2|0:0,0:0:0:0:
329,265,311666,1,0,0:0:0:0:
329,265,311749,1,0,0:0:0:0:
329,264,311833,2,0,P|333:220|332:175,1,89.5,2|0,0:0|3:2,0:0:0:0:
144,36,312166,2,0,P|139:80|140:125,1,89.5,8|2,0:0|0:0,0:0:0:0:
145,142,312416,1,0,0:0:0:0:
153,157,312499,5,0,3:2:0:0:
40,91,312666,1,0,0:0:0:0:
237,88,312833,2,0,L|326:81,1,89.5,10|0,0:0|0:0,0:0:0:0:
358,76,313083,1,0,0:0:0:0:
324,105,313166,1,2,0:0:0:0:
307,146,313249,1,0,0:0:0:0:
310,190,313333,1,0,3:2:0:0:
394,260,313499,1,10,0:0:0:0:
210,178,313666,1,0,0:0:0:0:
407,161,313833,6,0,P|451:166|494:178,1,89.5,2|0,3:2|0:0,0:0:0:0:
310,190,314166,1,8,0:0:0:0:
251,72,314333,1,2,0:0:0:0:
251,72,314416,1,0,0:0:0:0:
251,72,314499,2,0,P|295:66|338:54,1,89.5,0|0,0:0|3:2,0:0:0:0:
141,221,314833,1,10,0:0:0:0:
89,40,314999,1,0,0:0:0:0:
229,170,315166,6,0,B|185:149|159:114|159:114|126:136|75:142,1,179,2|8,3:2|0:0,0:0:0:0:
141,221,315666,1,2,0:0:0:0:
143,238,315749,1,0,0:0:0:0:
145,255,315833,1,0,0:0:0:0:
294,345,315999,1,0,3:2:0:0:
104,351,316166,2,0,P|148:345|192:341,1,89.5,10|0,0:0|0:0,0:0:0:0:
406,294,316499,6,0,P|319:306|249:248,1,179,2|8,3:2|0:0,0:0:0:0:
284,166,316999,1,0,0:0:0:0:
284,166,317083,1,0,0:0:0:0:
284,165,317166,2,0,L|278:74,1,89.5,2|0,0:0|3:2,0:0:0:0:
353,17,317499,2,0,P|396:20|441:32,1,89.5,10|0,0:0|0:0,0:0:0:0:
186,120,317833,6,0,P|99:125|40:196,1,179,2|8,3:2|0:0,0:0:0:0:
77,277,318333,1,2,0:0:0:0:
120,271,318416,1,0,0:0:0:0:
163,282,318499,1,0,0:0:0:0:
198,310,318583,1,0,0:0:0:0:
217,350,318666,1,0,3:2:0:0:
118,366,318833,1,10,0:0:0:0:
252,234,318999,1,0,0:0:0:0:
336,294,319166,6,0,P|344:250|347:205,1,89.5,2|0,3:2|0:0,0:0:0:0:
155,74,319499,1,8,0:0:0:0:
253,50,319666,1,2,0:0:0:0:
253,67,319749,1,0,0:0:0:0:
253,85,319833,1,0,0:0:0:0:
323,167,319999,5,2,3:2:0:0:
155,74,320166,1,10,0:0:0:0:
358,61,320333,1,0,0:0:0:0:
185,309,320499,6,0,B|225:264|227:202|227:202|243:233|274:255,1,187.949994264221,2|0,3:2|3:2,0:0:0:0:
66,227,320833,2,0,P|97:226|127:219,1,62.6499980880738,10|0,0:0|0:0,0:0:0:0:
384,174,320999,2,0,P|352:173|322:166,1,62.6499980880738,2|0,3:2|0:0,0:0:0:0:
116,81,321166,5,10,0:0:0:0:
102,68,321249,1,2,3:2:0:0:
88,55,321333,2,0,L|96:151,1,62.6499980880738,2|0,3:2|0:0,0:0:0:0:
316,228,321499,6,0,L|322:166,1,62.6499980880738,10|0,0:0|0:0,0:0:0:0:
139,307,321666,2,0,L|144:369,1,62.6499980880738,2|0,3:2|0:0,0:0:0:0:
36,282,321833,6,0,P|96:215|182:216,1,179,4|8,3:2|0:0,0:0:0:0:
243,310,322333,1,0,0:0:0:0:
243,310,322416,1,0,0:0:0:0:
243,310,322499,2,0,L|342:320,1,89.5,2|0,0:0|3:2,0:0:0:0:
419,140,322833,2,0,P|429:203|425:248,1,89.5,8|2,0:0|0:0,0:0:0:0:
426,241,323083,1,0,0:0:0:0:
423,254,323166,5,0,3:2:0:0:
496,64,323333,1,0,0:0:0:0:
324,186,323499,2,0,L|231:179,1,89.5,10|0,0:0|0:0,0:0:0:0:
212,198,323749,1,0,0:0:0:0:
220,154,323833,1,2,0:0:0:0:
207,112,323916,1,0,0:0:0:0:
175,81,323999,1,0,3:2:0:0:
303,84,324166,1,10,0:0:0:0:
123,165,324333,1,0,0:0:0:0:
292,274,324499,6,0,P|293:318|298:363,1,89.5,2|0,3:2|0:0,0:0:0:0:
372,217,324833,1,8,0:0:0:0:
208,213,324999,1,2,0:0:0:0:
208,213,325083,1,0,0:0:0:0:
208,213,325166,2,0,P|212:168|214:123,1,89.5,0|0,0:0|3:2,0:0:0:0:
265,38,325499,1,10,0:0:0:0:
123,165,325666,1,0,0:0:0:0:
123,165,325749,1,0,0:0:0:0:
123,165,325833,6,0,L|301:159,1,179,2|10,3:2|0:0,0:0:0:0:
390,208,326333,1,2,0:0:0:0:
431,193,326416,1,0,0:0:0:0:
463,162,326499,1,0,0:0:0:0:
477,120,326582,1,0,0:0:0:0:
471,76,326666,1,2,3:2:0:0:
481,283,326833,5,10,0:0:0:0:
366,105,326999,1,0,3:2:0:0:
366,105,327083,1,0,3:2:0:0:
366,105,327166,6,0,L|321:101,3,44.75,4|0|0|0,3:2|0:0|0:0|0:0,0:0:0:0:
285,180,327499,2,0,L|240:176,3,44.75,0|0|0|0,3:2|0:0|0:0|0:0,0:0:0:0:
233,89,327833,2,0,L|188:85,3,44.75,0|0|0|0,3:2|0:0|0:0|0:0,0:0:0:0:
94,125,328166,6,0,B|98:94|98:94|84:57,3,62.6499980880738,2|0|0|0,3:2|0:0|0:0|0:0,0:0:0:0:
79,223,328499,6,0,L|127:217,3,49.2250015022278,4|0|0|0,3:2|0:0|0:0|0:0,0:0:0:0:
202,147,328833,2,0,L|250:141,3,49.2250015022278,0|0|0|0,3:2|0:0|0:0|0:0,0:0:0:0:
332,208,329166,2,0,L|380:202,3,49.2250015022278,0|0|0|0,3:2|0:0|0:0|0:0,0:0:0:0:
242,307,329499,6,0,P|238:273|239:240,1,67.1250025606156,2|0,3:2|0:0,0:0:0:0:
350,42,329666,2,0,P|353:75|352:108,1,67.1250025606156,2|0,3:2|0:0,0:0:0:0:
332,208,329833,1,4,3:2:0:0:
158,128,329999,5,0,3:2:0:0:
140,113,330083,1,0,3:2:0:0:
122,98,330166,2,0,L|132:187,1,67.1250025606156,8|0,0:0|0:0,0:0:0:0:
359,236,330333,5,0,3:2:0:0:
377,221,330415,1,0,3:2:0:0:
395,206,330499,2,0,L|386:292,1,67.1250025606156,4|0,3:2|3:2,0:0:0:0:
302,343,330666,5,8,0:0:0:0:
484,259,330833,1,0,3:2:0:0:
309,149,330999,1,0,3:2:0:0:
407,96,331166,1,2,0:0:0:0:
407,96,331999,5,0,3:2:0:0:
381,247,332166,1,8,0:1:0:0:
381,247,332499,6,0,P|306:227|209:224,1,143.2,4|8,3:2|0:0,0:0:0:0:
168,163,332999,2,0,P|161:127|159:92,1,71.6,2|0,0:0|0:0,0:0:0:0:
236,37,333333,1,0,3:2:0:0:
322,71,333499,2,0,P|328:106|330:141,1,71.6,10|0,0:0|0:0,0:0:0:0:
330,141,333749,1,0,0:0:0:0:
330,141,333833,5,0,3:2:0:0:
420,98,333999,2,0,L|505:88,1,71.6,2|8,0:0|0:0,0:0:0:0:
291,230,334333,1,0,0:0:0:0:
291,230,334499,2,0,L|376:240,1,71.6,2|0,0:0|3:2,0:0:0:0:
236,144,334833,1,8,0:0:0:0:
236,144,335166,6,0,P|174:141|96:202,1,143.2,2|8,3:2|0:0,0:0:0:0:
151,265,335666,2,0,P|143:299|140:335,1,71.6,2|0,0:0|0:0,0:0:0:0:
326,196,335999,2,0,P|333:161|336:125,1,71.6,2|8,3:2|0:0,0:0:0:0:
274,55,336333,1,2,0:0:0:0:
274,55,336416,1,0,0:0:0:0:
274,55,336499,5,0,3:2:0:0:
246,144,336666,2,0,L|159:150,2,71.6,2|8|0,0:0|0:0|0:0,0:0:0:0:
326,196,337166,1,2,0:0:0:0:
424,129,337333,1,0,3:2:0:0:
512,246,337499,1,10,0:0:0:0:
512,246,337833,6,0,P|466:248|375:294,1,143.2,2|8,3:2|0:0,0:0:0:0:
313,224,338333,2,0,P|316:188|318:152,1,71.6,2|0,0:0|0:0,0:0:0:0:
353,66,338666,1,0,3:2:0:0:
445,79,338833,2,0,P|441:114|439:150,1,71.6,10|0,0:0|0:0,0:0:0:0:
504,218,339166,5,2,3:2:0:0:
353,66,339333,1,0,0:0:0:0:
318,152,339499,2,0,P|282:157|246:159,1,71.6,10|0,0:0|0:0,0:0:0:0:
377,328,339833,2,0,P|341:322|305:320,1,71.6,2|0,0:0|3:2,0:0:0:0:
222,279,340166,1,8,0:0:0:0:
222,279,340499,6,0,P|151:286|99:333,1,143.2,2|8,3:2|0:0,0:0:0:0:
45,257,340999,1,2,0:0:0:0:
45,257,341166,2,0,P|35:222|30:187,1,71.6,0|0,0:0|3:2,0:0:0:0:
90,117,341499,2,0,P|126:113|161:107,1,71.6,10|0,0:0|0:0,0:0:0:0:
264,225,341833,6,0,L|156:217,1,107.4,2|0,3:2|3:2,0:0:0:0:
143,207,342166,2,0,L|152:277,1,71.6,10|0,0:0|3:2,0:0:0:0:
380,282,342499,5,8,0:0:0:0:
380,282,342583,1,0,3:2:0:0:
380,282,342666,1,0,3:2:0:0:
380,282,342749,1,0,0:0:0:0:
380,282,342833,5,10,0:0:0:0:
383,257,342916,1,2,0:0:0:0:
387,232,342999,1,2,3:2:0:0:
391,207,343083,1,2,0:0:0:0:
395,182,343166,6,0,P|339:138|265:137,1,143.2,4|8,3:2|0:0,0:0:0:0:
185,178,343666,2,0,P|178:142|173:107,1,71.6,2|0,0:0|0:0,0:0:0:0:
83,83,343999,1,0,3:2:0:0:
50,170,344166,2,0,P|56:205|61:240,1,71.6,10|0,0:0|0:0,0:0:0:0:
62,255,344416,1,0,0:0:0:0:
61,269,344499,6,0,P|96:276|131:279,1,71.6,2|0,3:2|0:0,0:0:0:0:
212,232,344833,2,0,L|354:218,1,143.2,10|0,0:0|0:0,0:0:0:0:
433,267,345333,1,2,3:2:0:0:
279,178,345499,1,8,0:0:0:0:
358,109,345666,1,0,0:0:0:0:
262,81,345833,6,0,L|185:75,1,71.6,2|0,3:2|0:0,0:0:0:0:
109,29,346166,1,8,0:0:0:0:
100,121,346333,1,2,0:0:0:0:
100,121,346416,1,0,0:0:0:0:
100,121,346499,2,0,P|105:156|108:192,1,71.6,0|0,0:0|3:2,0:0:0:0:
287,249,346833,2,0,P|281:213|278:177,1,71.6,10|0,0:0|0:0,0:0:0:0:
239,329,347166,5,2,3:2:0:0:
371,202,347333,1,0,0:0:0:0:
371,202,347416,1,0,0:0:0:0:
371,202,347499,1,10,0:0:0:0:
193,241,347666,1,0,0:0:0:0:
443,297,347833,5,2,0:0:0:0:
405,105,347999,1,0,3:2:0:0:
287,249,348166,1,10,0:0:0:0:
491,214,348333,1,0,3:2:0:0:
491,214,348416,1,0,3:2:0:0:
491,214,348499,5,4,3:2:0:0:
472,203,348583,1,0,0:0:0:0:
451,196,348666,1,0,0:0:0:0:
429,194,348748,1,0,0:0:0:0:
407,198,348832,1,0,3:2:0:0:
386,206,348916,1,0,0:0:0:0:
368,219,348998,1,0,0:0:0:0:
353,236,349082,1,0,0:0:0:0:
343,256,349166,5,0,3:2:0:0:
332,275,349249,1,0,0:0:0:0:
317,292,349333,1,0,0:0:0:0:
299,305,349416,1,0,0:0:0:0:
278,313,349499,1,0,3:2:0:0:
256,317,349583,1,0,0:0:0:0:
234,315,349666,1,0,0:0:0:0:
213,308,349749,1,0,0:0:0:0:
194,297,349833,5,4,3:2:0:0:
224,290,349916,1,0,0:0:0:0:
250,273,349999,1,0,0:0:0:0:
269,248,350083,1,0,0:0:0:0:
277,218,350166,1,0,3:2:0:0:
274,187,350249,1,0,0:0:0:0:
261,159,350333,1,0,0:0:0:0:
239,137,350416,1,0,0:0:0:0:
210,125,350499,1,0,3:2:0:0:
179,123,350583,1,0,0:0:0:0:
149,133,350666,1,0,0:0:0:0:
125,152,350749,1,0,0:0:0:0:
109,179,350833,6,0,L|191:187,1,62.6499980880738,2|0,3:2|0:0,0:0:0:0:
251,97,350999,2,0,L|333:89,1,62.6499980880738,2|0,3:2|0:0,0:0:0:0:
504,119,351166,1,4,3:2:0:0:
411,130,351333,5,0,3:2:0:0:
414,108,351416,1,0,3:2:0:0:
417,86,351499,1,8,0:0:0:0:
274,250,351666,1,0,3:2:0:0:
287,259,351749,1,0,3:2:0:0:
300,268,351833,2,0,L|293:195,1,62.6499980880738,4|0,3:2|0:0,0:0:0:0:
251,97,351999,1,8,0:0:0:0:
404,236,352166,5,0,3:2:0:0:
143,66,352333,2,0,P|149:101|153:136,1,71.6,0|0,3:2|3:2,0:0:0:0:
415,174,352666,2,0,P|407:204|404:235,1,62.6499980880738
174,227,352999,2,0,P|179:253|181:280,1,53.6999983612061
281,330,353333,1,0,3:2:0:0:
273,229,353499,6,0,B|228:176|281:123|343:156|335:275|279:331,1,268.500010242463,8|4,0:1|3:2,0:0:0:0:
256,192,353915,12,0,357165,0:0:0:0:
