osu file format v14

[General]
AudioFilename: TrySail - High Free Spirits.mp3
AudioLeadIn: 0
PreviewTime: 51151
Countdown: 0
SampleSet: Normal
StackLeniency: 0.3
Mode: 0
LetterboxInBreaks: 0
WidescreenStoryboard: 0

[Editor]
Bookmarks: 108981,175916,186239,211400
DistanceSpacing: 2
BeatDivisor: 4
GridSize: 4
TimelineZoom: 3

[Metadata]
Title:High Free Spirits
TitleUnicode:High Free Spirits
Artist:TrySail
ArtistUnicode:TrySail
Creator:Vert
Version:Haifuri
Source:ハイスクール・フリート
Tags:Crystal TT Mouse Lyric Garden High School Fleet はいふり Hai-Furi haifuri 麻倉もも 雨宮天 夏川椎菜 Asakura Momo Amamiya Sora Natsukawa Shiina opening Pata-Mon
BeatmapID:975385
BeatmapSetID:455011

[Difficulty]
HPDrainRate:6.5
CircleSize:4
OverallDifficulty:8.8
ApproachRate:9.4
SliderMultiplier:2.2
SliderTickRate:1

[Events]
//Background and Video events
0,0,"bg93529.jpg",0,0
//Break Periods
2,165786,175368
//Storyboard Layer 0 (Background)
//Storyboard Layer 1 (Fail)
//Storyboard Layer 2 (Pass)
//Storyboard Layer 3 (Foreground)
//Storyboard Sound Samples

[TimingPoints]
433,322.58064516129,4,2,66,30,1,0
5594,-200,4,1,66,60,0,0
7207,-100,4,1,66,60,0,0
7529,-133.333333333333,4,1,66,60,0,0
8174,-200,4,1,66,60,0,0
10594,-200,4,1,66,5,0,0
10755,-133.333333333333,4,2,66,50,0,0
20594,-200,4,2,66,50,0,0
21078,-100,4,1,66,60,0,0
30755,-133.333333333333,4,1,66,60,0,0
31400,-133.333333333333,4,2,66,40,0,0
40352,-133.333333333333,4,1,66,50,0,0
41723,-100,4,1,66,60,0,0
51078,-133.333333333333,4,1,66,60,0,0
51884,-90.9090909090909,4,1,66,80,0,1
81723,-181.818181818182,4,2,66,76,0,0
83013,-200,4,1,66,60,0,0
84626,-100,4,1,66,60,0,0
84949,-133.333333333333,4,1,66,60,0,0
85594,-200,4,1,66,60,0,0
89787,-100,4,1,66,60,0,0
90110,-133.333333333333,4,1,66,60,0,0
90755,-200,4,1,66,60,0,0
92828,322.58064516129,4,1,66,60,1,0
93311,322.58064516129,4,2,66,60,1,0
93311,-133.333333333333,4,2,66,60,0,0
103167,322.58064516129,4,2,66,60,1,0
103167,-200,4,2,66,60,0,0
103650,322.58064516129,4,2,66,60,1,0
103650,-200,4,2,66,60,0,0
105747,-100,4,1,66,60,0,0
113650,-133.333333333333,4,1,66,60,0,0
113974,-133.333333333333,4,2,66,60,0,0
123006,-133.333333333333,4,1,66,60,0,0
125263,-100,4,1,66,60,0,0
133166,-200,4,1,66,60,0,0
134456,-83.3333333333333,4,1,66,80,0,1
164295,-166.666666666667,4,2,66,60,0,0
165586,-166.666666666667,4,1,66,60,0,0
175908,-133.333333333333,4,1,66,60,0,0
193328,-100,4,1,66,60,0,0
195263,-133.333333333333,4,1,66,60,0,0
209457,-200,4,1,66,60,0,0
211232,-200,4,2,66,5,0,0
211392,-200,4,2,66,60,0,0
219134,-133.333333333333,4,2,66,60,0,0
222360,-100,4,1,66,60,0,0
231231,-200,4,1,66,60,0,0
231877,-200,4,1,66,5,0,0
232037,-133.333333333333,4,1,66,60,0,0
233811,-76.9230769230769,4,1,66,80,0,1
263649,-153.846153846154,4,2,66,60,0,0
264941,-200,4,1,66,60,0,0
266554,-100,4,1,66,60,0,0
266876,-133.333333333333,4,1,66,60,0,0
267521,-200,4,1,66,60,0,0
271715,-100,4,1,66,60,0,0
272037,-133.333333333333,4,1,66,60,0,0
272683,-200,4,1,66,60,0,0
273892,-200,4,2,66,5,0,0

[Colours]
Combo1 : 0,0,255
Combo2 : 255,0,128
Combo3 : 64,0,64

[HitObjects]
284,132,5594,5,8,0:0:0:0:
212,200,5755,2,0,L|104:208,1,82.5,8|0,0:0|2:0,0:0:0:0:
280,112,6078,5,8,0:0:0:0:
200,232,6239,2,0,L|104:240,1,82.5,8|0,0:0|2:0,0:0:0:0:
276,96,6562,5,8,0:0:0:0:
192,264,6723,2,0,L|96:272,1,82.5,8|0,0:0|2:0,0:0:0:0:
272,84,7045,5,8,0:0:0:0:
188,296,7207,2,0,P|136:320|56:236,1,165,8|0,0:0|2:0,0:0:0:0:
136,192,7529,6,0,L|136:240,1,41.2500015735627,0|0,0:0|2:0,0:0:0:0:
88,124,7691,1,8,0:0:0:0:
107,114,7771,1,0,0:0:0:0:
129,110,7852,1,0,0:0:0:0:
151,111,7932,1,0,0:0:0:0:
172,120,8013,2,0,P|200:124|236:116,1,41.2500015735627,0|0,0:0|0:0,0:0:0:0:
252,216,8174,5,8,0:0:0:0:
324,284,8336,2,0,L|432:292,1,82.5,8|0,0:0|2:0,0:0:0:0:
256,196,8658,5,8,0:0:0:0:
336,316,8820,2,0,L|432:324,1,82.5,8|0,0:0|2:0,0:0:0:0:
260,180,9142,5,8,0:0:0:0:
344,347,9303,2,0,L|440:355,1,82.5,8|0,0:0|2:0,0:0:0:0:
364,268,9626,6,0,P|292:280|272:384,1,192.5,2|0,2:0|2:0,0:0:0:0:
256,368,10271,1,0,2:0:0:0:
240,352,10352,2,0,L|104:360,1,110,0|0,2:0|2:0,0:0:0:0:
84,200,10755,5,8,1:1:0:0:
12,344,10916,1,8,1:1:0:0:
245,269,11078,6,0,L|239:366,1,82.5000031471254,2|0,0:0|0:0,0:0:0:0:
152,148,11400,1,0,0:0:0:0:
220,100,11562,2,0,P|236:144|212:204,1,82.5000031471254,2|0,0:0|0:0,0:0:0:0:
164,232,11884,1,0,0:0:0:0:
320,192,12045,6,0,P|411:202|435:274,1,165.000006294251,2|0,0:0|0:0,0:0:0:0:
332,340,12529,2,0,P|335:303|364:258,1,82.5000031471254,2|0,0:0|0:0,0:0:0:0:
444,88,12852,2,0,P|452:124|434:179,1,82.5000031471254,0|2,0:0|0:0,0:0:0:0:
320,192,13174,1,0,0:0:0:0:
380,32,13336,5,8,1:1:0:0:
424,324,13497,1,8,1:1:0:0:
260,288,13658,6,0,L|156:296,1,82.5000031471254,2|0,0:0|0:0,0:0:0:0:
56,128,13981,1,0,0:0:0:0:
232,164,14142,2,0,L|221:271,1,82.5000031471254,2|0,0:0|0:0,0:0:0:0:
24,292,14465,1,0,0:0:0:0:
112,76,14626,6,0,P|136:136|40:204,1,165.000006294251,2|0,0:0|0:0,0:0:0:0:
48,32,15110,2,0,P|84:4|152:8,1,82.5000031471254,2|0,0:0|0:0,0:0:0:0:
240,196,15432,2,0,P|200:200|148:152,1,82.5000031471254,0|2,0:0|0:0,0:0:0:0:
56,128,15755,1,0,0:0:0:0:
200,20,15916,5,8,1:0:0:0:
48,304,16078,1,8,1:0:0:0:
212,352,16239,6,0,P|235:316|228:264,1,82.5000031471254,2|0,0:0|0:0,0:0:0:0:
56,128,16562,2,0,P|60:166|88:200,1,82.5000031471254,0|2,0:0|0:0,0:0:0:0:
160,296,16884,2,0,P|124:282|72:292,1,82.5000031471254,0|0,0:0|0:0,0:0:0:0:
288,372,17207,6,0,P|337:373|386:335,1,82.5000031471254,2|0,0:0|0:0,0:0:0:0:
424,284,17529,1,0,0:0:0:0:
311,175,17691,2,0,L|228:180,2,82.5000031471254,2|0|0,0:0|0:0|0:0,0:0:0:0:
375,111,18174,1,2,0:0:0:0:
351,23,18336,1,0,0:0:0:0:
159,127,18497,5,8,1:0:0:0:
399,195,18658,1,8,1:0:0:0:
331,259,18820,2,0,P|312:312|356:376,1,123.750004720688,0|0,0:0|0:0,0:0:0:0:
152,152,19142,5,8,1:0:0:0:
392,164,19303,1,8,1:0:0:0:
331,259,19465,2,0,L|343:383,1,123.750004720688,0|0,0:0|0:0,0:0:0:0:
144,176,19787,5,8,1:0:0:0:
388,136,19949,1,8,1:0:0:0:
192,76,20271,5,8,1:0:0:0:
331,259,20594,6,0,P|363:318|343:383,1,137.5
284,328,21078,1,2,0:2:0:0:
256,352,21400,6,0,L|104:360,1,110,10|0,0:0|0:0,0:0:0:0:
264,192,21723,1,2,0:0:0:0:
344,152,21884,2,0,P|388:180|460:164,1,110,0|8,0:0|0:0,0:0:0:0:
272,88,22207,1,0,0:0:0:0:
192,136,22368,6,0,P|172:196|208:268,1,110,2|0,0:0|0:0,0:0:0:0:
264,280,22691,1,8,0:0:0:0:
140,184,22852,6,0,B|8:192|8:192|48:168,1,165,2|0,0:0|2:0,0:0:0:0:
99,135,23174,2,0,P|58:100|5:105,1,110,0|8,0:0|0:0,0:0:0:0:
20,272,23497,1,0,0:0:0:0:
104,336,23658,6,0,B|212:288|212:368|320:328,1,220,2|10,0:2|0:0,0:0:0:0:
276,144,24142,1,0,0:0:0:0:
276,144,24223,1,0,0:0:0:0:
276,144,24303,2,0,L|264:264,1,110,2|0,0:0|0:0,0:0:0:0:
392,364,24626,2,0,P|401:320|367:262,1,110,8|0,0:0|0:0,0:0:0:0:
180,184,24949,5,2,0:0:0:0:
368,108,25110,1,0,0:0:0:0:
317,328,25271,1,8,0:0:0:0:
128,248,25432,2,0,B|140:44,1,165,2|0,0:0|2:0,0:0:0:0:
76,32,25755,2,0,P|56:88|88:144,1,110,0|8,0:0|0:0,0:0:0:0:
200,32,26078,1,0,0:0:0:0:
332,80,26239,6,0,B|509:66|509:66|456:44,1,220,2|10,0:2|0:0,0:0:0:0:
284,8,26723,1,0,0:0:0:0:
388,152,26884,2,0,L|372:300,1,110,2|0,0:0|0:0,0:0:0:0:
173,337,27207,2,0,P|133:301|133:233,1,110,8|0,0:0|0:0,0:0:0:0:
252,92,27529,5,2,0:0:0:0:
432,212,27691,1,2,0:0:0:0:
204,264,27852,1,8,0:0:0:0:
392,112,28013,2,0,L|364:356,1,220,2|2,0:0|0:0,0:0:0:0:
164,348,28497,1,12,0:2:0:0:
240,172,28658,1,0,0:0:0:0:
268,340,28820,5,10,0:0:0:0:
112,240,28981,1,0,0:0:0:0:
276,160,29142,1,0,0:0:0:0:
244,352,29303,5,10,0:0:0:0:
119,215,29465,1,0,0:0:0:0:
298,180,29626,1,0,0:0:0:0:
216,368,29787,5,10,0:0:0:0:
200,160,29949,1,0,0:0:0:0:
304,296,30110,1,2,0:0:0:0:
112,340,30271,1,8,0:0:0:0:
112,340,30352,1,0,0:0:0:0:
112,340,30432,2,0,L|0:332,1,110,8|8,0:0|0:0,0:0:0:0:
180,280,30755,5,2,0:0:0:0:
132,196,30916,1,0,0:0:0:0:
272,264,31078,2,0,L|368:256,1,82.5000031471254,0|0,0:0|2:0,0:0:0:0:
452,116,31400,6,0,B|376:102|376:190|296:170,1,165.000006294251,4|2,0:0|0:0,0:0:0:0:
312,92,31884,1,0,0:0:0:0:
444,196,32045,2,0,L|436:288,1,82.5000031471254,2|2,0:0|0:0,0:0:0:0:
372,356,32368,1,0,0:0:0:0:
200,348,32529,1,2,1:0:0:0:
272,300,32691,6,0,P|286:339|284:380,1,82.5000031471254,0|2,0:0|1:0,0:0:0:0:
128,188,33013,2,0,P|125:153|157:101,1,82.5000031471254,2|2,0:1|0:1,0:0:0:0:
200,248,33336,1,2,0:1:0:0:
116,276,33497,1,2,0:1:0:0:
216,168,33658,2,0,L|312:176,1,82.5000031471254,2|0,0:1|1:0,0:0:0:0:
328,200,33900,1,0,1:0:0:0:
364,232,33981,6,0,L|185:249,1,165.000006294251,0|2,1:0|0:0,0:0:0:0:
376,136,34465,1,0,0:0:0:0:
452,200,34626,2,0,P|456:248|443:286,1,82.5000031471254,2|0,0:0|0:0,0:0:0:0:
199,247,34949,1,0,0:0:0:0:
288,192,35110,1,2,1:0:0:0:
240,344,35271,6,0,B|156:368|144:296|48:352,1,165.000006294251,0|2,0:0|0:1,0:0:0:0:
0,232,35755,1,2,0:1:0:0:
132,120,35916,2,0,L|116:24,1,82.5000031471254,2|2,0:1|0:1,0:0:0:0:
80,208,36239,1,0,1:0:0:0:
97,219,36320,1,0,1:0:0:0:
117,224,36400,1,0,1:0:0:0:
138,224,36481,1,0,1:0:0:0:
157,218,36562,6,0,B|188:216|208:200|208:200|260:224|332:208,1,165.000006294251,0|0,1:0|0:0,0:0:0:0:
208,112,37045,1,2,0:0:0:0:
396,181,37207,2,0,P|402:221|388:260,1,82.5000031471254,2|0,0:0|0:0,0:0:0:0:
232,364,37529,1,2,0:0:0:0:
316,92,37691,1,2,1:0:0:0:
208,112,37852,6,0,L|96:104,1,82.5000031471254,2|0,0:2|0:0,0:0:0:0:
244,24,38174,1,0,0:0:0:0:
280,180,38336,1,2,0:0:0:0:
432,80,38497,2,0,B|412:120|412:120|436:264,1,165.000006294251,2|2,0:2|0:0,0:0:0:0:
320,364,38981,1,0,1:0:0:0:
320,364,39062,1,0,1:0:0:0:
320,364,39142,6,0,B|340:324|340:324|316:180,1,165.000006294251,0|0,1:0|0:0,0:0:0:0:
160,120,39626,1,0,1:0:0:0:
248,308,39787,1,2,0:0:0:0:
308,120,39949,1,2,0:0:0:0:
116,200,40110,2,0,L|12:208,1,82.5000031471254,0|2,1:0|0:0,0:0:0:0:
108,40,40432,5,10,1:0:0:0:
308,120,40594,1,0,0:0:0:0:
164,276,40755,1,0,0:0:0:0:
84,48,40916,5,10,1:0:0:0:
332,124,41078,1,0,0:0:0:0:
136,292,41239,1,0,0:0:0:0:
236,40,41400,2,0,L|228:200,1,123.750004720688,8|0,0:0|2:0,0:0:0:0:
228,204,41723,5,2,0:0:0:0:
76,152,41884,1,0,0:0:0:0:
148,348,42045,1,10,0:0:0:0:
316,256,42207,1,0,0:0:0:0:
64,264,42368,5,10,0:0:0:0:
260,360,42529,1,0,0:0:0:0:
228,204,42691,2,0,L|236:36,1,165,10|0,0:0|2:0,0:0:0:0:
364,108,43013,2,0,L|254:115,1,110,10|0,0:0|0:0,0:0:0:0:
132,40,43336,1,10,0:0:0:0:
332,0,43497,1,0,0:0:0:0:
316,200,43658,5,10,0:0:0:0:
364,288,43820,1,0,0:0:0:0:
364,288,43900,1,8,0:1:0:0:
364,288,43981,2,0,B|276:324|276:264|196:276,1,165,10|0,0:0|2:0,0:0:0:0:
156,284,44303,5,10,0:0:0:0:
316,200,44465,1,0,0:0:0:0:
220,360,44626,1,10,0:0:0:0:
100,152,44787,1,0,0:0:0:0:
360,112,44949,5,10,0:0:0:0:
72,64,45110,1,0,0:0:0:0:
404,32,45271,2,0,L|396:204,1,165,10|0,0:0|2:0,0:0:0:0:
384,336,45594,2,0,L|376:200,1,110,10|0,0:0|0:0,0:0:0:0:
316,36,45916,1,10,0:0:0:0:
472,252,46078,1,0,0:0:0:0:
180,320,46239,5,10,0:0:0:0:
480,344,46400,1,0,0:0:0:0:
312,120,46562,1,8,0:0:0:0:
312,120,46642,1,0,0:0:0:0:
312,120,46723,2,0,L|308:200,1,55,0|0,0:0|0:0,0:0:0:0:
304,272,46884,5,8,0:0:0:0:
164,72,47045,1,2,0:0:0:0:
444,116,47207,1,2,0:0:0:0:
212,224,47368,5,8,0:0:0:0:
316,36,47529,1,2,0:0:0:0:
404,256,47691,1,2,0:0:0:0:
104,280,47852,5,10,0:0:0:0:
468,356,48013,1,2,0:0:0:0:
316,36,48174,1,8,0:0:0:0:
272,368,48336,1,2,0:0:0:0:
272,368,48416,1,0,0:0:0:0:
272,368,48497,1,2,0:0:0:0:
272,368,48578,1,0,0:0:0:0:
272,368,48658,2,0,L|264:280,1,55,8|0,0:0|0:0,0:0:0:0:
232,140,48820,5,2,0:0:0:0:
232,140,48900,1,0,0:0:0:0:
232,140,48981,1,0,0:0:0:0:
232,140,49062,1,0,0:0:0:0:
232,140,49142,2,0,L|216:272,1,110,10|0,0:0|2:0,0:0:0:0:
188,324,49384,1,0,0:0:0:0:
188,324,49465,5,10,0:0:0:0:
456,176,49626,1,10,0:0:0:0:
460,272,49949,5,10,0:0:0:0:
64,116,50110,1,10,0:0:0:0:
40,208,50432,5,10,0:0:0:0:
412,0,50594,1,10,0:0:0:0:
336,312,51078,6,0,L|344:260,5,27.5000010490418,0|0|0|0|0|0,2:0|2:0|2:0|2:0|2:0|0:0,0:0:0:0:
332,336,51400,5,8,0:0:0:0:
180,288,51562,1,8,0:0:0:0:
180,288,51884,6,0,L|456:264,1,242.000007385254,4|2,0:2|0:2,0:0:0:0:
232,132,52368,2,0,L|104:120,1,121.000003692627,10|2,0:0|0:2,0:0:0:0:
16,372,52691,1,0,0:0:0:0:
180,288,52852,1,2,0:2:0:0:
111,120,53013,1,8,0:0:0:0:
144,364,53174,6,0,P|196:372|256:320,1,121.000003692627,2|0,0:0|0:0,0:0:0:0:
332,112,53497,2,0,L|352:384,1,242.000007385254,2|2,0:0|0:2,0:0:0:0:
180,288,53981,1,2,0:0:0:0:
388,176,54142,1,2,0:2:0:0:
128,136,54303,1,10,0:0:0:0:
288,0,54465,1,6,0:2:0:0:
288,0,54545,1,0,0:0:0:0:
288,0,54626,6,0,B|270:199,1,181.500005538941,0|0,0:0|2:0,0:0:0:0:
204,240,54949,2,0,P|264:272|336:248,1,121.000003692627,10|2,0:0|0:2,0:0:0:0:
416,64,55271,1,2,0:0:0:0:
232,100,55432,1,2,0:2:0:0:
313,263,55594,1,8,0:0:0:0:
132,312,55755,1,2,0:0:0:0:
132,312,55836,1,0,0:0:0:0:
132,312,55916,6,0,L|392:324,1,242.000007385254,0|14,0:0|0:2,0:0:0:0:
271,180,56400,1,2,0:2:0:0:
208,368,56562,1,10,0:0:0:0:
200,132,56723,2,0,P|264:96|336:128,1,121.000003692627,14|8,0:2|0:0,0:0:0:0:
136,268,57045,6,0,L|157:-8,1,242.000007385254,6|2,0:2|0:2,0:0:0:0:
271,180,57529,1,8,0:0:0:0:
392,72,57691,6,0,L|512:80,1,121.000003692627,2|0,0:2|0:0,0:0:0:0:
400,244,58013,1,2,0:2:0:0:
292,60,58174,1,8,0:0:0:0:
248,292,58336,1,2,0:0:0:0:
248,292,58416,1,0,0:0:0:0:
248,292,58497,6,0,P|204:324|120:304,1,121.000003692627,0|2,0:0|0:2,0:0:0:0:
32,64,58820,1,10,0:2:0:0:
220,156,58981,2,0,L|352:164,1,121.000003692627,2|2,0:2|0:0,0:0:0:0:
180,236,59303,5,2,0:2:0:0:
127,45,59465,1,8,0:0:0:0:
56,296,59626,1,2,0:2:0:0:
288,76,59787,6,0,L|264:329,1,242.000007385254,2|8,0:1|0:0,0:0:0:0:
88,200,60271,1,2,0:2:0:0:
192,40,60432,2,0,L|452:48,1,242.000007385254,10|8,0:0|0:0,0:0:0:0:
364,276,60916,1,2,0:1:0:0:
288,76,61078,5,0,0:0:0:0:
100,176,61239,1,2,0:0:0:0:
100,176,61320,1,0,0:0:0:0:
100,176,61400,2,0,P|114:218|114:270,1,60.5000018463135,10|0,0:0|2:0,0:0:0:0:
256,368,61562,2,0,P|261:338|272:310,1,60.5000018463135,10|0,0:0|2:0,0:0:0:0:
448,328,61723,5,10,0:2:0:0:
124,311,61884,1,10,0:2:0:0:
124,311,62207,6,0,L|363:276,1,242.000007385254,4|2,0:2|0:2,0:0:0:0:
488,132,62691,2,0,L|360:120,1,121.000003692627,10|2,0:0|0:2,0:0:0:0:
208,16,63013,1,2,0:0:0:0:
232,216,63174,1,2,0:2:0:0:
416,96,63336,1,8,0:0:0:0:
391,320,63497,6,0,L|270:308,1,121.000003692627,2|0,0:0|0:0,0:0:0:0:
68,116,63820,2,0,L|88:388,1,242.000007385254,2|2,0:0|0:2,0:0:0:0:
232,216,64303,1,0,0:0:0:0:
104,12,64465,1,2,0:1:0:0:
24,220,64626,1,8,0:0:0:0:
270,308,64787,1,2,0:1:0:0:
270,308,64868,1,0,0:0:0:0:
270,308,64949,6,0,B|288:109,1,181.500005538941,2|0,0:0|2:0,0:0:0:0:
256,48,65271,2,0,L|260:208,1,121.000003692627,8|2,0:0|0:2,0:0:0:0:
424,96,65594,1,0,0:0:0:0:
200,108,65755,1,2,0:2:0:0:
270,308,65916,1,10,0:0:0:0:
56,357,66078,1,0,0:0:0:0:
56,357,66158,1,0,0:0:0:0:
56,357,66239,6,0,L|68:97,1,242.000007385254,2|10,0:0|0:0,0:0:0:0:
192,276,66723,1,2,0:2:0:0:
348,132,66884,2,0,P|408:160|424:232,1,121.000003692627,2|2,0:0|0:2,0:0:0:0:
328,368,67207,1,10,0:0:0:0:
104,228,67368,6,0,L|345:213,1,242.000007385254,6|2,0:1|0:2,0:0:0:0:
444,348,67852,1,8,0:0:0:0:
212,384,68013,1,2,0:2:0:0:
280,168,68174,6,0,L|119:179,1,121.000003692627,8|2,0:0|0:2,0:0:0:0:
92,12,68497,1,10,0:0:0:0:
326,104,68658,1,2,0:0:0:0:
326,104,68739,1,0,0:0:0:0:
326,104,68820,2,0,P|356:154|345:212,1,121.000003692627,8|2,0:0|0:2,0:0:0:0:
112,340,69142,5,8,0:0:0:0:
396,280,69303,1,2,0:2:0:0:
52,236,69465,1,8,0:0:0:0:
428,272,69626,1,2,0:2:0:0:
104,132,69787,1,8,0:0:0:0:
464,268,69949,1,8,0:1:0:0:
288,0,70110,6,0,L|276:292,1,242.000007385254,8|2,0:0|0:2,0:0:0:0:
48,104,70594,1,8,0:2:0:0:
236,56,70755,6,0,L|228:232,1,121.000003692627,2|2,0:2|0:2,0:0:0:0:
352,348,71078,1,8,0:0:0:0:
324,124,71239,1,2,0:1:0:0:
219,262,71400,5,0,2:2:0:0:
171,297,71481,1,0,1:0:0:0:
112,294,71562,1,10,0:2:0:0:
66,256,71642,1,0,0:0:0:0:
54,198,71723,1,2,0:1:0:0:
80,145,71803,1,0,0:0:0:0:
134,119,71884,1,10,0:1:0:0:
192,131,71965,1,0,0:0:0:0:
230,176,72045,6,0,L|290:170,1,60.5000018463135,0|0,0:0|0:0,0:0:0:0:
146,210,72207,2,0,L|70:220,1,60.5000018463135,8|8,0:0|0:0,0:0:0:0:
219,262,72368,1,8,0:0:0:0:
219,262,72449,1,0,0:0:0:0:
219,262,72529,6,0,L|512:272,1,242.000007385254,4|2,0:2|0:2,0:0:0:0:
304,49,73013,2,0,L|284:213,1,121.000003692627,10|2,0:0|0:2,0:0:0:0:
264,368,73336,1,2,0:0:0:0:
146,210,73497,1,2,0:2:0:0:
352,268,73658,1,0,0:0:0:0:
108,296,73820,6,0,L|100:136,1,121.000003692627,0|0,0:0|0:0,0:0:0:0:
304,49,74142,2,0,L|318:327,1,242.000007385254,0|2,0:0|0:2,0:0:0:0:
432,152,74626,1,2,0:0:0:0:
196,68,74787,1,2,0:2:0:0:
316,290,74949,1,8,0:0:0:0:
96,356,75110,1,10,0:2:0:0:
100,120,75271,6,0,B|320:112,1,181.500005538941,2|0,0:0|2:0,0:0:0:0:
340,60,75594,2,0,B|328:96|328:96|344:188,1,121.000003692627,10|2,0:0|0:2,0:0:0:0:
440,332,75916,1,2,0:0:0:0:
416,104,76078,1,2,0:2:0:0:
200,244,76239,1,10,0:0:0:0:
452,216,76400,1,10,0:2:0:0:
292,348,76562,6,0,L|32:336,1,242.000007385254,6|10,0:1|0:0,0:0:0:0:
212,128,77045,1,2,0:0:0:0:
292,348,77207,1,0,0:0:0:0:
116,180,77368,1,2,0:0:0:0:
308,76,77529,1,10,0:0:0:0:
208,268,77691,1,0,0:0:0:0:
28,96,77852,5,8,0:0:0:0:
148,364,78013,1,8,0:0:0:0:
40,344,78336,5,8,0:0:0:0:
308,76,78497,1,8,0:0:0:0:
204,56,78820,5,8,0:0:0:0:
456,336,78981,1,8,0:0:0:0:
216,376,79303,6,0,P|196:320|228:256,1,121.000003692627,4|0,0:2|0:0,0:0:0:0:
128,120,79626,1,2,0:2:0:0:
275,321,79787,2,0,L|473:337,2,181.500005538941,8|2|2,0:0|0:2|0:2,0:0:0:0:
428,204,80432,5,0,0:0:0:0:
392,40,80594,2,0,L|368:328,1,242.000007385254,8|0,0:0|0:0,0:0:0:0:
236,112,81078,1,0,0:0:0:0:
68,212,81239,2,0,L|-8:220,1,60.5000018463135,0|0,0:0|0:0,0:0:0:0:
80,120,81400,2,0,L|12:124,1,60.5000018463135,0|0,0:0|0:0,0:0:0:0:
92,28,81562,2,0,L|24:32,1,60.5000018463135,0|0,0:0|0:0,0:0:0:0:
60,308,81723,6,0,L|-20:316,2,60.5000018463135,0|0|0,0:0|0:0|0:0,0:0:0:0:
144,368,82207,2,0,L|288:356,2,121.000003692627,0|0|0,0:0|0:0|0:0,0:0:0:0:
196,220,83013,5,8,0:0:0:0:
270,65,83174,2,0,L|264:148,1,82.5,8|0,0:0|2:0,0:0:0:0:
176,216,83497,5,8,0:0:0:0:
302,53,83658,2,0,L|296:136,1,82.5,8|0,0:0|2:0,0:0:0:0:
160,212,83981,5,8,0:0:0:0:
334,45,84142,2,0,L|328:128,1,82.5,8|0,0:0|2:0,0:0:0:0:
148,208,84465,5,8,0:0:0:0:
367,41,84626,2,0,L|352:248,1,165,8|0,0:0|2:0,0:0:0:0:
284,324,84949,2,0,L|276:272,1,41.2500015735627,0|0,0:0|2:0,0:0:0:0:
211,195,85110,1,0,0:0:0:0:
192,205,85191,1,0,0:0:0:0:
170,209,85271,1,0,0:0:0:0:
148,208,85352,1,0,0:0:0:0:
127,199,85432,2,0,P|99:195|63:203,1,41.2500015735627,0|0,0:0|0:0,0:0:0:0:
164,116,85594,5,8,0:0:0:0:
376,344,85755,2,0,L|369:261,1,82.5,8|0,0:0|2:0,0:0:0:0:
184,120,86078,5,8,0:0:0:0:
336,328,86239,2,0,L|329:245,1,82.5,8|0,0:0|2:0,0:0:0:0:
208,124,86562,5,4,0:2:0:0:
292,312,86723,2,0,L|285:229,1,82.5,0|0,0:2|2:0,0:0:0:0:
336,104,87045,5,8,0:0:0:0:
164,244,87207,1,8,0:0:0:0:
176,272,87529,5,8,0:1:0:0:
344,312,87691,1,0,0:0:0:0:
124,372,87852,1,0,0:0:0:0:
364,308,88013,1,0,0:0:0:0:
68,208,88174,5,8,0:0:0:0:
140,140,88336,2,0,L|248:132,1,82.5,8|0,0:0|2:0,0:0:0:0:
72,228,88658,5,8,0:0:0:0:
152,108,88820,2,0,L|248:100,1,82.5,8|0,0:0|2:0,0:0:0:0:
76,244,89142,5,8,0:0:0:0:
160,76,89303,2,0,L|256:68,1,82.5,8|0,0:0|2:0,0:0:0:0:
80,256,89626,5,8,0:0:0:0:
164,44,89787,2,0,P|216:20|296:104,1,165,8|0,0:0|2:0,0:0:0:0:
280,160,90110,2,0,L|336:164,1,41.2500015735627,0|0,0:0|2:0,0:0:0:0:
220,100,90271,1,8,0:0:0:0:
207,116,90352,1,0,0:0:0:0:
198,134,90432,1,0,0:0:0:0:
194,154,90513,1,0,0:0:0:0:
195,175,90594,2,0,P|199:203|191:239,1,41.2500015735627,0|0,0:0|1:0,0:0:0:0:
100,320,90755,5,8,0:0:0:0:
249,320,90916,2,0,L|357:312,1,82.5,8|0,0:0|2:0,0:0:0:0:
104,340,91239,5,8,0:0:0:0:
261,288,91400,2,0,L|357:280,1,82.5,8|0,0:0|2:0,0:0:0:0:
108,356,91723,5,8,0:0:0:0:
269,256,91884,2,0,L|365:248,1,82.5,8|0,0:0|2:0,0:0:0:0:
289,332,92207,2,0,P|217:320|197:216,1,192.5,0|0,1:0|2:0,0:0:0:0:
216,184,92828,5,8,0:0:0:0:
280,32,92989,1,0,0:0:0:0:
388,160,93150,1,0,0:0:0:0:
352,248,93311,5,8,1:1:0:0:
269,256,93472,1,8,1:1:0:0:
216,184,93633,6,0,L|120:192,1,82.5000031471254,2|0,1:2|0:0,0:0:0:0:
56,328,93956,1,0,0:0:0:0:
132,280,94117,2,0,P|148:324|124:384,1,82.5000031471254,2|0,0:0|1:0,0:0:0:0:
52,240,94440,1,0,0:0:0:0:
168,124,94601,6,0,P|158:33|86:9,1,165.000006294251,2|0,0:0|1:0,0:0:0:0:
20,112,95085,2,0,P|57:109|102:80,1,82.5000031471254,2|0,0:0|0:0,0:0:0:0:
248,28,95407,2,0,P|284:20|339:38,1,82.5000031471254,0|2,0:0|1:2,0:0:0:0:
420,172,95730,1,8,1:1:0:0:
284,116,95891,5,0,0:0:0:0:
232,336,96052,1,8,1:1:0:0:
184,200,96214,6,0,L|188:100,1,82.5000031471254,2|0,1:2|0:0,0:0:0:0:
324,36,96536,1,0,0:0:0:0:
420,172,96698,2,0,L|532:176,1,82.5000031471254,2|0,0:0|1:0,0:0:0:0:
352,248,97020,1,0,0:0:0:0:
380,96,97181,6,0,P|320:120|244:28,1,165.000006294251,2|0,0:0|1:0,0:0:0:0:
432,28,97665,2,0,P|460:64|456:132,1,82.5000031471254,2|0,0:0|0:0,0:0:0:0:
272,272,97988,2,0,P|268:232|312:176,1,82.5000031471254,0|2,0:0|1:2,0:0:0:0:
420,172,98311,1,0,0:0:0:0:
324,36,98472,5,8,1:0:0:0:
316,356,98633,1,8,1:0:0:0:
433,258,98794,6,0,L|319:243,1,82.5000031471254,2|0,1:2|0:0,0:0:0:0:
240,116,99117,2,0,P|188:120|148:152,1,82.5000031471254,0|2,0:0|0:0,0:0:0:0:
20,264,99440,2,0,P|48:288|108:288,1,82.5000031471254,0|0,1:0|0:0,0:0:0:0:
272,272,99762,6,0,L|268:380,1,82.5000031471254,2|0,0:0|0:0,0:0:0:0:
84,212,100085,1,0,1:0:0:0:
240,116,100246,2,0,L|244:4,2,82.5000031471254,2|0|0,0:0|0:0|0:0,0:0:0:0:
316,168,100730,1,2,1:2:0:0:
412,140,100891,1,0,0:0:0:0:
308,356,101052,5,8,1:0:0:0:
240,116,101214,1,8,1:0:0:0:
176,184,101375,2,0,B|112:192|112:192|44:168,1,123.750004720688,0|0,1:0|0:0,0:0:0:0:
283,363,101698,5,8,1:0:0:0:
271,123,101859,1,8,1:0:0:0:
176,184,102020,2,0,L|52:172,1,123.750004720688,0|0,1:0|0:0,0:0:0:0:
259,371,102343,5,8,1:0:0:0:
299,127,102504,1,8,1:0:0:0:
359,323,102827,5,8,1:0:0:0:
176,184,103167,2,0,B|120:148|120:148|44:176,1,137.5
112,244,103650,1,2,0:2:0:0:
136,272,104134,5,0,0:0:0:0:
80,344,104296,1,2,0:0:0:0:
224,300,104457,2,0,L|320:292,1,82.5,0|0,0:0|0:0,0:0:0:0:
392,240,104779,1,0,0:0:0:0:
272,192,104941,6,0,L|268:268,1,55,2|0,0:0|0:0,0:0:0:0:
260,376,105263,1,0,0:0:0:0:
144,340,105425,2,0,P|132:296|152:252,1,82.5,2|0,0:0|0:0,0:0:0:0:
176,228,105747,2,0,L|66:231,1,110,0|8,0:0|0:0,0:0:0:0:
4,348,106070,1,0,0:0:0:0:
4,140,106231,6,0,B|112:92|112:172|220:132,1,220,2|10,0:2|0:0,0:0:0:0:
376,24,106715,1,0,0:0:0:0:
376,24,106796,1,0,0:0:0:0:
376,24,106876,2,0,L|256:12,1,110,2|0,0:0|0:0,0:0:0:0:
68,212,107199,2,0,P|68:264|104:320,1,110,8|0,0:0|0:0,0:0:0:0:
324,176,107521,5,2,0:0:0:0:
168,48,107683,1,0,0:0:0:0:
156,240,107844,1,8,0:0:0:0:
368,108,108005,2,0,B|358:272,1,165,2|0,0:0|2:0,0:0:0:0:
389,349,108328,2,0,L|373:217,1,110,0|8,0:0|0:0,0:0:0:0:
272,80,108650,1,0,0:0:0:0:
80,216,108812,6,0,P|108:308|228:272,1,220,2|10,0:2|0:0,0:0:0:0:
112,72,109296,1,0,0:0:0:0:
320,156,109457,2,0,L|448:148,1,110,2|0,0:0|0:0,0:0:0:0:
248,208,109779,2,0,P|232:148|276:76,1,110,8|0,0:0|0:0,0:0:0:0:
424,20,110102,5,2,0:0:0:0:
388,248,110263,1,2,0:0:0:0:
247,104,110425,1,8,0:0:0:0:
213,295,110586,2,0,L|433:275,1,220,2|2,0:0|0:0,0:0:0:0:
332,144,111070,1,8,0:0:0:0:
287,330,111231,1,0,0:0:0:0:
230,169,111392,5,10,0:0:0:0:
401,241,111554,1,0,0:0:0:0:
254,348,111715,1,0,0:0:0:0:
252,153,111876,5,10,0:0:0:0:
399,267,112037,1,0,0:0:0:0:
229,332,112199,1,0,0:0:0:0:
277,133,112360,5,10,0:0:0:0:
329,335,112521,1,0,0:0:0:0:
203,219,112683,1,2,0:0:0:0:
384,142,112844,1,8,0:0:0:0:
384,142,112925,1,0,0:0:0:0:
384,142,113005,2,0,L|495:130,1,110,8|8,0:0|0:0,0:0:0:0:
304,88,113328,5,2,0:0:0:0:
260,176,113489,1,0,0:0:0:0:
308,256,113650,2,0,P|312:320|292:368,1,82.5000031471254,0|0,0:0|2:0,0:0:0:0:
64,308,113973,6,0,B|184:284|184:284|228:298,1,165.000006294251,4|2,0:0|0:0,0:0:0:0:
176,376,114457,1,0,0:0:0:0:
120,246,114618,2,0,L|112:164,1,82.5000031471254,2|2,0:0|0:0,0:0:0:0:
56,84,114941,1,0,0:0:0:0:
220,200,115102,1,2,1:0:0:0:
284,124,115263,6,0,P|297:85|295:44,1,82.5000031471254,0|2,0:0|1:0,0:0:0:0:
39,7,115586,2,0,P|36:42|68:94,1,82.5000031471254,2|2,0:1|0:1,0:0:0:0:
208,72,115908,1,2,0:1:0:0:
124,28,116070,1,2,0:1:0:0:
296,44,116231,2,0,L|408:52,1,82.5000031471254,2|0,0:1|1:0,0:0:0:0:
408,36,116473,1,0,1:0:0:0:
440,20,116554,6,0,L|428:220,1,165.000006294251,0|2,1:0|0:0,0:0:0:0:
260,156,117037,1,0,0:0:0:0:
212,80,117199,2,0,P|204:36|224:-16,1,82.5000031471254,2|0,0:0|0:0,0:0:0:0:
348,124,117521,1,0,0:0:0:0:
260,156,117683,1,2,1:0:0:0:
408,280,117844,6,0,B|400:188|400:188|436:160|428:88,1,165.000006294251,0|2,0:0|0:1,0:0:0:0:
304,12,118328,1,2,0:1:0:0:
176,128,118489,2,0,L|68:120,1,82.5000031471254,2|2,0:1|0:1,0:0:0:0:
250,79,118812,1,0,1:0:0:0:
261,96,118892,1,0,1:0:0:0:
266,116,118973,1,0,1:0:0:0:
266,137,119054,1,0,1:0:0:0:
260,156,119134,6,0,B|240:188|220:196|220:196|266:259|250:331,1,165.000006294251,0|0,1:0|0:0,0:0:0:0:
104,356,119618,1,2,0:0:0:0:
137,199,119779,2,0,L|220:196,1,82.5000031471254,2|0,0:0|0:0,0:0:0:0:
352,288,120102,1,2,0:0:0:0:
16,292,120263,1,2,1:0:0:0:
64,160,120425,6,0,L|52:52,1,82.5000031471254,0|0,0:1|0:0,0:0:0:0:
272,0,120747,1,0,0:0:0:0:
144,112,120908,1,2,0:0:0:0:
256,264,121070,2,0,P|300:200|256:128,1,165.000006294251,2|2,0:2|0:0,0:0:0:0:
452,24,121554,1,0,1:0:0:0:
452,24,121634,1,0,1:0:0:0:
452,24,121715,6,0,P|388:44|392:148,1,165.000006294251,0|0,1:0|0:0,0:0:0:0:
460,292,122199,1,0,1:0:0:0:
224,196,122360,1,2,0:0:0:0:
444,96,122521,1,2,0:0:0:0:
380,348,122683,2,0,L|276:356,1,82.5000031471254,0|2,1:0|0:0,0:0:0:0:
116,352,123005,5,10,1:0:0:0:
196,152,123166,1,0,0:0:0:0:
352,296,123328,1,0,0:0:0:0:
124,376,123489,5,10,1:0:0:0:
200,128,123650,1,0,0:0:0:0:
368,324,123812,1,0,0:0:0:0:
64,256,123973,2,0,L|224:248,1,123.750004720688,8|0,0:0|2:0,0:0:0:0:
228,248,124296,5,2,0:0:0:0:
128,76,124457,1,0,0:0:0:0:
364,148,124618,1,10,0:0:0:0:
236,336,124779,1,0,0:0:0:0:
280,80,124941,5,10,0:0:0:0:
456,212,125102,1,0,0:0:0:0:
228,248,125263,2,0,L|60:256,1,165,10|0,0:0|2:0,0:0:0:0:
144,384,125586,2,0,L|148:248,1,110,10|0,0:0|0:0,0:0:0:0:
48,96,125908,1,10,0:0:0:0:
256,164,126070,1,0,0:0:0:0:
60,336,126231,5,10,0:0:0:0:
196,108,126392,1,0,0:0:0:0:
196,108,126473,1,8,0:1:0:0:
196,108,126554,2,0,P|260:80|336:152,1,165,10|0,0:0|2:0,0:0:0:0:
236,336,126876,5,10,0:0:0:0:
472,304,127037,1,0,0:0:0:0:
256,164,127199,1,10,0:0:0:0:
400,384,127360,1,0,0:0:0:0:
480,80,127521,5,10,0:0:0:0:
128,160,127683,1,0,0:0:0:0:
260,368,127844,2,0,L|267:203,1,165,10|0,0:0|2:0,0:0:0:0:
262,56,128166,2,0,B|249:96|249:96|255:165,1,110,10|0,0:0|0:0,0:0:0:0:
440,168,128489,1,10,0:0:0:0:
184,296,128650,1,0,0:0:0:0:
400,384,128812,5,10,0:0:0:0:
352,112,128973,1,0,0:0:0:0:
80,208,129134,1,8,0:0:0:0:
80,208,129215,1,0,0:0:0:0:
80,208,129296,2,0,L|160:216,1,55,0|0,0:0|0:0,0:0:0:0:
271,219,129457,5,8,0:0:0:0:
92,76,129618,1,2,0:0:0:0:
68,336,129779,1,2,0:0:0:0:
196,136,129941,5,8,0:0:0:0:
288,380,130102,1,2,0:0:0:0:
8,268,130263,1,2,0:0:0:0:
262,56,130425,5,10,0:0:0:0:
180,360,130586,1,2,0:0:0:0:
488,216,130747,1,8,0:0:0:0:
80,208,130908,1,2,0:0:0:0:
80,208,130989,1,0,0:0:0:0:
80,208,131070,1,2,0:0:0:0:
80,208,131150,1,0,0:0:0:0:
80,208,131231,2,0,L|144:216,1,55,8|0,0:0|0:0,0:0:0:0:
324,248,131392,5,2,0:0:0:0:
324,248,131473,1,0,0:0:0:0:
324,248,131554,1,0,0:0:0:0:
324,248,131634,1,0,1:0:0:0:
324,248,131715,2,0,L|212:256,1,110,10|0,0:0|2:0,0:0:0:0:
140,304,131957,1,0,0:0:0:0:
140,304,132037,5,10,0:0:0:0:
244,0,132199,1,10,0:0:0:0:
148,24,132521,5,10,0:0:0:0:
224,344,132683,1,10,0:0:0:0:
316,336,133005,5,10,0:0:0:0:
48,40,133166,2,0,P|15:135|112:108,1,247.5,10|0,0:0|2:0,0:0:0:0:
148,24,133973,5,8,0:0:0:0:
424,64,134134,1,8,0:0:0:0:
424,64,134456,6,0,L|400:360,1,263.99999194336,4|2,0:2|0:2,0:0:0:0:
252,152,134941,2,0,L|244:4,1,131.99999597168,10|2,0:0|0:2,0:0:0:0:
68,236,135263,1,0,0:0:0:0:
252,152,135425,1,2,0:2:0:0:
402,327,135586,1,8,0:0:0:0:
160,192,135747,6,0,P|152:124|224:60,1,131.99999597168,2|0,0:0|0:0,0:0:0:0:
276,300,136070,2,0,L|8:324,1,263.99999194336,2|2,0:0|0:2,0:0:0:0:
72,92,136554,1,2,0:0:0:0:
164,352,136715,1,2,0:2:0:0:
252,152,136876,1,10,0:0:0:0:
473,317,137037,1,6,0:2:0:0:
473,317,137118,1,0,0:0:0:0:
473,317,137199,6,0,B|253:297,1,197.99999395752,0|0,0:0|2:0,0:0:0:0:
220,356,137521,2,0,P|196:288|252:224,1,131.99999597168,10|2,0:0|0:2,0:0:0:0:
368,104,137844,1,2,0:0:0:0:
400,352,138005,1,2,0:2:0:0:
223,239,138166,1,8,0:0:0:0:
456,64,138328,1,2,0:0:0:0:
456,64,138408,1,0,0:0:0:0:
456,64,138489,6,0,L|156:76,1,263.99999194336,0|14,0:0|0:2,0:0:0:0:
92,236,138973,1,2,0:2:0:0:
275,299,139134,1,10,0:0:0:0:
36,308,139296,2,0,P|0:244|37:165,1,131.99999597168,14|8,0:2|0:0,0:0:0:0:
192,74,139618,6,0,L|168:372,1,263.99999194336,6|2,0:2|0:2,0:0:0:0:
144,152,140102,1,8,0:0:0:0:
344,256,140263,6,0,L|476:264,1,131.99999597168,2|0,0:2|0:0,0:0:0:0:
320,120,140586,1,2,0:2:0:0:
272,340,140747,1,8,0:0:0:0:
91,235,140908,1,2,0:0:0:0:
91,235,140989,1,0,0:0:0:0:
91,235,141070,6,0,P|128:184|236:204,1,131.99999597168,0|2,0:0|0:2,0:0:0:0:
376,356,141392,1,10,0:2:0:0:
168,384,141554,2,0,L|168:240,1,131.99999597168,2|2,0:2|0:0,0:0:0:0:
252,52,141876,5,2,0:2:0:0:
64,144,142037,1,8,0:0:0:0:
296,252,142199,1,2,0:2:0:0:
13,296,142360,6,0,L|35:23,1,263.99999194336,2|8,0:1|0:0,0:0:0:0:
168,252,142844,1,2,0:2:0:0:
340,120,143005,2,0,L|316:416,1,263.99999194336,10|8,0:0|0:0,0:0:0:0:
152,160,143489,1,2,0:1:0:0:
376,280,143650,5,0,0:0:0:0:
100,308,143812,1,2,0:0:0:0:
100,308,143892,1,0,0:0:0:0:
100,308,143973,2,0,P|86:266|96:200,1,65.9999979858399,10|0,0:0|2:0,0:0:0:0:
240,156,144134,2,0,P|235:186|216:220,1,65.9999979858399,10|0,0:0|2:0,0:0:0:0:
100,80,144296,5,10,0:2:0:0:
204,320,144457,1,10,0:2:0:0:
204,320,144779,6,0,L|496:332,1,263.99999194336,4|2,0:2|0:2,0:0:0:0:
448,112,145263,1,10,0:0:0:0:
272,274,145425,1,2,0:2:0:0:
216,20,145586,1,2,0:0:0:0:
104,188,145747,2,0,L|256:194,1,131.99999597168,2|8,0:2|0:0,0:0:0:0:
404,280,146070,6,0,L|257:274,1,131.99999597168,2|0,0:0|0:0,0:0:0:0:
64,340,146392,2,0,L|48:64,1,263.99999194336,2|2,0:0|0:2,0:0:0:0:
216,20,146876,1,0,0:0:0:0:
272,274,147037,1,2,0:1:0:0:
16,176,147199,1,8,0:0:0:0:
228,384,147360,1,2,0:1:0:0:
228,384,147441,1,0,0:0:0:0:
228,384,147521,6,0,B|220:176,1,197.99999395752,2|0,0:0|2:0,0:0:0:0:
252,96,147844,2,0,L|240:264,1,131.99999597168,8|2,0:0|0:2,0:0:0:0:
40,320,148166,1,0,0:0:0:0:
264,308,148328,1,2,0:2:0:0:
152,112,148489,1,10,0:0:0:0:
424,64,148650,1,0,0:0:0:0:
424,64,148731,1,0,0:0:0:0:
424,64,148812,6,0,L|412:333,1,263.99999194336,2|10,0:0|0:0,0:0:0:0:
172,184,149296,1,2,0:2:0:0:
384,128,149457,2,0,L|376:272,1,131.99999597168,2|2,0:0|0:2,0:0:0:0:
132,332,149779,1,10,0:0:0:0:
56,52,149941,6,0,L|324:40,1,263.99999194336,6|2,0:1|0:2,0:0:0:0:
172,184,150425,1,8,0:0:0:0:
356,292,150586,1,2,0:2:0:0:
112,252,150747,6,0,P|80:188|132:108,1,131.99999597168,8|2,0:0|0:2,0:0:0:0:
319,40,151070,1,10,0:0:0:0:
240,244,151231,1,2,0:0:0:0:
240,244,151312,1,0,0:0:0:0:
240,244,151392,2,0,L|256:380,1,131.99999597168,8|2,0:0|0:2,0:0:0:0:
97,133,151715,5,8,0:0:0:0:
380,188,151876,1,2,0:2:0:0:
36,232,152037,1,8,0:0:0:0:
412,196,152199,1,2,0:2:0:0:
88,336,152360,1,8,0:0:0:0:
444,204,152521,1,8,0:1:0:0:
255,375,152683,6,0,L|240:244,1,131.99999597168,8|2,0:0|0:2,0:0:0:0:
200,208,152925,1,0,0:0:0:0:
192,156,153005,1,2,0:2:0:0:
220,112,153086,1,0,0:0:0:0:
272,96,153166,2,0,L|264:8,1,65.9999979858399,8|0,0:2|0:0,0:0:0:0:
352,8,153328,6,0,L|344:176,1,131.99999597168,2|2,0:2|0:2,0:0:0:0:
268,172,153570,1,0,0:0:0:0:
268,172,153650,1,8,0:0:0:0:
156,12,153812,1,2,0:1:0:0:
440,0,153973,5,0,2:2:0:0:
481,38,154054,1,0,1:0:0:0:
495,93,154134,1,10,0:2:0:0:
477,147,154215,1,0,0:0:0:0:
432,182,154296,1,2,0:1:0:0:
386,216,154376,1,0,0:0:0:0:
368,270,154457,1,10,0:1:0:0:
381,325,154537,1,0,0:0:0:0:
423,364,154618,6,0,L|496:360,1,65.9999979858399,0|0,0:0|1:0,0:0:0:0:
368,270,154779,2,0,L|276:280,1,65.9999979858399,8|8,0:0|0:0,0:0:0:0:
208,368,154941,1,8,0:0:0:0:
208,368,155021,1,0,1:0:0:0:
208,368,155102,6,0,B|0:360|0:360|60:340,1,263.99999194336,4|2,0:2|0:2,0:0:0:0:
200,156,155586,2,0,P|224:96|160:12,1,131.99999597168,10|2,0:0|0:2,0:0:0:0:
12,204,155908,1,2,0:0:0:0:
208,368,156070,1,2,0:2:0:0:
136,96,156231,1,0,0:0:0:0:
380,152,156392,6,0,L|524:164,1,131.99999597168,0|0,0:0|0:0,0:0:0:0:
316,324,156715,2,0,L|20:344,1,263.99999194336,0|2,0:0|0:2,0:0:0:0:
140,120,157199,1,2,0:0:0:0:
204,368,157360,1,2,0:2:0:0:
380,152,157521,1,8,0:0:0:0:
96,248,157683,1,10,0:2:0:0:
332,24,157844,6,0,B|320:252,1,197.99999395752,2|0,0:0|2:0,0:0:0:0:
384,280,158166,2,0,B|340:264|340:264|240:284,1,131.99999597168,10|2,0:0|0:2,0:0:0:0:
104,384,158489,1,2,0:0:0:0:
200,148,158650,1,2,0:2:0:0:
332,360,158812,1,10,0:0:0:0:
40,264,158973,1,10,0:2:0:0:
40,264,159054,1,0,0:0:0:0:
40,264,159134,6,0,L|52:0,1,263.99999194336,6|10,0:1|0:0,0:0:0:0:
200,148,159618,1,2,0:0:0:0:
68,352,159779,1,0,0:0:0:0:
0,112,159941,1,2,0:0:0:0:
164,276,160102,1,10,0:0:0:0:
136,52,160263,1,0,0:0:0:0:
356,164,160425,5,8,0:0:0:0:
0,212,160586,1,8,0:0:0:0:
0,112,160908,5,8,0:0:0:0:
348,276,161070,1,8,0:0:0:0:
340,384,161392,5,8,0:0:0:0:
0,16,161554,1,8,0:0:0:0:
480,48,161876,6,0,L|468:200,1,131.99999597168,4|0,0:2|0:0,0:0:0:0:
308,264,162199,1,2,0:2:0:0:
236,100,162360,2,0,B|304:112|304:112|360:100|360:100|436:112,2,197.99999395752,8|2|2,0:0|0:2|0:2,0:0:0:0:
48,72,163005,5,0,0:0:0:0:
297,0,163166,2,0,L|309:308,1,263.99999194336,8|0,0:0|0:0,0:0:0:0:
132,376,163650,1,0,0:0:0:0:
94,157,163812,2,0,L|124:84,1,65.9999979858399,0|0,0:0|0:0,0:0:0:0:
250,213,163973,2,0,L|180:216,1,65.9999979858399,0|0,0:0|0:0,0:0:0:0:
198,45,164134,2,0,L|236:100,1,65.9999979858399,0|0,0:0|0:0,0:0:0:0:
68,284,164295,6,0,L|-22:287,2,65.9999979858399
132,376,164779,2,0,L|290:370,2,131.99999597168,8|0|0,1:0|0:0|0:0,0:0:0:0:
184,215,165586,5,0,0:0:0:0:
148,140,175908,5,8,0:1:0:0:
292,192,176070,1,0,0:0:0:0:
112,236,176231,1,8,0:1:0:0:
312,196,176392,1,0,0:0:0:0:
128,136,176554,1,8,0:1:0:0:
328,200,176715,1,0,0:0:0:0:
92,240,176876,1,8,0:1:0:0:
344,204,177037,1,0,0:0:0:0:
208,296,177199,5,8,0:1:0:0:
300,92,177360,1,0,0:0:0:0:
300,284,177521,1,8,0:1:0:0:
212,60,177683,1,0,0:0:0:0:
48,208,177844,2,0,L|148:204,1,82.5000031471254,8|0,0:1|0:0,0:0:0:0:
400,272,178166,1,8,0:1:0:0:
384,40,178328,1,8,0:0:0:0:
152,156,178489,5,8,0:1:0:0:
108,380,178650,1,0,0:0:0:0:
236,176,178812,1,8,0:1:0:0:
196,380,178973,1,0,0:0:0:0:
316,160,179134,1,8,0:1:0:0:
284,376,179296,1,0,0:0:0:0:
372,96,179457,1,8,0:1:0:0:
368,372,179618,1,0,0:0:0:0:
92,208,179779,5,8,0:1:0:0:
360,228,179941,1,0,0:0:0:0:
156,112,180102,1,8,0:1:0:0:
380,236,180263,1,0,0:0:0:0:
160,384,180425,2,0,L|168:264,1,82.5000031471254,8|0,0:1|0:0,0:0:0:0:
288,80,180747,1,8,0:1:0:0:
472,300,180908,1,8,0:0:0:0:
451,302,180989,1,8,0:0:0:0:
431,304,181070,5,8,0:1:0:0:
440,64,181231,1,0,0:0:0:0:
316,288,181392,1,8,0:1:0:0:
460,76,181554,1,0,0:0:0:0:
228,208,181715,1,8,0:1:0:0:
480,96,181876,1,0,0:0:0:0:
208,96,182037,1,8,0:1:0:0:
492,120,182199,1,0,0:0:0:0:
364,364,182360,5,8,0:1:0:0:
296,136,182521,1,0,0:0:0:0:
184,344,182683,1,8,0:1:0:0:
424,272,182844,1,0,0:0:0:0:
196,192,183005,2,0,L|88:196,1,82.5000031471254,8|12,0:1|0:2,0:0:0:0:
252,48,183328,2,0,L|360:44,1,82.5000031471254,8|0,0:1|0:0,0:0:0:0:
100,272,183650,5,8,0:0:0:0:
376,228,183812,1,8,0:0:0:0:
184,344,183973,1,8,0:1:0:0:
173,110,184134,1,2,0:2:0:0:
416,152,184296,2,0,L|408:284,1,123.750004720688,8|0,0:1|2:0,0:0:0:0:
408,316,184618,1,8,0:1:0:0:
176,216,184779,1,0,0:0:0:0:
464,220,184941,5,8,0:1:0:0:
320,16,185102,1,8,0:0:0:0:
316,57,185183,1,8,0:0:0:0:
312,98,185263,1,8,0:0:0:0:
288,368,185425,1,8,0:0:0:0:
24,236,185586,1,0,1:0:0:0:
220,76,185747,1,0,1:0:0:0:
217,96,185828,1,0,1:0:0:0:
216,120,185908,5,0,1:0:0:0:
252,101,185989,1,0,1:0:0:0:
293,95,186070,1,0,1:0:0:0:
334,102,186150,1,0,1:0:0:0:
370,121,186231,6,0,P|432:152|432:68,1,165.000006294251,4|8,0:0|0:0,0:0:0:0:
292,188,186715,2,0,L|304:296,1,82.5000031471254,2|0,2:1|0:1,0:0:0:0:
400,332,187037,1,2,0:0:0:0:
376,36,187199,1,8,0:0:0:0:
231,138,187360,6,0,P|263:178|315:186,1,82.5000031471254,2|0,2:1|0:1,0:0:0:0:
148,216,187683,2,0,P|97:223|64:264,1,82.5000031471254,2|8,2:1|0:0,0:0:0:0:
128,112,188005,2,0,P|146:64|127:15,1,82.5000031471254,2|0,2:1|0:1,0:0:0:0:
316,96,188328,1,0,0:1:0:0:
232,260,188489,2,0,L|220:388,1,123.750004720688,8|0,0:0|2:0,0:0:0:0:
156,344,188812,6,0,P|212:308|296:376,1,165.000006294251,10|8,0:1|0:0,0:0:0:0:
372,200,189296,2,0,L|384:118,1,82.5000031471254,2|0,2:1|0:1,0:0:0:0:
420,284,189618,1,2,0:1:0:0:
284,148,189779,1,8,0:0:0:0:
156,344,189941,6,0,L|108:260,1,82.5000031471254,2|0,2:1|0:1,0:0:0:0:
5,167,190263,2,0,L|102:166,1,82.5000031471254,2|8,2:1|0:0,0:0:0:0:
237,119,190586,2,0,L|189:203,1,82.5000031471254,2|0,2:1|0:1,0:0:0:0:
16,264,190908,1,0,0:1:0:0:
0,68,191070,2,0,L|147:69,1,123.750004720688,8|0,0:0|2:0,0:0:0:0:
160,72,191392,5,0,0:1:0:0:
112,224,191554,1,2,0:1:0:0:
272,280,191715,1,8,0:0:0:0:
288,252,192037,5,2,0:1:0:0:
344,160,192199,1,0,1:1:0:0:
288,64,192360,1,8,0:0:0:0:
424,152,192521,6,0,P|416:200|376:232,1,82.5000031471254,2|0,2:1|0:1,0:0:0:0:
216,104,192844,2,0,P|208:40|232:8,1,82.5000031471254,2|8,2:1|0:0,0:0:0:0:
372,76,193166,1,2,2:1:0:0:
232,20,193328,6,0,P|200:20|160:40,1,55,8|0,0:1|2:0,0:0:0:0:
12,112,193489,2,0,P|44:112|104:84,1,55,2|0,2:1|2:0,0:0:0:0:
216,104,193650,2,0,P|192:120|172:172,1,55,8|0,0:1|2:0,0:0:0:0:
32,32,193812,2,0,P|60:20|76:0,1,55,0|0,0:1|2:0,0:0:0:0:
100,192,193973,5,12,0:2:0:0:
64,364,194134,1,0,0:0:0:0:
288,324,194296,1,8,0:0:0:0:
288,324,194457,1,0,0:0:0:0:
100,192,194618,5,10,0:1:0:0:
88,380,194779,1,0,0:0:0:0:
296,296,194941,1,8,0:0:0:0:
296,296,195102,1,0,0:0:0:0:
100,192,195263,6,0,B|64:104|128:104|96:32,1,165.000006294251,8|8,0:1|0:0,0:0:0:0:
16,68,195747,1,0,0:0:0:0:
176,140,195908,1,4,0:2:0:0:
232,4,196070,1,0,0:0:0:0:
368,72,196231,2,0,L|468:68,1,82.5000031471254,8|0,0:0|0:0,0:0:0:0:
400,248,196554,6,0,P|372:196|456:192,1,165.000006294251,4|8,0:2|0:0,0:0:0:0:
448,328,197037,1,2,2:1:0:0:
448,328,197118,1,2,2:1:0:0:
448,328,197199,2,0,P|404:340|344:324,1,82.5000031471254,2|0,0:1|2:1,0:0:0:0:
268,208,197521,1,10,0:0:0:0:
400,248,197683,1,2,2:1:0:0:
224,288,197844,6,0,L|232:112,1,165.000006294251,8|8,0:1|0:0,0:0:0:0:
236,32,198328,1,2,2:1:0:0:
64,176,198489,1,0,0:2:0:0:
268,208,198650,1,0,1:1:0:0:
168,344,198812,2,0,P|144:288|196:216,1,123.750004720688,8|0,0:0|0:0,0:0:0:0:
224,288,199134,5,2,1:1:0:0:
244,324,199215,1,2,2:1:0:0:
268,356,199296,2,0,L|324:356,1,41.2500015735627,0|0,1:0|2:0,0:0:0:0:
472,224,199457,1,10,0:1:0:0:
464,264,199537,1,0,2:0:0:0:
452,304,199618,2,0,L|380:300,1,41.2500015735627,2|0,2:1|2:0,0:0:0:0:
273,167,199779,5,10,2:1:0:0:
273,167,199860,1,2,2:1:0:0:
273,167,199941,2,0,L|265:227,1,41.2500015735627,8|0,0:1|2:0,0:0:0:0:
364,56,200102,1,10,1:1:0:0:
364,56,200183,1,2,2:1:0:0:
364,56,200263,2,0,L|361:14,1,41.2500015735627,2|0,2:1|2:0,0:0:0:0:
484,184,200425,6,0,L|496:4,2,165.000006294251,2|8|0,0:1|0:0|0:1,0:0:0:0:
284,108,201231,1,0,0:1:0:0:
212,304,201392,2,0,L|132:296,2,55.0000020980836,8|2|0,0:0|0:0|0:0,0:0:0:0:
252,340,201715,6,0,L|260:184,1,123.750004720688,2|0,0:0|2:0,0:0:0:0:
260,184,202037,1,10,0:0:0:0:
64,248,202199,1,0,0:0:0:0:
0,76,202360,1,2,0:1:0:0:
156,148,202521,1,2,2:1:0:0:
288,0,202683,1,8,0:0:0:0:
104,56,202844,1,2,2:1:0:0:
260,184,203005,6,0,L|252:328,1,123.750004720688,2|0,1:2|2:0,0:0:0:0:
252,340,203328,2,0,L|248:384,2,41.2500015735627,8|2|2,0:0|2:1|2:1,0:0:0:0:
492,276,203650,1,10,0:0:0:0:
474,250,203731,1,2,2:1:0:0:
447,235,203812,1,10,2:1:0:0:
416,233,203892,1,0,1:1:0:0:
388,245,203973,2,0,P|323:255|272:236,1,82.5000031471254,12|2,0:2|2:1,0:0:0:0:
160,180,204296,5,4,0:2:0:0:
236,16,204457,1,0,0:1:0:0:
12,56,204618,1,0,0:1:0:0:
12,56,204779,1,4,0:2:0:0:
180,184,204941,5,0,0:1:0:0:
212,0,205102,1,0,0:1:0:0:
4,84,205263,1,4,0:2:0:0:
4,84,205425,1,8,0:1:0:0:
208,192,205586,5,10,1:1:0:0:
234,223,205666,1,10,1:1:0:0:
239,263,205747,1,8,1:0:0:0:
223,300,205828,1,0,1:0:0:0:
189,323,205908,1,0,1:0:0:0:
148,324,205989,1,0,1:0:0:0:
113,303,206070,5,10,1:1:0:0:
127,264,206150,1,10,1:1:0:0:
132,223,206231,1,8,1:0:0:0:
127,182,206312,1,0,1:0:0:0:
112,144,206392,1,0,1:0:0:0:
89,110,206473,1,0,1:0:0:0:
58,83,206554,5,8,1:2:0:0:
109,80,206634,1,8,1:2:0:0:
161,78,206715,1,10,2:1:0:0:
212,75,206796,1,2,2:1:0:0:
264,73,206876,5,8,0:0:0:0:
488,200,207037,1,8,0:0:0:0:
316,72,207360,1,8,0:0:0:0:
452,308,207521,1,8,0:0:0:0:
368,72,207844,1,8,0:0:0:0:
340,352,208005,1,8,0:0:0:0:
420,68,208328,1,8,0:0:0:0:
232,300,208489,1,8,0:0:0:0:
472,68,208812,5,0,1:0:0:0:
440,118,208892,1,0,1:0:0:0:
460,175,208973,1,0,1:0:0:0:
491,227,209054,1,0,1:0:0:0:
477,286,209134,5,0,1:0:0:0:
472,306,209215,1,0,1:0:0:0:
467,326,209296,1,0,1:0:0:0:
462,346,209376,1,0,1:0:0:0:
460,364,209457,6,0,B|368:399|318:326|315:236|394:207|441:218|441:218|407:144|407:144|363:155|300:162|260:256|273:303,1,605,4|0,1:0|0:0,0:0:0:0:
423,295,211392,5,0,0:0:0:0:
407,145,211554,1,0,0:0:0:0:
298,209,211715,2,0,L|236:216,1,55,0|0,0:0|0:0,0:0:0:0:
88,320,212037,6,0,P|141:324|187:295,1,110,2|0,0:0|0:0,0:0:0:0:
120,232,212521,1,0,0:0:0:0:
56,168,212683,2,0,L|63:97,1,55,0|0,0:0|0:0,0:0:0:0:
132,28,213005,1,0,0:0:0:0:
168,152,213166,1,0,0:0:0:0:
248,96,213328,6,0,P|292:98|324:84,1,55,2|0,0:0|0:0,0:0:0:0:
392,56,213650,2,0,P|427:53|460:68,1,55,0|0,0:0|0:0,0:0:0:0:
444,224,213973,1,0,0:0:0:0:
416,140,214134,1,0,0:0:0:0:
365,245,214296,2,0,L|420:248,1,55,0|0,0:0|0:0,0:0:0:0:
432,268,214537,1,0,0:0:0:0:
448,288,214618,6,0,L|316:280,1,110,2|0,0:0|0:0,0:0:0:0:
260,216,215102,1,0,0:0:0:0:
148,336,215263,2,0,P|187:346|220:336,1,55,0|0,0:0|0:0,0:0:0:0:
184,264,215586,1,0,0:0:0:0:
284,352,215747,1,0,0:0:0:0:
260,216,215908,6,0,B|256:84,1,110,2|0,0:0|0:0,0:0:0:0:
156,20,216392,1,0,0:0:0:0:
148,164,216554,2,0,L|212:160,1,55,0|0,0:0|0:0,0:0:0:0:
320,48,216876,1,0,0:0:0:0:
459,126,217037,1,0,0:0:0:0:
504,58,217199,6,0,P|453:41|404:64,1,110,2|0,0:0|0:0,0:0:0:0:
380,152,217683,1,0,0:0:0:0:
460,180,217844,2,0,P|464:144|452:112,1,55,0|0,0:0|0:0,0:0:0:0:
316,92,218166,1,0,0:0:0:0:
296,176,218328,1,0,0:0:0:0:
360,244,218489,6,0,L|356:320,1,55,2|0,0:0|0:0,0:0:0:0:
192,272,218812,1,0,0:0:0:0:
296,176,218973,1,0,0:0:0:0:
156,180,219134,2,0,B|140:376,1,165.000006294251,2|0,0:0|0:0,0:0:0:0:
24,252,219618,1,0,0:0:0:0:
24,252,219699,1,0,0:0:0:0:
24,252,219779,6,0,B|40:64,1,165.000006294251,0|0,1:0|0:0,0:0:0:0:
216,40,220263,1,8,1:0:0:0:
300,92,220425,1,0,0:0:0:0:
376,32,220586,1,0,0:0:0:0:
124,17,220747,2,0,P|120:58|136:96,1,82.5000031471254,8|0,1:3|0:0,0:0:0:0:
392,128,221070,5,8,0:3:0:0:
408,224,221231,1,0,0:0:0:0:
336,292,221392,1,0,0:0:0:0:
300,92,221554,5,0,1:0:0:0:
300,92,221634,1,0,1:0:0:0:
300,92,221715,1,0,1:0:0:0:
104,184,221876,1,0,1:1:0:0:
228,316,222037,2,0,L|234:192,1,123.750004720688,8|0,1:1|0:0,0:0:0:0:
235,151,222360,5,4,0:0:0:0:
80,280,222521,1,0,0:0:0:0:
284,252,222683,1,0,0:0:0:0:
152,80,222844,1,0,0:0:0:0:
160,40,222925,1,0,0:0:0:0:
168,0,223005,5,8,0:0:0:0:
28,104,223166,1,0,0:0:0:0:
235,151,223328,2,0,L|227:315,1,165,0|0,0:0|2:0,0:0:0:0:
393,245,223650,2,0,L|283:252,1,110,0|8,0:0|0:0,0:0:0:0:
80,280,223973,1,8,0:1:0:0:
240,60,224134,1,0,0:0:0:0:
227,315,224296,5,8,0:0:0:0:
32,216,224457,1,8,0:1:0:0:
32,216,224537,1,0,0:0:0:0:
32,216,224618,2,0,P|0:284|72:360,1,165,0|0,0:0|2:0,0:0:0:0:
84,360,224941,5,4,0:2:0:0:
283,251,225102,1,0,0:0:0:0:
156,24,225263,1,0,0:0:0:0:
80,280,225425,1,8,0:1:0:0:
120,284,225505,1,0,0:0:0:0:
160,288,225586,5,8,0:0:0:0:
36,104,225747,1,0,0:0:0:0:
408,72,225908,2,0,L|400:244,1,165,0|0,0:0|2:0,0:0:0:0:
352,296,226231,2,0,P|396:316|464:272,1,110,0|8,0:0|0:0,0:0:0:0:
304,80,226554,1,0,0:0:0:0:
232,312,226715,1,0,0:0:0:0:
452,160,226876,5,8,0:0:0:0:
140,216,227037,1,8,0:1:0:0:
306,25,227199,1,8,0:0:0:0:
306,25,227279,1,0,0:0:0:0:
306,25,227360,2,0,L|302:105,1,55,0|0,0:0|0:0,0:0:0:0:
300,192,227521,5,8,0:0:0:0:
172,16,227683,1,2,0:0:0:0:
404,80,227844,1,2,0:0:0:0:
160,116,228005,5,8,0:0:0:0:
232,312,228166,1,2,0:0:0:0:
303,79,228328,1,2,0:0:0:0:
56,208,228489,5,10,0:0:0:0:
380,312,228650,1,2,0:0:0:0:
220,32,228812,1,8,0:0:0:0:
227,366,228973,1,2,0:0:0:0:
227,366,229054,1,0,0:0:0:0:
227,366,229134,1,2,0:0:0:0:
227,366,229215,1,8,0:0:0:0:
227,366,229296,2,0,L|235:278,1,55,8|8,0:0|0:0,0:0:0:0:
173,225,229457,5,2,0:0:0:0:
173,225,229537,1,0,0:0:0:0:
173,225,229618,1,0,0:0:0:0:
173,225,229699,1,0,1:0:0:0:
173,225,229779,2,0,L|157:93,1,110,10|0,0:0|2:0,0:0:0:0:
220,32,230021,1,0,1:0:0:0:
220,32,230102,5,10,0:0:0:0:
456,176,230263,1,10,0:0:0:0:
460,272,230586,5,2,2:0:0:0:
120,40,230747,1,2,2:0:0:0:
20,48,231070,5,8,1:0:0:0:
464,368,231231,2,0,B|344:316|344:408|216:360,1,247.5,10|0,0:0|0:0,0:0:0:0:
192,332,232037,6,0,L|200:288,12,27.5000010490418,0|0|0|0|0|0|0|0|0|0|0|0|0,2:0|2:0|2:0|2:0|2:0|2:0|2:0|2:0|2:0|2:0|2:0|2:0|1:0,0:0:0:0:
224,368,233328,5,8,0:0:0:0:
0,296,233489,1,8,0:0:0:0:
0,296,233811,6,0,L|328:272,1,285.99998690796,4|2,0:2|0:2,0:0:0:0:
472,116,234296,2,0,L|324:100,1,142.99999345398,10|2,0:0|0:2,0:0:0:0:
124,8,234618,1,0,0:0:0:0:
180,248,234779,1,2,0:2:0:0:
329,100,234941,1,8,0:0:0:0:
104,208,235102,6,0,P|96:280|164:332,1,142.99999345398,2|0,0:0|0:0,0:0:0:0:
465,255,235425,2,0,L|161:247,1,285.99998690796,2|2,0:0|0:2,0:0:0:0:
108,32,235908,1,2,0:0:0:0:
0,312,236070,1,2,0:2:0:0:
288,212,236231,1,10,0:0:0:0:
16,80,236392,1,6,0:2:0:0:
16,80,236473,1,0,0:0:0:0:
16,80,236554,6,0,B|240:96,1,214.49999018097,0|0,0:0|2:0,0:0:0:0:
304,128,236876,2,0,P|259:77|284:0,1,142.99999345398,10|2,0:0|0:2,0:0:0:0:
480,100,237199,1,2,0:0:0:0:
212,188,237360,1,2,0:2:0:0:
440,256,237521,1,8,0:0:0:0:
340,56,237683,1,2,0:0:0:0:
340,56,237763,1,0,0:0:0:0:
340,56,237844,6,0,L|328:360,1,285.99998690796,0|14,0:0|0:2,0:0:0:0:
128,236,238328,1,2,0:2:0:0:
380,148,238489,1,10,0:0:0:0:
196,0,238650,2,0,L|188:164,1,142.99999345398,14|8,0:2|0:0,0:0:0:0:
42,352,238973,6,0,L|358:340,1,285.99998690796,6|2,0:2|0:2,0:0:0:0:
80,144,239457,1,8,0:0:0:0:
256,300,239618,6,0,L|113:306,1,142.99999345398,2|0,0:2|0:0,0:0:0:0:
64,48,239941,1,2,0:2:0:0:
284,148,240102,1,8,0:0:0:0:
40,252,240263,1,2,0:0:0:0:
40,252,240344,1,0,0:0:0:0:
40,252,240425,6,0,P|20:302|68:384,1,142.99999345398,0|2,0:0|0:2,0:0:0:0:
333,356,240747,1,10,0:2:0:0:
192,240,240908,2,0,L|169:93,1,142.99999345398,2|2,0:2|0:0,0:0:0:0:
113,306,241231,5,2,0:2:0:0:
372,244,241392,1,8,0:0:0:0:
132,172,241554,1,2,0:2:0:0:
292,4,241715,6,0,L|280:304,1,285.99998690796,2|8,0:1|0:0,0:0:0:0:
424,132,242199,1,2,0:2:0:0:
476,336,242360,2,0,L|190:332,1,285.99998690796,10|8,0:0|0:0,0:0:0:0:
256,104,242844,1,2,0:1:0:0:
24,176,243005,5,0,0:0:0:0:
304,180,243166,1,2,0:0:0:0:
304,180,243247,1,0,0:0:0:0:
304,180,243328,2,0,P|262:194|200:176,1,71.4999967269899,10|0,0:0|2:0,0:0:0:0:
24,80,243489,2,0,P|54:85|92:108,1,71.4999967269899,10|0,0:0|2:0,0:0:0:0:
112,248,243650,5,10,0:2:0:0:
248,16,243812,1,10,0:2:0:0:
248,16,244134,6,0,L|224:336,1,285.99998690796,4|2,0:2|0:2,0:0:0:0:
24,176,244618,2,0,L|16:28,1,142.99999345398,10|2,0:0|0:2,0:0:0:0:
208,104,244941,1,2,0:0:0:0:
24,272,245102,1,2,0:2:0:0:
272,224,245263,1,8,0:0:0:0:
152,20,245425,6,0,L|156:228,1,142.99999345398,2|0,0:0|0:0,0:0:0:0:
364,368,245747,2,0,L|375:82,1,285.99998690796,2|2,0:0|0:2,0:0:0:0:
272,0,246231,1,0,0:0:0:0:
160,252,246392,1,2,0:1:0:0:
416,184,246554,1,8,0:0:0:0:
208,104,246715,1,2,0:1:0:0:
208,104,246796,1,0,0:0:0:0:
208,104,246876,6,0,B|44:116,1,142.99999345398,2|2,0:0|0:2,0:0:0:0:
0,352,247199,2,0,L|176:340,1,142.99999345398,8|2,0:0|0:2,0:0:0:0:
328,248,247521,1,0,0:0:0:0:
132,68,247683,1,2,0:2:0:0:
68,304,247844,1,10,0:0:0:0:
360,364,248005,1,0,0:0:0:0:
360,364,248086,1,0,0:0:0:0:
360,364,248166,6,0,L|376:76,1,285.99998690796,2|10,0:0|0:0,0:0:0:0:
156,108,248650,1,2,0:2:0:0:
56,340,248812,2,0,P|128:372|204:312,1,142.99999345398,2|2,0:0|0:2,0:0:0:0:
332,160,249134,1,10,0:0:0:0:
144,4,249296,6,0,L|120:308,1,285.99998690796,6|2,0:1|0:2,0:0:0:0:
260,84,249779,1,8,0:0:0:0:
76,208,249941,1,2,0:2:0:0:
328,272,250102,6,0,L|476:259,1,142.99999345398,8|2,0:0|0:2,0:0:0:0:
260,84,250425,1,10,0:0:0:0:
24,272,250586,1,2,0:0:0:0:
24,272,250666,1,0,0:0:0:0:
24,272,250747,2,0,P|-6:222|28:140,1,142.99999345398,8|2,0:0|0:2,0:0:0:0:
256,288,251070,5,8,0:0:0:0:
384,24,251231,1,2,0:2:0:0:
164,252,251392,1,8,0:0:0:0:
492,320,251554,1,2,0:2:0:0:
76,208,251715,1,8,0:0:0:0:
512,144,251876,1,8,0:1:0:0:
280,0,252037,6,0,L|272:152,1,142.99999345398,8|2,0:0|0:2,0:0:0:0:
336,312,252279,1,0,0:0:0:0:
301,287,252360,1,2,0:2:0:0:
259,277,252441,1,0,0:0:0:0:
217,283,252521,1,8,0:2:0:0:
181,305,252602,1,0,0:0:0:0:
155,339,252683,6,0,P|100:364|16:284,1,142.99999345398,2|2,0:2|0:2,0:0:0:0:
96,280,252925,1,0,0:0:0:0:
96,280,253005,1,8,0:0:0:0:
164,60,253166,1,2,0:1:0:0:
56,152,253328,5,0,2:2:0:0:
104,184,253408,1,0,1:0:0:0:
160,200,253489,1,10,0:2:0:0:
224,200,253570,1,0,0:0:0:0:
284,180,253650,1,2,0:1:0:0:
336,152,253731,1,0,0:0:0:0:
392,140,253812,1,10,0:1:0:0:
452,152,253892,1,0,0:0:0:0:
508,180,253973,6,0,L|512:101,1,71.4999967269899,0|0,0:0|1:0,0:0:0:0:
332,80,254134,2,0,L|336:156,1,71.4999967269899,8|8,0:0|0:0,0:0:0:0:
444,280,254296,1,8,0:0:0:0:
444,280,254376,1,0,1:0:0:0:
444,280,254457,6,0,L|96:264,1,285.99998690796,4|2,0:2|0:2,0:0:0:0:
0,56,254941,2,0,L|152:44,1,142.99999345398,10|2,0:0|0:2,0:0:0:0:
372,88,255263,1,2,0:0:0:0:
256,312,255425,1,2,0:2:0:0:
142,44,255586,1,0,0:0:0:0:
15,278,255747,6,0,L|206:262,1,142.99999345398,2|0,0:1|0:0,0:0:0:0:
372,88,256070,2,0,L|356:376,1,285.99998690796,0|2,0:0|0:2,0:0:0:0:
157,266,256554,1,2,0:0:0:0:
420,184,256715,1,2,0:2:0:0:
124,76,256876,1,8,0:0:0:0:
184,360,257037,1,10,0:2:0:0:
372,88,257199,6,0,B|391:302,1,214.49999018097,2|0,0:0|2:0,0:0:0:0:
460,344,257521,2,0,P|404:384|338:365,1,142.99999345398,10|2,0:0|0:2,0:0:0:0:
172,140,257844,1,2,0:0:0:0:
420,184,258005,1,2,0:2:0:0:
120,244,258166,1,10,0:0:0:0:
352,12,258328,1,10,0:2:0:0:
352,12,258408,1,0,0:0:0:0:
352,12,258489,6,0,L|320:352,1,285.99998690796,6|10,0:1|0:0,0:0:0:0:
152,144,258973,1,2,0:0:0:0:
208,360,259134,1,0,0:0:0:0:
380,220,259296,1,2,0:0:0:0:
120,244,259457,1,10,0:0:0:0:
180,40,259618,1,0,0:0:0:0:
0,184,259779,5,8,0:0:0:0:
400,92,259941,1,8,0:0:0:0:
428,184,260263,5,8,0:0:0:0:
16,92,260425,1,8,0:0:0:0:
32,4,260747,5,8,0:0:0:0:
460,280,260908,1,8,0:0:0:0:
132,384,261231,6,0,P|116:332|188:256,1,142.99999345398,4|0,0:2|0:0,0:0:0:0:
368,256,261554,1,2,0:2:0:0:
200,336,261715,2,0,P|84:284|108:204,2,214.49999018097,8|2|2,0:0|0:2|0:2,0:0:0:0:
428,184,262360,5,0,0:0:0:0:
226,51,262521,2,0,L|198:355,1,285.99998690796,8|0,0:0|0:0,0:0:0:0:
460,280,263005,1,0,0:0:0:0:
320,128,263166,2,0,L|240:136,1,71.4999967269899
144,268,263328,2,0,L|176:203,1,71.4999967269899
112,48,263489,2,0,L|151:108,1,71.4999967269899
328,216,263649,6,0,L|399:210,2,71.4999967269899
220,312,264134,2,0,L|69:326,2,142.99999345398
244,164,264941,5,8,0:0:0:0:
340,256,265102,2,0,L|423:262,1,82.5,8|0,0:0|2:0,0:0:0:0:
248,144,265425,5,8,0:0:0:0:
192,284,265586,2,0,L|109:290,1,82.5,8|0,0:0|2:0,0:0:0:0:
252,128,265908,5,8,0:0:0:0:
364,304,266070,2,0,L|447:310,1,82.5,8|0,0:0|2:0,0:0:0:0:
256,116,266392,5,8,0:0:0:0:
176,332,266554,2,0,L|7:343,1,165,8|0,0:0|2:0,0:0:0:0:
127,199,266876,2,0,L|133:239,1,41.2500015735627,0|0,0:0|2:0,0:0:0:0:
328,164,267037,1,0,0:0:0:0:
338,145,267118,1,0,0:0:0:0:
342,123,267199,1,0,0:0:0:0:
341,101,267279,1,0,0:0:0:0:
332,80,267360,2,0,L|392:84,1,41.2500015735627,0|0,0:0|0:0,0:0:0:0:
460,212,267521,5,8,0:0:0:0:
304,268,267683,2,0,L|311:351,1,82.5,8|0,0:0|2:0,0:0:0:0:
476,208,268005,5,8,0:0:0:0:
256,116,268166,2,0,L|249:33,1,82.5,8|0,0:0|2:0,0:0:0:0:
492,204,268489,5,4,0:2:0:0:
264,296,268650,2,0,L|271:379,1,82.5,0|0,0:2|2:0,0:0:0:0:
508,200,268973,5,8,0:0:0:0:
216,96,269134,1,8,0:0:0:0:
184,80,269457,5,8,0:1:0:0:
144,248,269618,1,0,0:0:0:0:
84,28,269779,1,0,0:0:0:0:
148,268,269941,1,0,0:0:0:0:
264,212,270102,5,8,0:0:0:0:
396,324,270263,2,0,L|504:316,1,82.5,8|0,0:0|2:0,0:0:0:0:
268,232,270586,5,8,0:0:0:0:
348,112,270747,2,0,L|444:104,1,82.5,8|0,0:0|2:0,0:0:0:0:
272,248,271070,5,8,0:0:0:0:
428,360,271231,2,0,L|524:352,1,82.5,8|0,0:0|2:0,0:0:0:0:
276,260,271554,5,8,0:0:0:0:
368,68,271715,2,0,P|420:44|500:128,1,165,8|0,0:0|2:0,0:0:0:0:
329,162,272037,2,0,L|288:160,1,41.2500015735627,0|0,0:0|2:0,0:0:0:0:
424,124,272199,1,0,0:0:0:0:
423,144,272279,1,0,0:0:0:0:
422,165,272360,1,0,0:0:0:0:
421,185,272441,1,0,0:0:0:0:
421,206,272521,2,0,L|420:280,1,41.2500015735627,0|0,0:0|1:0,0:0:0:0:
236,352,272683,5,8,0:0:0:0:
112,208,272844,2,0,L|120:100,1,82.5,8|0,0:0|2:0,0:0:0:0:
216,348,273166,5,8,0:0:0:0:
322,245,273328,2,0,L|330:149,1,82.5,8|0,0:0|2:0,0:0:0:0:
200,344,273650,5,4,0:2:0:0:
140,232,273812,1,0,0:2:0:0:
256,192,273892,12,0,279134,0:0:0:0:
