osu file format v14

[General]
AudioFilename: audio.mp3
AudioLeadIn: 0
PreviewTime:55279
Countdown: 0
SampleSet: Soft
StackLeniency: 0.4
Mode: 0
LetterboxInBreaks: 0
WidescreenStoryboard: 1

[Editor]
Bookmarks:8127,15996,23865,39603,55340,78947
DistanceSpacing: 1
BeatDivisor: 4
GridSize: 16
TimelineZoom: 4.299999

[Metadata]
Title:Hanarenai Kyori (TV Size)
TitleUnicode:はなれない距離 (TV Size)
Artist:TrySail
ArtistUnicode:TrySail
Creator:Vanya2
Version:Normal
Source:阿波連さんははかれない
Tags:japanese anime op opening rock jrock j-rock pop jpop j-pop aharen-san wa hakarenai aharen san is indecipherable 麻倉もも asakura momo 雨宮天 amamiya sora 夏川椎菜 natsukawa shiina
BeatmapID:3550292
BeatmapSetID:1736987

[Difficulty]
HPDrainRate:3
CircleSize:3.2
OverallDifficulty:4.5
ApproachRate:6
SliderMultiplier:0.9
SliderTickRate:1

[Events]
//Background and Video events
0,0,"RazYAdC.jpg",0,0
Video,-120,"sss.mp4"
//Break Periods
2,39803,41920
//Storyboard Layer 0 (Background)
//Storyboard Layer 1 (Fail)
//Storyboard Layer 2 (Pass)
//Storyboard Layer 3 (Foreground)
//Storyboard Layer 4 (Overlay)
//Storyboard Sound Samples

[TimingPoints]
259,245.901639344262,4,2,1,50,1,0
259,-133.333333333333,4,2,1,50,0,0
8127,-133.333333333333,4,2,1,60,0,0
10340,-100,4,2,1,60,0,0
15996,-100,4,2,1,80,0,0
23865,-100,4,2,1,60,0,0
24357,-100,4,2,1,40,0,0
25586,-100,4,2,1,50,0,0
27799,-100,4,2,1,70,0,0
31980,-100,4,2,1,50,0,0
35668,-100,4,2,1,70,0,0
39603,-100,4,2,1,50,0,0
43537,-100,4,2,1,60,0,0
48455,-100,4,2,1,65,0,0
49439,-100,4,2,1,70,0,0
50422,-100,4,2,1,80,0,0
51406,-100,4,2,1,70,0,0
52390,-100,4,2,1,75,0,0
53373,-100,4,2,1,85,0,0
55340,-100,4,2,1,90,0,1
67144,-133.333333333333,4,2,1,70,0,1
71324,-133.333333333333,4,2,1,40,0,1
72062,-133.333333333333,4,2,1,70,0,1
72308,-133.333333333333,4,2,1,40,0,1
73045,-100,4,2,1,70,0,1
73783,-100,4,2,1,80,0,1
75013,-100,4,2,1,90,0,1
76980,-100,4,2,1,90,0,1
77472,-100,4,2,1,50,0,0
79931,-133.333333333333,4,2,1,40,0,0
83865,-200,4,2,1,40,0,0
87062,-200,4,2,1,5,0,0

[Colours]
Combo1 : 37,226,170
Combo2 : 152,250,165
Combo3 : 252,153,148
Combo4 : 168,228,239

[HitObjects]
288,316,259,6,0,B|440:296|359:209|513:186,2,270.000010299683,2|2|2,0:0|0:0|0:0,0:0:0:0:
52,186,3209,1,2,0:0:0:0:
264,19,4193,2,0,L|301:160,1,135.000005149842,2|2,0:0|0:0,0:0:0:0:
205,232,5177,2,0,P|105:205|57:339,2,270.000010299683,2|2|2,0:0|0:0|0:0,0:0:0:0:
435,373,8127,5,0,3:2:0:0:
435,373,9111,1,0,3:2:0:0:
435,373,10095,5,0,3:2:0:0:
373,307,10340,2,0,L|396:220,1,90,2|10,0:0|0:3,0:0:0:0:
475,175,10832,2,0,P|389:172|350:95,1,180,6|2,3:2|3:2,0:0:0:0:
275,44,11570,1,10,0:0:0:0:
208,104,11816,2,0,L|164:115,1,45,10|8,0:0|0:0,0:0:0:0:
121,100,12062,6,0,B|101:59|101:59|122:19,2,90,6|8|2,3:2|0:0|3:2,0:0:0:0:
69,173,12799,1,10,0:0:0:0:
128,240,13045,2,0,L|104:326,1,90,2|8,3:2|0:0,0:0:0:0:
181,374,13537,2,0,P|223:383|258:356,1,90,8|4,0:0|0:3,0:0:0:0:
291,272,14029,5,6,3:2:0:0:
291,272,15013,2,0,L|267:185,1,90,2|2,0:0|0:0,0:0:0:0:
350,149,15504,2,0,L|326:62,1,90,2|2,0:0|0:0,0:0:0:0:
399,8,15996,6,0,P|479:32|481:117,1,180,4|2,3:2|3:2,0:0:0:0:
432,193,16734,1,8,0:0:0:0:
380,266,16980,2,0,L|293:242,1,90,2|8,3:2|0:0,0:0:0:0:
261,209,17349,2,0,L|174:232,1,90,2|0,3:2|3:2,0:0:0:0:
130,244,17718,1,10,0:0:0:0:
56,191,17963,6,0,B|95:95|18:113|55:18,1,180,0|2,3:2|3:2,0:0:0:0:
134,62,18701,1,8,0:0:0:0:
214,21,18947,2,0,L|300:44,1,90,2|8,3:2|0:0,0:0:0:0:
333,75,19316,2,0,P|342:117|315:152,1,90,2|0,3:2|3:2,0:0:0:0:
272,166,19685,1,10,0:0:0:0:
185,190,19931,5,6,3:2:0:0:
98,214,20177,2,0,L|121:300,1,90,10|10,0:0|3:2,0:0:0:0:
200,344,20668,2,0,B|240:323|240:323|280:342,1,90,10|10,0:0|3:2,0:0:0:0:
370,332,21160,2,0,P|396:297|387:254,1,90,10|10,0:0|0:3,0:0:0:0:
319,194,21652,1,6,0:3:0:0:
365,117,21898,6,0,L|451:140,1,90,10|0,3:2|3:2,0:0:0:0:
483,108,22267,2,0,P|492:65|465:30,1,90,10|0,3:2|3:2,0:0:0:0:
429,2,22636,1,10,3:2:0:0:
342,25,22881,1,6,3:2:0:0:
342,25,23865,5,2,3:2:0:0:
342,25,25586,1,2,3:2:0:0:
124,84,26816,2,0,L|146:172,1,90,2|8,0:0|0:3,0:0:0:0:
75,227,27308,2,0,P|75:249|84:269,1,45,8|8,0:0|0:0,0:0:0:0:
126,287,27554,2,0,P|135:307|135:329,1,45,8|8,0:0|0:0,0:0:0:0:
122,372,27799,6,0,L|210:350,1,90,6|8,3:2|0:0,0:0:0:0:
273,286,28291,2,0,L|361:308,1,90,2|10,3:2|0:0,0:0:0:0:
440,265,28783,2,0,B|460:224|460:224|439:184,1,90,2|8,3:2|0:0,0:0:0:0:
415,146,29152,1,0,3:2:0:0:
298,77,29521,6,0,B|309:30|331:50|345:2,2,90,10|0|10,0:0|3:2|0:0,0:0:0:0:
232,138,30258,1,2,3:2:0:0:
154,92,30504,2,0,P|112:83|77:110,2,90,10|0|10,0:0|3:2|0:0,0:0:0:0:
232,138,31242,2,0,L|221:182,1,45,10|8,0:0|0:3,0:0:0:0:
211,226,31488,1,6,0:3:0:0:
189,311,31734,5,4,3:2:0:0:
98,310,31980,2,0,L|76:222,1,90,2|2,0:0|3:2,0:0:0:0:
5,165,32472,1,2,3:2:0:0:
76,110,32718,2,0,P|118:118|153:91,1,90,2|2,3:2|3:2,0:0:0:0:
165,48,33086,1,2,3:2:0:0:
299,57,33455,6,0,L|342:231,1,180,2|2,3:2|0:0,0:0:0:0:
364,319,34193,2,0,B|405:338|405:338|445:317,1,90,2|2,3:2|3:2,0:0:0:0:
509,255,34685,2,0,L|487:167,1,90,0|6,3:2|0:3,0:0:0:0:
409,121,35177,2,0,L|365:132,1,45,10|8,0:0|0:0,0:0:0:0:
352,175,35422,2,0,L|308:186,1,45,10|8,0:0|0:0,0:0:0:0:
264,173,35668,6,0,P|237:138|245:95,1,90,6|8,3:2|0:0,0:0:0:0:
195,20,36160,2,0,L|107:41,1,90,2|10,3:2|0:0,0:0:0:0:
27,0,36652,2,0,L|5:87,1,90,2|8,3:2|0:0,0:0:0:0:
67,153,37144,1,2,0:0:0:0:
130,217,37390,6,0,P|87:208|52:235,2,90,14|0|10,0:0|3:2|0:0,0:0:0:0:
186,287,38127,2,0,L|273:308,1,90,2|10,3:2|0:0,0:0:0:0:
351,262,38619,2,0,P|350:239|341:219,1,45,2|0,3:2|0:0,0:0:0:0:
303,194,38865,2,0,P|293:173|293:151,1,45,10|0,0:0|3:2,0:0:0:0:
321,115,39111,2,0,L|408:93,1,90,10|4,0:0|0:3,0:0:0:0:
496,74,39603,1,4,3:2:0:0:
496,74,43045,5,10,0:0:0:0:
414,34,43291,1,10,0:3:0:0:
357,104,43537,2,0,B|248:132|248:132|258:177|218:208,1,180,6|0,3:2|3:2,0:0:0:0:
147,228,44275,2,0,P|92:173|161:138,1,180,6|10,3:2|0:3,0:0:0:0:
231,196,45013,2,0,L|242:240,2,45,8|4|2,0:3|0:3|3:2,0:0:0:0:
320,198,45504,6,0,L|342:286,1,90,6|10,3:2|0:0,0:0:0:0:
352,329,45873,1,2,3:2:0:0:
226,379,46242,2,0,B|149:367|189:324|113:314,1,135,6|8,3:2|0:0,0:0:0:0:
74,290,46734,1,2,3:2:0:0:
120,213,46980,1,8,0:0:0:0:
53,152,47226,2,0,L|42:108,1,45,8|8,0:0|0:0,0:0:0:0:
31,64,47472,5,6,3:2:0:0:
95,1,47718,1,10,0:0:0:0:
170,49,47963,2,0,P|203:77|246:71,1,90,2|10,3:2|0:0,0:0:0:0:
321,20,48455,2,0,L|353:150,2,135,2|10|10,3:2|0:0|0:0,0:0:0:0:
411,24,49439,6,0,L|432:111,1,90,2|10,3:2|0:0,0:0:0:0:
486,183,49931,1,2,3:2:0:0:
424,248,50177,1,10,0:0:0:0:
475,321,50422,6,0,L|464:365,1,45,6|2,3:2|3:2,0:0:0:0:
378,335,50791,2,0,B|307:318|337:285|265:264,1,135,6|2,3:2|3:2,0:0:0:0:
199,203,51406,5,4,3:2:0:0:
127,148,51652,1,10,0:0:0:0:
57,204,51898,2,0,L|78:291,1,90,2|10,3:2|0:0,0:0:0:0:
140,356,52390,2,0,P|182:364|217:337,1,90,2|10,3:2|0:0,0:0:0:0:
277,269,52881,1,2,3:2:0:0:
326,193,53127,1,10,0:0:0:0:
268,124,53373,6,0,L|279:80,1,45,6|10,3:2|0:3,0:0:0:0:
215,16,53742,2,0,L|85:48,1,135,6|2,3:2|3:2,0:0:0:0:
16,108,54357,2,0,P|16:130|25:150,1,45,6|8,3:2|0:0,0:0:0:0:
66,169,54603,2,0,P|75:189|75:211,1,45,8|8,0:0|0:0,0:0:0:0:
55,251,54849,1,2,0:0:0:0:
55,251,55340,6,0,L|142:272,1,90,6|8,3:2|0:0,0:0:0:0:
214,340,55832,2,0,L|301:319,2,90,2|8|0,3:2|0:0|3:2,0:0:0:0:
142,272,56570,1,10,0:0:0:0:
195,188,56816,2,0,L|184:144,1,45,2|0,3:2|3:2,0:0:0:0:
154,104,57062,6,0,P|112:90|96:49,2,90,10|0|10,0:0|3:2|0:0,0:0:0:0:
227,37,57799,1,0,3:2:0:0:
315,78,58045,2,0,B|362:67|342:45|390:31,2,90,10|0|10,0:0|3:2|0:0,0:0:0:0:
292,174,58783,2,0,L|303:218,1,45,2|0,3:2|3:2,0:0:0:0:
342,248,59029,2,0,L|331:292,1,45,10|0,0:0|0:0,0:0:0:0:
350,337,59275,6,0,B|390:358|390:358|431:338,1,90,6|8,3:2|0:0,0:0:0:0:
510,279,59767,2,0,L|489:191,1,90,2|8,3:2|0:0,0:0:0:0:
424,116,60258,2,0,L|445:28,2,90,2|8|0,3:2|0:0|3:2,0:0:0:0:
334,159,60996,1,10,0:0:0:0:
271,82,61242,5,6,3:2:0:0:
186,133,61488,2,0,P|180:154|184:176,1,45,10|2,0:0|3:2,0:0:0:0:
209,219,61734,2,0,P|212:241|207:262,1,45,0|8,3:2|0:3,0:0:0:0:
176,302,61980,1,10,0:0:0:0:
96,361,62226,2,0,L|8:340,2,90,6|6|6,3:2|3:2|3:2,0:0:0:0:
176,302,62963,2,0,L|220:313,1,45,8|8,0:0|0:0,0:0:0:0:
267,299,63209,6,0,B|278:252|300:272|314:224,1,90,6|10,3:2|0:0,0:0:0:0:
388,158,63701,2,0,P|430:172|446:213,2,90,2|8|0,3:2|0:0|3:2,0:0:0:0:
313,224,64439,1,10,0:0:0:0:
233,164,64685,1,2,3:2:0:0:
151,108,64931,6,0,L|172:20,2,90,10|0|10,0:0|3:2|0:0,0:0:0:0:
72,168,65668,1,0,3:2:0:0:
108,260,65914,2,0,B|67:280|67:280|27:259,2,90,10|0|10,0:0|3:2|0:0,0:0:0:0:
207,264,66652,2,0,L|251:275,1,45,2|0,3:2|3:2,0:0:0:0:
281,314,66898,2,0,L|325:325,1,45,10|0,0:0|0:0,0:0:0:0:
348,354,67144,6,0,B|425:342|385:299|461:289,1,135,6|2,3:2|0:0,0:0:0:0:
501,211,67881,1,2,3:2:0:0:
441,146,68127,2,0,L|417:48,2,101.250003862381,10|8|2,0:0|0:0|3:2,0:0:0:0:
354,165,69111,6,0,L|330:67,2,101.250003862381,2|10|2,3:2|0:0|3:2,0:0:0:0:
280,213,70095,2,0,P|235:195|223:148,1,101.250003862381,10|8,0:0|0:0,0:0:0:0:
197,112,70586,2,0,L|205:79,2,33.7500012874604,10|8|8,0:0|0:0|0:0,0:0:0:0:
112,138,71078,5,0,3:2:0:0:
112,138,72062,1,0,3:2:0:0:
112,138,73045,5,0,3:2:0:0:
60,211,73291,2,0,L|83:298,1,90,10|6,0:3|0:3,0:0:0:0:
164,336,73783,2,0,P|248:318|273:236,1,180,6|2,0:0|3:2,0:0:0:0:
197,187,74521,1,10,0:0:0:0:
226,102,74767,2,0,L|270:90,1,45,10|8,0:0|0:0,0:0:0:0:
313,79,75013,6,0,B|333:38|333:38|312:-2,2,90,6|8|2,3:2|0:0|3:2,0:0:0:0:
375,144,75750,2,0,L|364:188,1,45,10|0,0:0|0:0,0:0:0:0:
391,223,75996,2,0,L|367:309,1,90,2|8,3:2|0:0,0:0:0:0:
283,344,76488,2,0,P|262:337|246:321,1,45,8|8,0:0|0:3,0:0:0:0:
229,278,76734,1,4,0:3:0:0:
141,299,76980,1,6,3:2:0:0:
107,158,79931,6,0,B|88:196|-24:209|-26:40|121:-3|168:90|161:96|155:104|212:178|323:196|407:32|277:-15|240:43,1,540.000020599366,2|2,0:0|0:0,0:0:0:0:
240,45,83865,6,0,B|224:162|325:184|324:191|324:197|427:214|408:334,1,360,2|2,0:0|0:0,0:0:0:0:
256,192,85955,12,0,87062,0:0:0:0:
