osu file format v14

[General]
AudioFilename: audio.mp3
AudioLeadIn: 0
PreviewTime: 55279
Countdown: 0
SampleSet: Soft
StackLeniency: 0.4
Mode: 0
LetterboxInBreaks: 0
WidescreenStoryboard: 1

[Editor]
Bookmarks: 8127,15996,23865,39603,55340,78947
DistanceSpacing: 0.3
BeatDivisor: 4
GridSize: 32
TimelineZoom: 4.099998

[Metadata]
Title:Hanarenai Kyori (TV Size)
TitleUnicode:はなれない距離 (TV Size)
Artist:TrySail
ArtistUnicode:TrySail
Creator:Vanya2
Version:Insane
Source:阿波連さんははかれない
Tags:japanese anime op opening rock jrock j-rock pop jpop j-pop aharen-san wa hakarenai aharen san is indecipherable 麻倉もも asakura momo 雨宮天 amamiya sora 夏川椎菜 natsukawa shiina
BeatmapID:3550291
BeatmapSetID:1736987

[Difficulty]
HPDrainRate:4
CircleSize:4.2
OverallDifficulty:8
ApproachRate:8.8
SliderMultiplier:1.6
SliderTickRate:1

[Events]
//Background and Video events
0,0,"RazYAdC.jpg",0,0
Video,-120,"sss.mp4"
//Break Periods
2,39803,42277
//Storyboard Layer 0 (Background)
//Storyboard Layer 1 (Fail)
//Storyboard Layer 2 (Pass)
//Storyboard Layer 3 (Foreground)
//Storyboard Layer 4 (Overlay)
//Storyboard Sound Samples

[TimingPoints]
259,245.901639344262,4,2,1,50,1,0
259,-250,4,2,1,50,0,0
8004,-250,4,2,1,5,0,0
8127,-250,4,2,1,60,0,0
10586,-166.666666666667,4,2,1,60,0,0
10832,-133.333333333333,4,2,1,60,0,0
15996,-100,4,2,1,80,0,0
23865,-100,4,2,1,60,0,0
24357,-100,4,2,1,40,0,0
25586,-100,4,2,1,50,0,0
26816,-133.333333333333,4,2,1,50,0,0
27799,-133.333333333333,4,2,1,70,0,0
31980,-166.666666666667,4,2,1,50,0,0
34685,-133.333333333333,4,2,1,50,0,0
35668,-133.333333333333,4,2,1,70,0,0
39603,-133.333333333333,4,2,1,50,0,0
43537,-133.333333333333,4,2,1,60,0,0
47472,-100,4,2,1,60,0,0
47963,-200,4,2,1,60,0,0
48455,-166.666666666667,4,2,1,65,0,0
48947,-133.333333333333,4,2,1,65,0,0
49439,-111.111111111111,4,2,1,70,0,0
50422,-111.111111111111,4,2,1,80,0,0
51406,-111.111111111111,4,2,1,70,0,0
51898,-166.666666666667,4,2,1,70,0,0
52390,-133.333333333333,4,2,1,75,0,0
52881,-111.111111111111,4,2,1,75,0,0
53373,-111.111111111111,4,2,1,85,0,0
55340,-90.9090909090909,4,2,1,90,0,1
59459,-90.9090909090909,4,2,1,5,0,1
59521,-90.9090909090909,4,2,1,90,0,1
59951,-90.9090909090909,4,2,1,5,0,1
60013,-90.9090909090909,4,2,1,90,0,1
67144,-133.333333333333,4,2,1,70,0,1
68127,-200,4,2,1,70,0,1
70095,-133.333333333333,4,2,1,70,0,1
71324,-133.333333333333,4,2,1,40,0,1
72062,-133.333333333333,4,2,1,70,0,1
72308,-133.333333333333,4,2,1,40,0,1
73045,-133.333333333333,4,2,1,70,0,1
73291,-200,4,2,1,70,0,1
73783,-111.111111111111,4,2,1,80,0,1
75013,-90.9090909090909,4,2,1,90,0,1
76980,-90.9090909090909,4,2,1,90,0,0
77472,-90.9090909090909,4,2,1,50,0,0
79808,-90.9090909090909,4,2,1,5,0,0
79931,-250,4,2,1,40,0,0
81898,-250,4,2,1,40,0,0
83865,-333.333333333333,4,2,1,40,0,0
87062,-333.333333333333,4,2,1,5,0,0

[Colours]
Combo1 : 37,226,170
Combo2 : 152,250,165
Combo3 : 252,153,148
Combo4 : 168,228,239

[HitObjects]
388,384,259,6,0,L|354:258,1,128,2|2,0:0|0:0,0:0:0:0:
354,260,1242,1,0,0:0:0:0:
472,175,1488,2,0,L|454:237,1,64,2|2,0:0|0:0,0:0:0:0:
282,227,1980,6,0,P|322:184|388:188,2,128,2|2|2,0:0|0:0|0:0,0:0:0:0:
282,227,3455,1,2,0:0:0:0:
232,351,3701,2,0,L|215:288,1,64,2|2,0:0|0:0,0:0:0:0:
105,200,4193,6,0,L|141:76,1,128,2|2,0:0|0:0,0:0:0:0:
140,77,5177,1,2,0:0:0:0:
148,92,5422,1,2,0:0:0:0:
237,0,5668,2,0,L|220:66,1,64,2|2,0:0|0:0,0:0:0:0:
370,156,6160,6,0,L|342:61,2,96,2|2|2,0:0|0:0|0:0,0:0:0:0:
505,201,7144,2,0,B|368:217|451:283|317:305,1,224,2|0,0:0|0:0,0:0:0:0:
256,352,8127,5,0,3:2:0:0:
64,256,8373,2,0,L|81:317,2,64,2|2|2,0:0|0:0|0:0,0:0:0:0:
256,192,9111,5,0,3:2:0:0:
448,96,9357,2,0,L|430:157,2,64,2|2|2,0:0|0:0|0:0,0:0:0:0:
256,32,10095,5,0,3:2:0:0:
256,192,10340,1,2,0:0:0:0:
257,200,10463,1,8,0:0:0:0:
257,210,10586,2,0,L|257:268,1,47.9999985351563,10|0,0:3|0:0,0:0:0:0:
164,384,10832,6,0,B|151:274|97:341|79:234,1,179.999994506836,6|8,3:2|0:0,0:0:0:0:
177,172,11324,2,0,L|160:229,1,59.9999981689454,2|0,3:2|3:2,0:0:0:0:
14,186,11570,2,0,L|30:128,1,59.9999981689454,10|0,0:0|0:0,0:0:0:0:
112,108,11816,1,10,0:0:0:0:
112,108,11939,1,8,0:0:0:0:
78,28,12062,6,0,P|119:68|176:62,1,119.999996337891,6|8,3:2|0:0,0:0:0:0:
338,0,12554,2,0,P|322:25|324:54,1,59.9999981689454,2|0,3:2|0:0,0:0:0:0:
255,93,12799,2,0,P|269:118|295:132,1,59.9999981689454,10|0,0:0|0:0,0:0:0:0:
414,276,13045,6,0,L|430:218,1,59.9999981689454,2|0,3:2|3:2,0:0:0:0:
336,254,13291,2,0,L|352:196,1,59.9999981689454,8|0,0:0|3:2,0:0:0:0:
206,384,13537,6,0,L|189:326,1,59.9999981689454,8|8,0:0|0:3,0:0:0:0:
284,362,13783,2,0,L|267:304,1,59.9999981689454,4|0,0:3|3:2,0:0:0:0:
187,146,14029,5,6,3:2:0:0:
187,146,15013,5,2,0:0:0:0:
185,157,15258,1,2,0:0:0:0:
183,168,15504,1,2,0:0:0:0:
181,179,15750,1,2,0:0:0:0:
0,284,15996,6,0,B|87:302|47:343|134:365,1,160,4|10,3:2|0:0,0:0:0:0:
331,238,16488,2,0,P|395:276|381:350,1,160,2|8,3:2|0:0,0:0:0:0:
210,264,16980,6,0,L|252:109,1,160,2|8,3:2|0:0,0:0:0:0:
128,242,17349,2,0,L|170:87,1,160,2|0,3:2|3:2,0:0:0:0:
230,30,17718,1,10,0:0:0:0:
230,30,17840,1,2,0:0:0:0:
252,109,17963,6,0,P|325:123|364:58,1,160,0|10,3:2|0:0,0:0:0:0:
115,159,18455,2,0,P|39:157|15:86,1,160,2|8,3:2|0:0,0:0:0:0:
210,264,18947,6,0,L|364:306,1,160,2|8,3:2|0:0,0:0:0:0:
270,197,19316,2,0,L|347:218,1,80,2|0,3:2|3:2,0:0:0:0:
475,108,19562,1,0,3:2:0:0:
386,86,19685,2,0,L|407:163,1,80,10|0,0:0|0:0,0:0:0:0:
494,328,19931,6,0,P|437:278|371:315,1,160,6|10,3:2|0:0,0:0:0:0:
367,328,20258,6,0,L|315:342,1,53.3333333333333,8|8,0:0|0:0,0:0:0:0:
196,315,20422,6,0,B|223:230|168:244|192:158,1,160,10|10,3:2|0:0,0:0:0:0:
188,149,20750,6,0,L|136:134,1,53.3333333333333,8|8,0:0|0:0,0:0:0:0:
5,279,20914,6,0,L|159:236,1,160,10|10,3:2|0:0,0:0:0:0:
168,229,21242,6,0,L|219:243,1,53.3333333333333,8|8,0:0|0:0,0:0:0:0:
317,126,21406,6,0,L|295:48,1,80,10|8,0:3|0:0,0:0:0:0:
417,179,21652,2,0,L|438:101,1,80,6|0,0:3|3:1,0:0:0:0:
245,226,21898,5,10,3:2:0:0:
367,266,22144,1,0,3:2:0:0:
367,266,22267,1,10,3:2:0:0:
486,308,22513,1,0,3:2:0:0:
486,308,22636,1,10,3:2:0:0:
336,369,22881,5,6,3:2:0:0:
336,369,23865,5,2,3:2:0:0:
73,189,25586,5,2,3:2:0:0:
372,68,26816,6,0,L|356:10,1,59.9999981689454,2|0,0:0|0:0,0:0:0:0:
279,30,27062,2,0,L|295:88,1,59.9999981689454,8|8,0:3|0:0,0:0:0:0:
431,127,27308,1,8,0:0:0:0:
372,68,27431,1,8,0:0:0:0:
333,228,27554,1,8,0:0:0:0:
413,206,27677,1,8,0:0:0:0:
264,166,27799,6,0,L|232:282,1,120.000004577637,6|8,3:2|0:0,0:0:0:0:
19,204,28291,2,0,P|43:187|72:188,1,59.9999981689454,2|0,3:2|0:0,0:0:0:0:
95,264,28537,2,0,P|70:280|41:279,1,59.9999981689454,10|0,0:0|0:0,0:0:0:0:
168,202,28783,6,0,L|136:86,1,120.000004577637,2|8,3:2|0:0,0:0:0:0:
191,14,29152,2,0,P|248:6|290:47,1,119.999996337891,0|0,3:2|3:2,0:0:0:0:
391,118,29521,6,0,B|456:104|426:73|491:58,2,120.000004577637,10|0|10,0:0|3:2|0:0,0:0:0:0:
232,281,30258,1,2,3:2:0:0:
232,281,30381,1,0,3:2:0:0:
316,298,30504,2,0,L|284:182,1,120.000004577637,10|0,0:0|3:2,0:0:0:0:
502,140,30996,6,0,L|486:198,1,60.0000022888184,10|0,0:0|3:2,0:0:0:0:
430,255,31242,1,10,0:0:0:0:
430,255,31365,1,8,0:3:0:0:
489,312,31488,2,0,P|432:304|390:345,1,119.999996337891,6|4,0:3|3:2,0:0:0:0:
191,207,31980,6,0,L|283:181,1,95.9999970703126,2|2,0:0|3:2,0:0:0:0:
174,338,32472,1,2,3:2:0:0:
100,167,32718,2,0,L|124:74,1,95.9999970703126,2|2,3:2|3:2,0:0:0:0:
183,23,33086,1,2,3:2:0:0:
183,23,33209,1,0,3:2:0:0:
301,97,33455,6,0,B|353:108|329:133|381:145,2,95.9999970703126,2|0|2,3:2|3:2|0:0,0:0:0:0:
301,97,34193,1,2,3:2:0:0:
100,167,34439,1,2,3:2:0:0:
250,361,34685,6,0,L|266:303,1,59.9999981689454,0|8,3:2|0:3,0:0:0:0:
190,280,34931,2,0,L|174:338,1,59.9999981689454,6|8,0:3|0:0,0:0:0:0:
324,242,35177,1,10,0:0:0:0:
265,303,35299,1,8,0:0:0:0:
192,153,35422,1,10,0:0:0:0:
246,217,35545,1,8,0:0:0:0:
329,86,35668,6,0,P|385:71|430:107,1,119.999996337891,6|8,3:2|0:0,0:0:0:0:
421,337,36160,2,0,L|405:279,1,59.9999981689454,2|0,3:2|0:0,0:0:0:0:
490,169,36406,2,0,L|474:226,1,59.9999981689454,10|0,0:0|0:0,0:0:0:0:
324,242,36652,6,0,B|259:228|289:197|224:182,1,120.000004577637,2|8,3:2|0:0,0:0:0:0:
168,304,37021,1,0,3:2:0:0:
168,304,37144,2,0,P|194:290|206:263,1,59.9999981689454,2|0,0:0|3:2,0:0:0:0:
99,159,37390,6,0,L|67:43,2,120.000004577637,14|0|10,0:0|3:2|0:0,0:0:0:0:
35,324,38127,1,2,3:2:0:0:
35,324,38250,1,0,3:2:0:0:
110,288,38373,2,0,L|167:304,1,59.9999981689454,10|0,0:0|0:0,0:0:0:0:
281,165,38619,6,0,L|223:181,1,59.9999981689454,2|0,3:2|0:0,0:0:0:0:
338,312,38865,1,10,0:0:0:0:
338,312,38988,1,0,3:2:0:0:
248,321,39111,2,0,L|264:263,1,59.9999981689454,10|8,0:0|0:3,0:0:0:0:
420,195,39357,2,0,L|404:252,1,59.9999981689454,4|0,0:3|3:2,0:0:0:0:
231,96,39603,5,4,3:2:0:0:
474,14,42922,5,8,0:0:0:0:
474,14,43045,1,10,0:0:0:0:
355,79,43291,1,10,0:3:0:0:
237,141,43537,6,0,B|139:120|184:74|86:50,1,180.000006866455,6|2,3:2|3:2,0:0:0:0:
240,237,44275,2,0,B|337:216|292:170|390:146,1,180.000006866455,6|0,3:2|0:0,0:0:0:0:
466,195,44767,5,10,0:3:0:0:
466,195,44890,2,0,L|450:253,2,59.9999981689454,8|8|4,0:3|0:3|0:3,0:0:0:0:
378,291,45258,2,0,L|394:349,1,59.9999981689454,2|0,3:2|0:0,0:0:0:0:
318,234,45504,6,0,P|262:206|211:260,1,120.000004577637,6|10,3:2|0:0,0:0:0:0:
181,310,45873,1,2,3:2:0:0:
9,216,46119,1,2,3:2:0:0:
9,216,46242,2,0,P|43:164|114:185,1,120.000004577637,6|0,3:2|0:0,0:0:0:0:
136,240,46611,1,8,0:0:0:0:
176,161,46734,6,0,L|160:103,1,59.9999981689454,2|0,3:2|0:0,0:0:0:0:
297,0,46980,2,0,L|313:58,1,59.9999981689454,8|0,0:0|0:0,0:0:0:0:
228,54,47226,1,8,0:0:0:0:
228,54,47349,1,8,0:0:0:0:
331,137,47472,6,0,B|418:156|378:196|464:218,1,160,6|10,3:2|0:0,0:0:0:0:
328,384,47963,2,0,L|312:326,3,40,2|8|10|10,3:2|0:0|0:0|0:0,0:0:0:0:
224,380,48455,2,0,L|236:333,3,47.9999985351563,2|10|8|10,3:2|0:0|0:0|0:0,0:0:0:0:
130,322,48947,2,0,L|172:279,3,60.0000022888184,0|8|10|8,3:2|0:0|0:0|0:0,0:0:0:0:
80,215,49439,6,0,L|149:196,1,71.9999978027344,2|10,3:2|0:0,0:0:0:0:
291,64,49685,2,0,L|221:82,1,71.9999978027344,10|10,0:0|0:0,0:0:0:0:
264,248,49931,2,0,L|245:178,1,71.9999978027344,2|10,3:2|0:0,0:0:0:0:
107,36,50177,2,0,L|125:105,1,71.9999978027344,10|8,0:0|0:0,0:0:0:0:
343,194,50422,5,6,3:2:0:0:
402,142,50545,2,0,L|383:72,1,71.9999978027344,2|0,3:2|0:0,0:0:0:0:
278,244,50791,2,0,L|315:382,1,143.999995605469,6|0,3:2|0:0,0:0:0:0:
388,344,51160,2,0,L|369:274,1,71.9999978027344,2|0,3:2|0:0,0:0:0:0:
261,159,51406,6,0,P|237:223|168:230,1,143.999995605469,4|10,3:2|0:0,0:0:0:0:
0,97,51898,2,0,P|19:82|42:81,3,47.9999985351563,2|8|10|10,3:2|0:0|0:0|0:0,0:0:0:0:
78,5,52390,2,0,P|104:18|119:44,3,60.0000022888184,2|10|10|10,3:2|0:0|0:0|0:0,0:0:0:0:
204,45,52881,2,0,P|202:80|182:109,1,71.9999978027344,2|8,3:2|0:0,0:0:0:0:
228,175,53127,2,0,P|196:190|161:187,1,71.9999978027344,10|8,0:2|0:0,0:0:0:0:
0,293,53373,5,6,3:2:0:0:
58,238,53496,2,0,P|93:239|122:259,1,71.9999978027344,10|4,0:3|0:3,0:0:0:0:
256,366,53742,6,0,P|212:313|239:250,1,143.999995605469,6|8,3:2|0:3,0:0:0:0:
320,263,54111,2,0,P|338:294|333:329,1,71.9999978027344,2|4,3:2|0:3,0:0:0:0:
236,240,54357,1,6,3:2:0:0:
297,176,54479,1,8,0:0:0:0:
256,97,54603,1,8,0:0:0:0:
317,33,54726,1,8,0:0:0:0:
312,17,54849,5,2,0:0:0:0:
0,232,55340,6,0,B|108:260|108:260|95:307|133:343,1,176.000005371094,6|8,3:2|0:0,0:0:0:0:
189,363,55709,1,0,3:2:0:0:
328,261,55832,2,0,P|252:225|188:278,2,176.000005371094,2|8|0,3:2|0:0|3:2,0:0:0:0:
367,333,56447,1,0,0:0:0:0:
464,267,56570,6,0,L|487:182,1,88.000002685547,10|0,0:0|0:0,0:0:0:0:
297,96,56816,1,2,3:2:0:0:
343,166,56939,1,0,3:2:0:0:
438,86,57062,6,0,B|373:68|373:68|355:31|355:31|290:13,2,176.000005371094,10|0|10,0:0|3:2|0:0,0:0:0:0:
188,277,57799,2,0,L|164:192,1,88.000002685547,0|0,3:2|0:0,0:0:0:0:
45,76,58045,6,0,P|-7:140|28:215,2,176.000005371094,10|0|10,0:0|3:2|0:0,0:0:0:0:
113,126,58660,1,0,0:0:0:0:
264,104,58783,2,0,P|290:70|291:27,1,88.000002685547,2|0,3:2|3:2,0:0:0:0:
206,40,59029,1,10,0:0:0:0:
206,40,59152,1,0,0:0:0:0:
303,191,59275,6,0,B|374:205|341:239|413:257,1,132.00000402832,6|0,3:2|0:0,0:0:0:0:
426,256,59521,2,0,P|452:222|453:179,1,88.000002685547,8|0,0:0|3:2,0:0:0:0:
284,278,59767,2,0,B|212:292|245:326|173:344,1,132.00000402832,2|0,3:2|0:0,0:0:0:0:
161,343,60013,2,0,P|134:309|133:266,1,88.000002685547,8|0,0:0|3:2,0:0:0:0:
248,113,60258,6,0,L|296:283,2,176.000005371094,2|8|0,3:2|0:0|3:2,0:0:0:0:
179,69,60873,1,0,3:2:0:0:
90,145,60996,2,0,L|5:121,1,88.000002685547,10|0,0:0|0:0,0:0:0:0:
140,218,61242,6,0,L|225:194,1,88.000002685547,6|0,3:2|0:0,0:0:0:0:
316,70,61488,1,10,0:0:0:0:
248,113,61611,1,2,3:2:0:0:
382,212,61734,1,0,3:2:0:0:
450,169,61857,1,8,0:3:0:0:
349,142,61980,1,10,0:0:0:0:
313,251,62103,1,0,0:0:0:0:
426,285,62226,5,6,3:2:0:0:
247,28,62472,1,6,3:2:0:0:
93,290,62718,1,6,3:2:0:0:
256,192,62963,1,8,0:0:0:0:
256,192,63086,1,8,0:0:0:0:
163,124,63209,6,0,L|333:172,1,176.000005371094,6|10,3:2|0:0,0:0:0:0:
387,231,63578,1,0,3:2:0:0:
242,295,63701,2,0,B|145:313|189:359|94:383,2,176.000005371094,2|8|0,3:2|0:0|3:2,0:0:0:0:
311,253,64316,1,0,0:0:0:0:
180,150,64439,2,0,P|153:183|152:226,1,88.000002685547,10|0,0:0|0:0,0:0:0:0:
283,114,64685,2,0,P|267:74|231:51,1,88.000002685547,2|0,3:2|3:2,0:0:0:0:
64,165,64931,6,0,L|234:213,2,176.000005371094,10|0|10,0:0|3:2|0:0,0:0:0:0:
264,378,65668,2,0,L|240:293,1,88.000002685547,0|0,3:2|0:0,0:0:0:0:
354,168,65914,6,0,B|451:186|407:232|502:256,2,176.000005371094,10|0|10,0:0|3:2|0:0,0:0:0:0:
283,114,66529,1,8,0:0:0:0:
381,0,66652,2,0,L|357:85,1,88.000002685547,2|0,3:2|3:2,0:0:0:0:
287,31,66898,1,10,0:0:0:0:
287,31,67021,1,0,0:0:0:0:
201,133,67144,6,0,B|112:157|112:157|88:207|88:207|0:232,1,240.000009155274,6|2,3:2|0:0,0:0:0:0:
0,232,67881,1,2,3:2:0:0:
139,343,68127,2,0,B|171:227,2,120,10|8|2,0:0|0:0|3:2,0:0:0:0:
250,249,69111,6,0,L|217:364,2,120,2|10|2,3:2|0:0|3:2,0:0:0:0:
229,171,70095,2,0,P|275:236|373:214,1,180.000006866455,10|8,0:0|0:0,0:0:0:0:
412,158,70586,2,0,B|396:100,1,60.0000022888184,10|8,0:0|0:0,0:0:0:0:
376,23,70832,1,8,0:0:0:0:
441,265,71078,5,0,3:2:0:0:
438,280,72062,1,0,3:2:0:0:
435,295,73045,5,0,3:2:0:0:
380,351,73291,2,0,P|340:351|309:328,1,80,10|6,0:3|0:3,0:0:0:0:
237,228,73783,6,0,L|296:20,1,215.999993408203,6|0,0:0|0:0,0:0:0:0:
123,94,74275,2,0,L|141:163,1,71.9999978027344,2|0,3:2|3:2,0:0:0:0:
205,61,74521,1,10,0:0:0:0:
205,61,74644,1,0,0:0:0:0:
306,158,74767,1,10,0:0:0:0:
225,146,74890,1,8,0:0:0:0:
318,39,75013,6,0,L|376:243,1,176.000005371094,6|8,3:2|0:0,0:0:0:0:
508,343,75504,1,2,3:2:0:0:
508,343,75627,1,0,0:0:0:0:
446,237,75750,2,0,L|423:322,1,88.000002685547,10|0,0:0|0:0,0:0:0:0:
294,379,75996,6,0,B|197:360|241:314|146:290,1,176.000005371094,2|8,3:2|0:0,0:0:0:0:
7,149,76488,1,8,0:0:0:0:
7,149,76611,1,8,0:3:0:0:
110,60,76734,2,0,L|87:145,1,88.000002685547,4|0,0:3|3:2,0:0:0:0:
30,349,76980,5,6,3:2:0:0:
256,192,78701,12,0,79808,0:0:0:0:
465,96,79931,6,0,B|386:91|362:157|362:157|373:88|307:53,1,256,2|2,0:0|0:0,0:0:0:0:
84,181,81898,6,0,B|14:171|-20:101|19:33|19:33|39:65|76:68,1,256,2|2,0:0|0:0,0:0:0:0:
242,346,83865,6,0,B|141:310|156:385|56:349,1,191.999994140625,2|2,0:0|0:0,0:0:0:0:
482,177,85832,6,0,B|448:126|370:155|367:262|460:292,1,239.999992675781,2|0,0:0|0:0,0:0:0:0:
