osu file format v14

[General]
AudioFilename: audio.mp3
AudioLeadIn: 0
PreviewTime:55279
Countdown: 0
SampleSet: Soft
StackLeniency: 0.4
Mode: 0
LetterboxInBreaks: 0
WidescreenStoryboard: 1

[Editor]
Bookmarks: 8127,15996,23865,39603,55340,78947
DistanceSpacing: 1.4
BeatDivisor: 4
GridSize: 32
TimelineZoom: 4.299999

[Metadata]
Title:Hanarenai Kyori (TV Size)
TitleUnicode:はなれない距離 (TV Size)
Artist:TrySail
ArtistUnicode:TrySail
Creator:Vanya2
Version:Hard
Source:阿波連さんははかれない
Tags:japanese anime op opening rock jrock j-rock pop jpop j-pop aharen-san wa hakarenai aharen san is indecipherable 麻倉もも asakura momo 雨宮天 amamiya sora 夏川椎菜 natsukawa shiina
BeatmapID:3550289
BeatmapSetID:1736987

[Difficulty]
HPDrainRate:3.5
CircleSize:3.6
OverallDifficulty:7
ApproachRate:8
SliderMultiplier:1.2
SliderTickRate:1

[Events]
//Background and Video events
0,0,"RazYAdC.jpg",0,0
Video,-120,"sss.mp4"
//Break Periods
2,39803,42172
//Storyboard Layer 0 (Background)
//Storyboard Layer 1 (Fail)
//Storyboard Layer 2 (Pass)
//Storyboard Layer 3 (Foreground)
//Storyboard Layer 4 (Overlay)
//Storyboard Sound Samples

[TimingPoints]
259,245.901639344262,4,2,1,50,1,0
259,-166.666666666667,4,2,1,50,0,0
8127,-166.666666666667,4,2,1,60,0,0
10340,-133.333333333333,4,2,1,60,0,0
12062,-111.111111111111,4,2,1,60,0,0
15996,-100,4,2,1,80,0,0
23865,-133.333333333333,4,2,1,60,0,0
24357,-133.333333333333,4,2,1,40,0,0
25586,-133.333333333333,4,2,1,50,0,0
27185,-111.111111111111,4,2,1,50,0,0
27799,-111.111111111111,4,2,1,70,0,0
31980,-166.666666666667,4,2,1,50,0,0
35177,-111.111111111111,4,2,1,50,0,0
35668,-111.111111111111,4,2,1,70,0,0
39603,-111.111111111111,4,2,1,50,0,0
43537,-111.111111111111,4,2,1,60,0,0
48455,-111.111111111111,4,2,1,65,0,0
49439,-111.111111111111,4,2,1,70,0,0
50422,-111.111111111111,4,2,1,80,0,0
51406,-111.111111111111,4,2,1,70,0,0
52390,-111.111111111111,4,2,1,75,0,0
53373,-111.111111111111,4,2,1,85,0,0
55340,-100,4,2,1,90,0,1
67144,-133.333333333333,4,2,1,70,0,1
70586,-100,4,2,1,70,0,1
71324,-100,4,2,1,40,0,1
72062,-100,4,2,1,70,0,1
72308,-100,4,2,1,40,0,1
73045,-100,4,2,1,70,0,1
73291,-133.333333333333,4,2,1,70,0,1
73783,-133.333333333333,4,2,1,80,0,1
75013,-100,4,2,1,90,0,1
76980,-100,4,2,1,90,0,0
77472,-100,4,2,1,50,0,0
79562,-100,4,2,1,5,0,0
79931,-200,4,2,1,40,0,0
87062,-200,4,2,1,5,0,0

[Colours]
Combo1 : 37,226,170
Combo2 : 152,250,165
Combo3 : 252,153,148
Combo4 : 168,228,239

[HitObjects]
511,279,259,6,0,L|371:315,2,143.999995605469,2|2|0,0:0|0:0|0:0,0:0:0:0:
459,209,1488,2,0,L|376:231,1,71.9999978027344,2|2,0:0|0:0,0:0:0:0:
320,175,1980,6,0,B|346:95|293:114|319:34,2,143.999995605469,2|2|2,0:0|0:0|0:0,0:0:0:0:
182,279,3455,1,2,0:0:0:0:
182,279,3701,2,0,L|160:195,1,71.9999978027344,2|2,0:0|0:0,0:0:0:0:
96,154,4193,6,0,L|132:14,1,143.999995605469,2|2,0:0|0:0,0:0:0:0:
131,14,5177,1,2,0:0:0:0:
205,56,5422,2,0,L|186:125,1,71.9999978027344,2|2,0:0|0:0,0:0:0:0:
246,189,5914,1,2,0:0:0:0:
246,189,6160,6,0,P|313:180|333:144,2,107.999996704102,2|2|2,0:0|0:0|0:0,0:0:0:0:
186,125,7144,1,2,0:0:0:0:
186,125,8127,5,0,3:2:0:0:
396,324,9111,1,0,3:2:0:0:
186,125,10095,1,0,3:2:0:0:
86,227,10340,2,0,L|97:270,2,45.0000017166138,2|8|10,0:0|0:0|0:3,0:0:0:0:
210,357,10832,6,0,B|286:340|246:306|323:290,1,135.000005149841,6|8,3:2|0:0,0:0:0:0:
396,324,11324,1,2,3:2:0:0:
494,195,11570,1,10,0:0:0:0:
394,67,11816,2,0,L|351:78,1,45.0000017166138,10|8,0:0|0:0,0:0:0:0:
260,140,12062,6,0,L|155:113,1,107.999996704102,6|8,3:2|0:0,0:0:0:0:
16,216,12554,2,0,P|7:267|40:308,1,107.999996704102,2|10,3:2|0:0,0:0:0:0:
198,377,13045,6,0,L|211:324,1,53.9999983520508,2|0,3:2|3:2,0:0:0:0:
292,293,13291,2,0,L|305:240,1,53.9999983520508,8|0,0:0|3:2,0:0:0:0:
392,242,13537,2,0,P|389:215|377:191,1,53.9999983520508,8|8,0:0|0:3,0:0:0:0:
419,115,13783,2,0,P|394:103|367:102,1,53.9999983520508,4|0,0:3|3:2,0:0:0:0:
297,153,14029,5,6,3:2:0:0:
191,0,15013,6,0,L|217:104,1,107.999996704102,2|2,0:0|0:0,0:0:0:0:
50,147,15504,2,0,L|23:42,1,107.999996704102,2|2,0:0|0:0,0:0:0:0:
152,185,15996,6,0,L|122:301,1,120,4|10,3:2|0:0,0:0:0:0:
283,383,16488,2,0,B|350:367|315:337|383:323,1,120,2|8,3:2|0:0,0:0:0:0:
507,192,16980,6,0,P|460:157|405:174,1,120,2|8,3:2|0:0,0:0:0:0:
334,231,17349,2,0,L|304:114,1,120,2|0,3:2|3:2,0:0:0:0:
342,32,17718,1,10,0:0:0:0:
163,51,17963,6,0,L|148:109,1,60,0|0,3:2|0:0,0:0:0:0:
72,159,18209,2,0,L|86:217,1,60,10|0,0:0|3:2,0:0:0:0:
40,295,18455,6,0,P|86:260|141:277,1,120,2|8,3:2|0:0,0:0:0:0:
299,189,18947,2,0,P|305:131|262:92,1,120,2|8,3:2|0:0,0:0:0:0:
207,165,19316,2,0,L|237:282,1,120,2|0,3:2|3:2,0:0:0:0:
261,368,19685,1,10,0:0:0:0:
418,252,19931,1,6,3:2:0:0:
376,76,20177,6,0,L|366:114,3,40,10|8|8|10,0:0|0:0|0:0|3:2,0:0:0:0:
216,160,20668,2,0,L|207:199,3,40,10|8|8|10,0:0|0:0|0:0|3:2,0:0:0:0:
103,19,21160,2,0,L|93:57,3,40,10|8|8|10,0:0|0:0|0:0|0:3,0:0:0:0:
23,114,21529,5,8,0:0:0:0:
23,114,21652,2,0,L|37:172,1,60,6|0,0:3|3:1,0:0:0:0:
111,224,21898,6,0,P|167:237|189:290,1,120,10|0,3:2|3:2,0:0:0:0:
250,358,22267,2,0,P|307:365|347:323,1,120,10|0,3:2|3:2,0:0:0:0:
437,314,22636,2,0,L|423:256,1,60,10|0,3:2|0:0,0:0:0:0:
404,167,22881,1,6,3:2:0:0:
404,167,23865,5,2,3:2:0:0:
255,0,25586,1,2,3:2:0:0:
106,165,26816,6,0,L|127:252,1,90.0000034332277,2|8,0:0|0:3,0:0:0:0:
73,322,27185,1,8,0:0:0:0:
73,322,27308,2,0,L|20:309,1,53.9999983520508,8|8,0:0|0:0,0:0:0:0:
133,383,27554,2,0,L|186:370,1,53.9999983520508,8|8,0:0|0:0,0:0:0:0:
270,383,27799,6,0,P|303:342|294:290,1,107.999996704102,6|8,3:2|0:0,0:0:0:0:
234,235,28168,1,0,3:2:0:0:
234,235,28291,2,0,P|225:183|258:142,1,107.999996704102,2|10,3:2|0:0,0:0:0:0:
366,6,28783,6,0,L|391:110,1,107.999996704102,2|8,3:2|0:0,0:0:0:0:
445,179,29152,2,0,B|384:193|416:220|355:232,1,107.999996704102,0|0,3:2|3:2,0:0:0:0:
294,290,29521,6,0,B|233:275|265:248|204:236,2,107.999996704102,10|0|10,0:0|3:2|0:0,0:0:0:0:
148,383,30258,2,0,L|135:330,1,53.9999983520508,2|0,3:2|3:2,0:0:0:0:
68,274,30504,2,0,L|93:169,1,107.999996704102,10|0,0:0|3:2,0:0:0:0:
0,22,30996,6,0,P|1:48|13:72,1,53.9999983520508,10|0,0:0|3:2,0:0:0:0:
83,0,31242,2,0,P|95:22|97:49,1,53.9999983520508,10|8,0:0|0:3,0:0:0:0:
77,133,31488,1,6,0:3:0:0:
198,256,31734,5,4,3:2:0:0:
271,166,31980,2,0,L|262:131,2,35.9999989013672,2|2|2,0:0|3:2|3:2,0:0:0:0:
371,222,32472,1,2,3:2:0:0:
471,278,32718,2,0,L|488:208,1,71.9999978027344,2|2,3:2|3:2,0:0:0:0:
503,152,33086,1,2,3:2:0:0:
374,36,33455,6,0,L|391:105,2,71.9999978027344,2|0|2,3:2|3:2|0:0,0:0:0:0:
312,134,34193,2,0,P|276:135|249:113,1,71.9999978027344,2|2,3:2|3:2,0:0:0:0:
168,29,34685,5,0,3:2:0:0:
63,78,34931,1,6,0:3:0:0:
77,193,35177,2,0,L|130:205,1,53.9999983520508,10|8,0:0|0:0,0:0:0:0:
181,274,35422,2,0,L|234:286,1,53.9999983520508,10|8,0:0|0:0,0:0:0:0:
308,242,35668,6,0,B|325:182|286:196|306:137,1,107.999996704102,6|8,3:2|0:0,0:0:0:0:
379,88,36037,1,0,3:2:0:0:
379,88,36160,2,0,P|428:106|446:155,1,107.999996704102,2|10,3:2|0:0,0:0:0:0:
490,323,36652,6,0,L|385:297,1,107.999996704102,2|8,3:2|0:0,0:0:0:0:
310,339,37021,1,0,3:2:0:0:
310,339,37144,1,2,0:0:0:0:
211,197,37390,6,0,L|236:92,2,107.999996704102,14|0|10,0:0|3:2|0:0,0:0:0:0:
146,253,38004,1,0,0:0:0:0:
146,253,38127,2,0,P|94:261|53:228,1,107.999996704102,2|10,3:2|0:0,0:0:0:0:
19,58,38619,6,0,P|45:52|71:58,1,53.9999983520508,2|0,3:2|0:0,0:0:0:0:
133,2,38865,2,0,P|150:22|158:47,1,53.9999983520508,10|0,0:0|3:2,0:0:0:0:
242,66,39111,2,0,P|233:91|215:111,1,53.9999983520508,10|8,0:0|0:3,0:0:0:0:
129,128,39357,1,4,0:3:0:0:
238,262,39603,5,4,3:2:0:0:
403,384,42922,6,0,L|415:331,1,53.9999983520508,8|10,0:0|0:0,0:0:0:0:
454,162,43291,1,10,0:3:0:0:
314,60,43537,6,0,B|231:81|231:81|207:121|207:121|125:142,1,215.999993408203,6|0,3:2|3:2,0:0:0:0:
5,192,44275,2,0,P|101:171|133:265,1,215.999993408203,6|10,3:2|0:3,0:0:0:0:
67,320,44890,1,8,0:3:0:0:
67,320,45013,2,0,L|14:307,2,53.9999983520508,8|4|2,0:3|0:3|3:2,0:0:0:0:
228,381,45504,6,0,B|254:258|308:322|334:200,1,215.999993408203,6|0,3:2|3:2,0:0:0:0:
421,105,46242,2,0,B|369:75|381:13|381:13|360:73|301:74,1,215.999993408203,6|2,3:2|3:2,0:0:0:0:
334,200,46980,1,8,0:0:0:0:
367,325,47226,2,0,L|314:312,1,53.9999983520508,8|8,0:0|0:0,0:0:0:0:
256,247,47472,6,0,L|151:272,1,107.999996704102,6|10,3:2|0:0,0:0:0:0:
37,141,47963,2,0,L|49:88,3,53.9999983520508,2|8|10|10,3:2|0:0|0:0|0:0,0:0:0:0:
132,62,48455,2,0,L|144:9,3,53.9999983520508,2|10|8|10,3:2|0:0|0:0|0:0,0:0:0:0:
178,177,48947,2,0,L|191:125,3,53.9999983520508,0|8|10|8,3:2|0:0|0:0|0:0,0:0:0:0:
270,89,49439,5,2,3:2:0:0:
279,94,49562,1,10,0:0:0:0:
288,99,49685,2,0,L|340:86,1,53.9999983520508,10|10,0:0|0:0,0:0:0:0:
421,117,49931,5,2,3:2:0:0:
430,122,50054,1,10,0:0:0:0:
439,127,50177,2,0,L|491:114,1,53.9999983520508,10|8,0:0|0:0,0:0:0:0:
401,205,50422,5,6,3:2:0:0:
401,205,50545,2,0,L|348:192,1,53.9999983520508,2|0,3:2|0:0,0:0:0:0:
450,277,50791,2,0,L|293:314,1,161.999995056153,6|2,3:2|3:2,0:0:0:0:
202,164,51406,6,0,P|242:131|294:140,1,107.999996704102,4|10,3:2|0:0,0:0:0:0:
197,284,51898,2,0,L|145:271,3,53.9999983520508,2|8|10|10,3:2|0:0|0:0|0:0,0:0:0:0:
30,222,52390,2,0,L|82:209,3,53.9999983520508,2|10|10|10,3:2|0:0|0:0|0:0,0:0:0:0:
121,131,52881,2,0,L|108:78,1,53.9999983520508,2|8,3:2|0:0,0:0:0:0:
192,57,53127,2,0,L|205:110,1,53.9999983520508,10|8,0:0|0:0,0:0:0:0:
271,173,53373,5,6,3:2:0:0:
271,173,53496,2,0,L|324:186,1,53.9999983520508,10|4,0:3|0:3,0:0:0:0:
391,131,53742,2,0,P|399:79|366:38,1,107.999996704102,6|8,3:2|0:3,0:0:0:0:
283,12,54111,1,2,3:2:0:0:
176,148,54357,5,6,3:2:0:0:
171,157,54480,1,8,0:0:0:0:
166,166,54603,2,0,L|179:218,1,53.9999983520508,8|8,0:0|0:0,0:0:0:0:
201,302,54849,1,2,0:0:0:0:
400,382,55340,6,0,L|430:265,1,120,6|8,3:2|0:0,0:0:0:0:
376,207,55709,1,0,3:2:0:0:
376,207,55832,2,0,P|431:224|477:189,2,120,2|8|0,3:2|0:0|3:2,0:0:0:0:
279,68,56570,6,0,L|264:125,1,60,10|0,0:0|0:0,0:0:0:0:
190,169,56816,2,0,L|204:226,1,60,2|0,3:2|3:2,0:0:0:0:
134,275,57062,6,0,B|66:259|101:229|36:212,2,120,10|0|10,0:0|3:2|0:0,0:0:0:0:
187,347,57677,1,0,3:2:0:0:
187,347,57799,2,0,P|216:351|243:340,1,60,0|0,3:2|0:0,0:0:0:0:
301,277,58045,6,0,L|271:160,2,120,10|0|10,0:0|3:2|0:0,0:0:0:0:
379,320,58660,1,0,0:0:0:0:
379,320,58783,2,0,L|436:305,1,60,2|0,3:2|3:2,0:0:0:0:
481,232,59029,2,0,P|470:204|447:185,1,60,10|0,0:0|0:0,0:0:0:0:
450,82,59275,6,0,B|404:93|404:93|391:115|391:115|346:127,1,120,6|8,3:2|0:0,0:0:0:0:
196,206,59767,2,0,L|210:148,1,60,2|0,3:2|0:0,0:0:0:0:
232,65,60013,1,8,0:0:0:0:
69,26,60258,6,0,L|99:143,2,120,2|8|0,3:2|0:0|3:2,0:0:0:0:
155,47,60873,1,0,3:2:0:0:
155,47,60996,1,10,0:0:0:0:
5,185,61242,6,0,P|62:182|98:228,1,120,6|10,3:2|0:0,0:0:0:0:
145,304,61611,1,2,3:2:0:0:
145,304,61734,2,0,L|202:318,1,60,0|8,3:2|0:3,0:0:0:0:
284,340,61980,1,10,0:0:0:0:
437,205,62226,5,6,3:2:0:0:
243,140,62472,1,6,3:2:0:0:
284,340,62718,1,6,3:2:0:0:
319,239,62963,2,0,L|333:182,1,60,8|8,0:0|0:0,0:0:0:0:
336,96,63209,6,0,P|301:141|242:139,1,120,6|10,3:2|0:0,0:0:0:0:
165,167,63578,1,0,3:2:0:0:
165,167,63701,2,0,L|135:50,2,120,2|8|0,3:2|0:0|3:2,0:0:0:0:
31,270,64439,6,0,P|60:274|84:292,1,60,10|0,0:0|0:0,0:0:0:0:
159,253,64685,2,0,P|171:280|167:310,1,60,2|0,3:2|3:2,0:0:0:0:
233,362,64931,6,0,B|301:346|266:316|331:299,2,120,10|0|10,0:0|3:2|0:0,0:0:0:0:
167,309,65545,1,0,3:2:0:0:
167,309,65668,2,0,P|155:282|159:252,1,60,0|0,3:2|0:0,0:0:0:0:
211,185,65914,6,0,B|198:140|198:140|210:117|210:117|198:72,2,120,10|0|10,0:0|3:2|0:0,0:0:0:0:
286,233,66529,1,8,0:0:0:0:
286,233,66652,2,0,L|343:219,1,60,2|0,3:2|3:2,0:0:0:0:
400,155,66898,2,0,L|458:169,1,60,10|0,0:0|0:0,0:0:0:0:
344,94,67144,6,0,L|169:136,1,180.000006866455,6|2,3:2|0:0,0:0:0:0:
81,71,67881,1,2,3:2:0:0:
9,151,68127,2,0,L|40:282,2,135.000005149841,10|8|2,0:0|0:0|3:2,0:0:0:0:
109,191,69111,6,0,L|140:322,2,135.000005149841,2|10|2,3:2|0:0|3:2,0:0:0:0:
212,224,70095,2,0,L|243:355,1,135.000005149841,10|8,0:0|0:0,0:0:0:0:
322,301,70586,2,0,L|308:243,1,60,10|8,0:0|0:0,0:0:0:0:
282,149,70832,1,8,0:0:0:0:
249,8,71078,5,0,3:2:0:0:
249,8,72062,1,0,3:2:0:0:
249,8,73045,1,0,3:2:0:0:
400,65,73291,2,0,P|425:100|415:143,1,90.0000034332277,10|6,0:3|0:3,0:0:0:0:
270,215,73783,6,0,B|194:198|234:164|157:148,1,135.000005149841,6|0,0:0|0:0,0:0:0:0:
88,124,74275,1,2,3:2:0:0:
0,239,74521,1,10,0:0:0:0:
91,351,74767,2,0,L|134:340,1,45.0000017166138,10|8,0:0|0:0,0:0:0:0:
230,376,75013,6,0,L|347:346,1,120,6|8,3:2|0:0,0:0:0:0:
462,224,75504,2,0,L|448:166,1,60,2|0,3:2|0:0,0:0:0:0:
431,82,75750,1,10,0:0:0:0:
286,167,75996,6,0,B|218:151|253:121|188:104,1,120,2|8,3:2|0:0,0:0:0:0:
40,22,76488,2,0,L|54:80,1,60,8|8,0:0|0:3,0:0:0:0:
72,163,76734,1,4,0:3:0:0:
104,327,76980,1,6,3:2:0:0:
0,278,79931,6,0,L|232:216,1,240,2|2,0:0|0:0,0:0:0:0:
281,72,81898,2,0,B|284:23|226:3|163:48|207:160|296:143,1,240,2|2,0:0|0:0,0:0:0:0:
512,259,83865,6,0,B|376:291|446:351|316:385,1,240,2|2,0:0|0:0,0:0:0:0:
256,192,85832,5,2,0:0:0:0:
256,192,85955,12,0,87062,0:0:0:0:
