osu file format v14

[General]
AudioFilename: audio.ogg
AudioLeadIn: 0
PreviewTime: 55401
Countdown: 0
SampleSet: Soft
StackLeniency: 0.7
Mode: 2
LetterboxInBreaks: 0
WidescreenStoryboard: 1

[Editor]
DistanceSpacing: 1
BeatDivisor: 4
GridSize: 4
TimelineZoom: 1.7

[Metadata]
Title:Hanarenai Kyori (TV Size)
TitleUnicode:はなれない距離 (TV Size)
Artist:TrySail
ArtistUnicode:TrySail
Creator:Kukkai
Version:Platter
Source:阿波連さんははかれない
Tags:aharen-san wa hakarenai anime opening japanese pop jpop j-pop 麻倉もも asakura momo 雨宮天 amamiya sora 夏川椎菜 natsukawa shiina
BeatmapID:3657181
BeatmapSetID:1781494

[Difficulty]
HPDrainRate:4
CircleSize:3.5
OverallDifficulty:8
ApproachRate:8
SliderMultiplier:2.2
SliderTickRate:1

[Events]
//Background and Video events
0,0,"bgbg.jpg",0,0
Video,-27,"op.mp4"
//Break Periods
2,77241,79242
//Storyboard Layer 0 (Background)
//Storyboard Layer 1 (Fail)
//Storyboard Layer 2 (Pass)
//Storyboard Layer 3 (Foreground)
//Storyboard Layer 4 (Overlay)
//Storyboard Sound Samples

[TimingPoints]
320,491.803278688525,4,2,1,50,1,0
320,-100,4,2,1,50,0,0
8188,-100,4,2,1,70,0,0
16057,-100,4,2,1,70,0,0
23926,-100,4,2,1,70,0,0
24418,-100,4,2,1,35,0,0
25647,-100,4,2,1,50,0,0
27369,-100,4,2,1,60,0,0
27860,-100,4,2,1,70,0,0
31795,-100,4,2,1,50,0,0
35238,-100,4,2,1,60,0,0
35729,-100,4,2,1,70,0,0
39172,-100,4,2,1,60,0,0
39418,-100,4,2,1,55,0,0
39664,-100,4,2,1,50,0,0
42983,-100,4,2,1,60,0,0
43598,-100,4,2,1,70,0,0
47533,-100,4,2,1,70,0,0
55401,-100,4,2,1,70,0,1
67205,-100,4,2,1,70,0,0
79992,491.803278688525,4,2,1,50,1,0
79992,-100,4,2,1,50,0,0
83926,-125,4,2,1,50,0,0
86016,-100,4,2,1,20,0,0

[Colours]
Combo1 : 255,143,89
Combo2 : 160,160,160
Combo3 : 70,163,255

[HitObjects]
320,344,320,6,0,L|320:216,1,110,2|0,0:2|0:2,0:0:0:0:
188,232,811,2,0,P|140:196|212:80,1,220,2|0,0:2|0:2,0:0:0:0:
312,88,1549,1,2,0:2:0:0:
200,88,1795,1,2,0:2:0:0:
336,312,2041,6,0,P|384:256|312:136,1,220,2|2,0:2|0:2,0:0:0:0:
104,128,3024,2,0,L|332:128,1,220,2|2,0:2|0:2,0:0:0:0:
212,128,3762,1,2,0:2:0:0:
100,128,4008,1,2,0:2:0:0:
316,364,4254,6,0,P|384:328|304:236,1,220,2|2,0:2|0:2,0:0:0:0:
104,268,5238,2,0,L|376:268,1,220,2|0,0:2|0:2,0:0:0:0:
212,268,5975,1,2,0:2:0:0:
424,208,6221,6,0,P|432:144|404:80,1,110,2|2,0:2|0:2,0:0:0:0:
364,104,6590,2,0,L|184:104,1,165,2|2,0:2|0:2,0:0:0:0:
412,352,7205,2,0,L|412:224,1,110,2|0,0:2|0:2,0:0:0:0:
300,236,7697,1,2,0:2:0:0:
410,236,7942,1,0,0:0:0:0:
80,192,8188,6,0,L|80:52,1,110,0|2,3:2|0:2,0:0:0:0:
190,82,8680,1,2,0:2:0:0:
80,82,8925,1,0,0:2:0:0:
280,184,9172,6,0,L|280:64,1,110,0|2,3:2|0:2,0:0:0:0:
168,76,9664,1,2,0:2:0:0:
280,76,9910,1,0,0:2:0:0:
76,348,10156,6,0,L|212:348,1,110,0|10,3:2|0:2,0:0:0:0:
132,352,10524,1,8,0:2:0:0:
76,352,10647,1,10,0:2:0:0:
392,364,10893,6,0,P|448:336|384:228,1,220,6|2,3:2|3:2,0:0:0:0:
276,228,11631,2,0,L|412:228,1,110,10|10,0:2|0:2,0:0:0:0:
76,352,12123,6,0,L|76:232,1,110,6|8,3:2|0:2,0:0:0:0:
200,240,12615,2,0,L|324:240,1,110,2|10,3:2|0:2,0:0:0:0:
128,292,13106,6,0,L|56:292,2,55,2|0|8,3:2|3:2|3:2,0:0:0:0:
328,288,13598,2,0,L|396:288,2,55,0|0|8,3:2|3:2|3:2,0:0:0:0:
20,232,14090,5,4,3:2:0:0:
296,348,15074,6,0,L|296:212,1,110,2|2,0:3|0:3,0:0:0:0:
168,248,15565,2,0,L|40:248,1,110,2|2,0:3|0:3,0:0:0:0:
372,208,16057,6,0,L|496:208,1,110,4|10,3:2|0:2,0:0:0:0:
276,208,16549,2,0,L|276:72,1,110,2|8,3:2|0:2,0:0:0:0:
488,76,17041,6,0,L|352:76,1,110,2|8,3:2|0:2,0:0:0:0:
324,76,17410,1,2,0:2:0:0:
380,76,17533,2,0,L|500:76,1,110,0|8,3:2|0:2,0:0:0:0:
168,344,18024,6,0,L|168:208,1,110,0|10,3:2|0:2,0:0:0:0:
380,232,18516,2,0,L|380:104,1,110,2|8,3:2|0:2,0:0:0:0:
168,112,19008,6,0,L|288:112,1,110,2|8,3:2|0:2,0:0:0:0:
332,112,19377,1,2,0:2:0:0:
276,112,19500,2,0,L|160:112,1,110,0|10,3:2|0:2,0:0:0:0:
476,360,19992,6,0,L|476:220,1,110,14|0,3:2|3:2,0:0:0:0:
368,244,20483,2,0,L|488:244,1,110,10|0,3:2|3:2,0:0:0:0:
264,244,20975,6,0,L|136:244,1,110,10|2,3:2|3:2,0:0:0:0:
364,176,21467,2,0,L|424:176,2,55,10|0|10,3:2|3:2|3:2,0:0:0:0:
52,120,21959,6,0,L|172:120,1,110,10|0,3:2|3:2,0:0:0:0:
216,120,22328,2,0,L|92:120,1,110,10|0,3:2|3:2,0:0:0:0:
52,120,22697,1,10,3:2:0:0:
372,368,22942,6,0,L|372:228,1,110,10|2,3:2|0:2,0:0:0:0:
316,260,23311,1,2,0:2:0:0:
260,260,23434,1,2,0:2:0:0:
372,260,23680,1,2,0:2:0:0:
56,224,23926,5,10,3:2:0:0:
240,220,24418,2,0,L|240:100,1,110,0|0,0:2|0:2,0:0:0:0:
184,112,24787,1,0,0:2:0:0:
128,112,24910,1,0,0:2:0:0:
244,120,25156,1,0,0:2:0:0:
300,120,25279,2,0,L|300:244,1,110,0|0,0:2|0:2,0:0:0:0:
160,336,25647,5,10,3:2:0:0:
328,348,26139,2,0,L|328:208,1,110,2|2,0:2|0:2,0:0:0:0:
216,236,26631,1,2,0:2:0:0:
424,236,26877,2,0,L|424:120,1,110,2|2,0:2|3:2,0:0:0:0:
212,132,27369,1,10,0:2:0:0:
157,132,27491,1,8,0:2:0:0:
102,132,27614,1,10,0:2:0:0:
412,144,27860,6,0,L|504:68,2,110,6|8|2,3:2|0:2|3:2,0:0:0:0:
280,144,28598,1,10,0:2:0:0:
488,264,28844,2,0,L|360:264,2,110,0|8|0,3:2|0:2|3:2,0:0:0:0:
176,280,29582,6,0,L|176:156,1,110,10|0,0:2|3:2,0:0:0:0:
288,164,30074,1,10,0:2:0:0:
176,168,30320,1,2,3:2:0:0:
384,364,30565,2,0,L|384:236,1,110,10|0,0:2|3:2,0:0:0:0:
272,256,31057,1,10,3:2:0:0:
488,276,31303,1,2,3:2:0:0:
488,208,31426,1,0,3:2:0:0:
432,208,31549,1,10,3:2:0:0:
124,164,31795,6,0,L|4:164,1,110,6|2,0:2|0:2,0:0:0:0:
68,164,32164,1,2,0:2:0:0:
124,164,32287,1,2,0:2:0:0:
14,164,32533,1,2,0:2:0:0:
228,156,32779,2,0,L|228:20,1,110,2|2,0:2|0:2,0:0:0:0:
172,44,33147,1,2,0:2:0:0:
116,44,33270,1,0,0:2:0:0:
424,360,33516,6,0,L|424:212,1,110,2|0,0:2|0:2,0:0:0:0:
312,256,34008,1,2,0:2:0:0:
200,256,34254,2,0,L|348:256,1,110,2|2,0:2|0:2,0:0:0:0:
92,356,34746,2,0,L|92:216,1,110,2|2,3:2|3:2,0:0:0:0:
308,176,35238,1,10,0:2:0:0:
364,176,35360,1,8,0:2:0:0:
420,176,35483,1,10,0:2:0:0:
112,308,35729,6,0,L|112:188,1,110,6|8,3:2|0:2,0:0:0:0:
244,308,36221,2,0,L|244:172,1,110,2|8,3:2|0:2,0:0:0:0:
32,100,36713,2,0,L|152:100,2,110,2|8|2,3:2|0:2|3:2,0:0:0:0:
344,340,37451,6,0,L|464:340,2,110,14|0|10,0:2|3:2|0:2,0:0:0:0:
232,340,38188,2,0,L|232:212,1,110,2|10,3:2|0:2,0:0:0:0:
448,232,38680,2,0,L|448:108,1,110,2|10,3:2|3:2,0:0:0:0:
228,108,39172,1,2,3:2:0:0:
172,108,39295,1,0,3:2:0:0:
116,108,39418,1,0,3:2:0:0:
428,356,39664,6,0,L|428:232,1,110,6|2,3:2|0:2,0:0:0:0:
316,248,40156,2,0,L|444:248,1,110,2|2,0:2|0:2,0:0:0:0:
216,248,40647,2,0,L|216:108,1,110,2|2,0:2|0:2,0:0:0:0:
328,136,41139,2,0,L|328:272,1,110,2|2,0:2|0:2,0:0:0:0:
116,348,41631,6,0,L|252:348,1,110,2|2,0:2|0:2,0:0:0:0:
112,348,42123,2,0,L|112:216,1,110,2|2,0:2|0:2,0:0:0:0:
328,236,42615,2,0,P|380:192|304:132,1,165,2|10,0:2|0:2,0:0:0:0:
276,128,43106,2,0,L|144:128,1,110,8|2,0:2|3:2,0:0:0:0:
480,360,43598,6,0,L|480:228,1,110,6|2,3:2|3:2,0:0:0:0:
424,252,43967,1,2,3:2:0:0:
368,252,44090,1,0,3:2:0:0:
60,192,44336,6,0,L|316:192,1,220,6|2,3:2|3:2,0:0:0:0:
392,188,45074,1,8,0:2:0:0:
392,133,45196,1,0,0:2:0:0:
392,78,45319,1,10,0:2:0:0:
76,364,45565,6,0,L|76:220,1,110,6|2,3:2|3:2,0:0:0:0:
132,260,45934,1,2,3:2:0:0:
188,264,46057,1,0,3:2:0:0:
496,172,46303,6,0,L|264:172,1,220,6|2,3:2|3:2,0:0:0:0:
484,160,47041,2,0,L|484:24,1,110,8|10,0:2|0:2,0:0:0:0:
160,280,47533,6,0,L|160:160,1,110,6|10,3:2|0:2,0:0:0:0:
328,280,48024,2,0,L|328:136,1,110,2|10,3:2|0:2,0:0:0:0:
272,172,48393,1,2,0:2:0:0:
216,172,48516,6,0,L|216:96,1,55,2|2,3:2|3:2,0:0:0:0:
424,108,48885,1,2,0:2:0:0:
480,108,49008,2,0,L|352:108,1,110,0|10,3:2|0:2,0:0:0:0:
168,360,49500,5,2,3:2:0:0:
112,360,49622,1,2,0:2:0:0:
112,304,49746,1,10,0:2:0:0:
168,304,49869,1,10,0:2:0:0:
224,304,49992,1,2,3:2:0:0:
168,304,50115,1,10,0:2:0:0:
112,304,50238,1,10,0:2:0:0:
424,216,50483,6,0,L|244:216,2,165,6|6|6,3:2|3:2|3:2,0:0:0:0:
116,188,51467,6,0,L|36:188,2,55,4|2|8,3:2|0:2|0:2,0:0:0:0:
316,184,51959,2,0,L|316:44,1,110,2|10,3:2|0:2,0:0:0:0:
204,72,52451,6,0,L|120:72,2,55,2|2|10,3:2|0:2|0:2,0:0:0:0:
412,68,52942,2,0,L|412:200,1,110,2|10,3:2|0:2,0:0:0:0:
104,288,53434,6,0,L|296:288,2,165,6|6|6,3:2|3:2|3:2,0:0:0:0:
412,196,54418,5,14,3:2:0:0:
464,192,54540,1,8,0:2:0:0:
487,144,54663,1,8,0:2:0:0:
459,101,54786,1,8,0:2:0:0:
406,103,54909,1,2,0:2:0:0:
40,200,55401,6,0,L|40:80,1,110,6|8,3:2|0:2,0:0:0:0:
248,240,55893,2,0,L|364:240,2,110,2|8|0,3:2|0:2|3:2,0:0:0:0:
460,240,56631,2,0,L|460:116,1,110,10|2,0:2|3:2,0:0:0:0:
144,356,57123,6,0,L|144:224,1,110,10|0,0:2|3:2,0:0:0:0:
256,248,57615,2,0,L|384:248,1,110,10|0,0:2|3:2,0:0:0:0:
152,196,58106,2,0,L|40:196,1,110,10|0,0:2|3:2,0:0:0:0:
228,132,58598,1,10,0:2:0:0:
42,196,58844,2,0,L|42:324,1,110,2|10,3:2|0:2,0:0:0:0:
356,308,59336,6,0,L|480:308,1,110,2|8,3:2|0:2,0:0:0:0:
264,244,59828,2,0,L|208:244,2,55,2|0|8,3:2|0:2|0:2,0:0:0:0:
464,248,60320,2,0,L|464:112,1,110,2|8,3:2|0:2,0:0:0:0:
260,144,60811,1,0,3:2:0:0:
370,144,61056,1,10,0:2:0:0:
48,360,61303,6,0,L|48:240,1,110,2|10,3:2|0:2,0:0:0:0:
188,248,61672,1,10,0:2:0:0:
244,248,61795,2,0,L|364:248,1,110,0|2,3:2|3:2,0:0:0:0:
44,236,62287,2,0,L|44:100,1,110,6|6,3:2|3:2,0:0:0:0:
244,68,62779,2,0,L|88:68,1,110,14|8,3:2|0:2,0:0:0:0:
444,368,63270,6,0,L|444:232,1,110,6|10,3:2|0:2,0:0:0:0:
220,284,63762,2,0,L|352:284,2,110,2|8|0,3:2|0:2|3:2,0:0:0:0:
444,220,64500,2,0,L|444:96,1,110,10|2,0:2|3:2,0:0:0:0:
136,216,64992,6,0,L|60:96,1,110,10|0,0:2|3:2,0:0:0:0:
184,100,65483,2,0,L|40:104,1,110,10|0,0:2|3:2,0:0:0:0:
280,292,65975,2,0,L|392:292,1,110,10|0,0:2|3:2,0:0:0:0:
200,228,66467,1,10,0:2:0:0:
388,224,66713,1,2,3:2:0:0:
444,224,66836,1,0,3:2:0:0:
388,224,66959,1,2,3:2:0:0:
80,368,67205,6,0,P|36:324|108:192,1,220,6|2,3:2|0:2,0:0:0:0:
200,192,67942,1,0,0:0:0:0:
404,108,68188,2,0,L|224:108,2,165,8|8|2,0:2|0:2|3:2,0:0:0:0:
196,360,69172,6,0,L|196:240,1,110,2|2,3:2|0:2,0:0:0:0:
252,252,69541,2,0,L|72:248,1,165,10|2,3:2|3:2,0:0:0:0:
288,204,70156,2,0,L|288:80,1,110,10|2,0:2|0:2,0:0:0:0:
88,120,70647,2,0,L|16:120,2,55,10|8|0,0:2|0:2|3:2,0:0:0:0:
400,360,71139,6,0,L|400:220,1,110,0|2,3:2|0:2,0:0:0:0:
292,236,71631,1,2,0:2:0:0:
404,236,71877,1,0,0:2:0:0:
200,200,72123,6,0,L|200:60,1,110,0|2,3:2|0:2,0:0:0:0:
308,76,72615,1,2,0:2:0:0:
196,76,72861,1,0,0:2:0:0:
400,192,73106,6,0,L|264:192,1,110,0|2,3:2|0:2,0:0:0:0:
400,192,73598,1,2,0:2:0:0:
88,364,73844,6,0,P|32:336|108:228,1,220,6|2,3:2|0:2,0:0:0:0:
200,228,74582,2,0,L|72:228,1,110,10|10,0:2|0:2,0:0:0:0:
400,368,75074,6,0,L|400:240,1,110,6|8,3:2|0:2,0:0:0:0:
292,264,75565,2,0,L|168:264,1,110,2|10,3:2|0:2,0:0:0:0:
392,152,76057,6,0,L|468:152,2,55,2|0|8,3:2|3:2|3:2,0:0:0:0:
180,156,76549,2,0,L|108:156,2,55,0|0|0,3:2|3:2|3:2,0:0:0:0:
496,108,77041,5,4,3:2:0:0:
168,344,79992,6,0,L|168:204,1,110,0|2,0:2|0:2,0:0:0:0:
300,232,80483,2,0,L|72:232,1,220,2|2,0:2|0:2,0:0:0:0:
280,236,81344,6,0,P|348:192|252:64,1,275,2|0,0:2|0:2,0:0:0:0:
132,64,82205,1,2,0:2:0:0:
264,68,82451,6,0,L|32:68,1,220,2|2,0:2|0:2,0:0:0:0:
196,76,83311,1,2,0:2:0:0:
40,68,83680,1,2,0:2:0:0:
248,360,83926,6,0,P|488:200|228:24,1,704,2|2,0:2|0:2,0:0:0:0:
256,192,86385,12,0,87123,0:2:0:0:
