osu file format v14

[General]
AudioFilename: audio.ogg
AudioLeadIn: 0
PreviewTime: 55401
Countdown: 0
SampleSet: Soft
StackLeniency: 0.7
Mode: 2
LetterboxInBreaks: 0
WidescreenStoryboard: 0

[Editor]
DistanceSpacing: 1
BeatDivisor: 4
GridSize: 4
TimelineZoom: 1.7

[Metadata]
Title:Hanarenai Kyori (TV Size)
TitleUnicode:はなれない距離 (TV Size)
Artist:TrySail
ArtistUnicode:TrySail
Creator:Kukkai
Version:Overdose
Source:阿波連さんははかれない
Tags:aharen-san wa hakarenai anime opening japanese pop jpop j-pop 麻倉もも asakura momo 雨宮天 amamiya sora 夏川椎菜 natsukawa shiina
BeatmapID:3648264
BeatmapSetID:1781494

[Difficulty]
HPDrainRate:6
CircleSize:4.2
OverallDifficulty:9.3
ApproachRate:9.3
SliderMultiplier:3.4
SliderTickRate:2

[Events]
//Background and Video events
0,0,"bgbg.jpg",0,0
Video,-27,"op.mp4"
//Break Periods
2,77241,79438
//Storyboard Layer 0 (Background)
//Storyboard Layer 1 (Fail)
//Storyboard Layer 2 (Pass)
//Storyboard Layer 3 (Foreground)
//Storyboard Layer 4 (Overlay)
//Storyboard Sound Samples

[TimingPoints]
320,491.803278688525,4,2,1,50,1,0
320,-125,4,2,1,50,0,0
8188,-100,4,2,1,70,0,0
23926,-125,4,2,1,70,0,0
24418,-125,4,2,1,35,0,0
25647,-125,4,2,1,50,0,0
27369,-100,4,2,1,60,0,0
27860,-100,4,2,1,70,0,0
31795,-125,4,2,1,50,0,0
35238,-100,4,2,1,60,0,0
35729,-100,4,2,1,70,0,0
39172,-100,4,2,1,60,0,0
39418,-100,4,2,1,55,0,0
39664,-125,4,2,1,50,0,0
42983,-125,4,2,1,60,0,0
43598,-100,4,2,1,70,0,0
55401,-100,4,2,1,70,0,1
67205,-100,4,2,1,70,0,0
79992,491.803278688525,4,2,1,70,1,0
79992,-125,4,2,1,50,0,0
86016,-125,4,2,1,20,0,0

[Colours]
Combo1 : 255,143,89
Combo2 : 160,160,160
Combo3 : 70,163,255

[HitObjects]
408,344,320,6,0,P|440:264|376:208,1,136,2|0,0:2|0:2,0:2:0:0:
236,348,811,2,0,P|164:316|248:148,1,272,2|0,0:2|0:2,0:2:0:0:
332,160,1549,1,2,0:2:0:0:
196,160,1795,1,2,0:2:0:0:
384,360,2041,6,0,L|128:216,1,272,2|2,0:2|0:2,0:2:0:0:
392,372,3024,2,0,P|468:320|364:192,1,272,2|2,0:2|0:2,0:2:0:0:
256,200,3762,1,2,0:2:0:0:
392,200,4008,1,2,0:2:0:0:
180,368,4254,6,0,P|120:312|216:244,1,204,2|0,0:2|0:2,0:2:0:0:
292,204,4746,1,2,0:2:0:0:
64,236,5238,2,0,L|64:88,1,136,2|0,0:2|0:2,0:2:0:0:
108,100,5565,1,0,0:2:0:0:
152,100,5647,1,0,0:2:0:0:
200,100,5729,2,0,L|24:100,1,136,0|2,0:2|0:2,0:2:0:0:
272,368,6221,6,0,P|304:296|260:256,1,136,2|2,0:2|0:2,0:2:0:0:
168,212,6590,2,0,L|396:212,1,204,2|2,0:2|0:2,0:2:0:0:
156,160,7205,2,0,L|304:160,1,136,2|0,0:2|0:2,0:2:0:0:
152,160,7697,2,0,P|96:108|176:28,1,204,2|0,0:2|0:2,0:2:0:0:
428,272,8188,5,0,3:2:0:0:
260,276,8434,2,2,L|260:88,1,170,2|2,0:2|0:2,0:2:0:0:
432,112,8926,1,0,0:2:0:0:
84,272,9172,5,0,3:2:0:0:
252,276,9418,2,2,L|252:88,1,170,2|2,0:2|0:2,0:2:0:0:
80,112,9910,1,0,0:2:0:0:
428,272,10156,5,0,3:2:0:0:
260,276,10401,1,10,0:2:0:0:
345,276,10524,1,8,0:2:0:0:
430,276,10647,1,10,0:2:0:0:
116,288,10893,6,0,P|28:184|128:28,1,340,6|2,3:2|3:2,0:2:0:0:
356,172,11631,2,0,L|164:172,1,170,10|10,0:2|0:2,0:2:0:0:
272,172,12000,1,8,0:2:0:0:
80,356,12123,6,0,P|28:296|88:244,1,170,6|8,3:2|0:2,0:2:0:0:
272,228,12615,2,2,L|96:228,1,170,2|10,3:2|0:2,0:2:0:0:
416,352,13106,6,0,L|416:240,1,85,2|0,3:2|3:2,3:2:0:0:
332,260,13352,2,0,L|332:144,1,85,8|0,3:2|3:2,3:2:0:0:
148,176,13598,2,0,L|188:88,1,85,0|0,3:2|3:2,3:2:0:0:
268,92,13844,2,0,L|384:96,1,85,8|0,3:2|3:2,3:2:0:0:
88,64,14090,5,4,3:2:0:0:
324,360,15074,6,2,L|500:360,3,170,2|2|2|2,0:3|0:3|0:3|0:3,0:3:0:0:
184,288,16057,5,4,3:2:0:0:
156,224,16180,1,0,0:0:0:0:
356,288,16303,2,0,L|368:192,1,85,10|0,0:2|0:2,0:2:0:0:
176,208,16549,2,0,L|168:104,1,85,2|0,3:2|0:2,0:2:0:0:
256,112,16795,2,0,L|348:92,1,85,8|0,0:2|0:2,0:2:0:0:
136,348,17041,5,2,3:2:0:0:
48,284,17163,1,0,0:2:0:0:
138,218,17286,1,8,0:2:0:0:
348,220,17410,2,0,L|448:220,2,85,2|0|0,0:2|3:2|0:2,0:2:0:0:
140,232,17779,2,0,L|140:132,1,85,8|0,0:2|0:2,0:2:0:0:
368,140,18024,5,0,3:2:0:0:
384,80,18147,1,0,0:0:0:0:
196,140,18270,2,0,L|220:48,1,85,10|0,0:2|0:2,0:2:0:0:
416,336,18516,2,0,L|296:336,1,85,2|0,3:2|0:2,0:2:0:0:
244,340,18762,2,0,L|224:232,1,85,8|0,0:2|0:2,0:2:0:0:
428,240,19008,6,0,L|496:176,2,85,2|0|8,3:2|0:2|0:2,0:2:0:0:
220,244,19377,2,0,L|244:132,1,85,2|0,0:2|3:2,0:2:0:0:
324,160,19623,1,0,0:2:0:0:
128,160,19746,2,0,L|60:72,1,85,10|0,0:2|0:2,0:2:0:0:
308,360,19992,6,0,P|412:336|464:264,1,170,14|0,3:2|3:2,3:2:0:0:
396,284,20320,1,0,3:2:0:0:
340,284,20401,1,0,3:2:0:0:
148,288,20483,2,0,P|80:248|148:156,1,170,10|0,3:2|3:2,3:2:0:0:
156,164,20811,1,0,3:2:0:0:
212,164,20893,1,0,3:2:0:0:
384,164,20975,6,0,L|360:64,1,85,10|0,3:2|3:2,3:2:0:0:
280,84,21221,2,0,L|180:84,1,85,2|0,3:2|3:2,3:2:0:0:
440,328,21467,2,0,L|304:328,1,85,10|0,3:2|3:2,3:2:0:0:
140,332,21713,2,0,L|140:228,1,85,10|0,3:2|3:2,3:2:0:0:
384,272,21959,6,0,L|211:272,1,170,10|0,3:2|3:2,3:2:0:0:
432,228,22328,2,0,P|472:180|396:108,1,170,10|0,3:2|3:2,3:2:0:0:
204,116,22697,2,0,L|80:116,1,85,10|0,3:2|3:2,3:2:0:0:
360,340,22942,6,0,P|404:272|336:192,1,170,10|2,3:2|0:2,0:2:0:0:
280,200,23311,1,2,0:2:0:0:
196,200,23434,1,2,0:2:0:0:
364,201,23680,1,2,0:2:0:0:
40,328,23926,5,10,3:2:0:0:
220,332,24418,2,0,L|220:184,1,136,0|0,0:2|0:2,0:2:0:0:
152,200,24787,1,0,0:2:0:0:
220,200,24910,2,0,L|312:200,1,68,0|0,0:2|0:2,0:2:0:0:
148,136,25156,1,0,0:2:0:0:
216,136,25279,2,0,L|76:136,1,136,0|0,0:2|0:2,0:2:0:0:
296,352,25647,6,0,P|380:272|276:188,1,272,10|2,3:2|0:2,0:2:0:0:
152,192,26385,2,2,L|152:48,1,136,2|2,0:2|0:2,0:2:0:0:
288,64,26877,5,2,0:2:0:0:
76,64,27123,2,0,L|176:64,1,68,2|0,3:2|3:2,3:2:0:0:
328,288,27369,2,8,L|204:288,1,85,10|8,0:2|0:2,0:2:0:0:
424,236,27615,2,8,L|512:236,1,85,10|8,0:2|0:2,0:2:0:0:
268,240,27860,6,0,P|228:152|296:112,1,170,6|8,3:2|0:2,0:2:0:0:
484,112,28352,2,0,L|484:220,1,85,2|0,3:2|0:2,0:2:0:0:
400,192,28598,1,10,0:2:0:0:
192,348,28844,2,0,L|400:348,1,170,0|8,3:2|0:2,0:2:0:0:
284,308,29213,2,0,L|184:272,2,85,0|0|0,0:2|3:2|0:2,0:2:0:0:
476,312,29582,6,0,P|488:216|440:120,1,170,10|0,0:2|3:2,0:2:0:0:
236,312,30074,1,10,0:2:0:0:
404,316,30320,1,2,3:2:0:0:
192,216,30565,6,0,P|104:172|84:80,1,170,10|0,0:2|3:2,0:2:0:0:
168,108,30934,1,0,0:2:0:0:
364,320,31057,2,0,L|208:320,1,85,10|0,3:2|3:2,3:2:0:0:
468,272,31303,2,0,L|480:172,1,85,2|0,3:2|3:2,3:2:0:0:
244,192,31549,2,0,L|112:188,1,85,10|0,3:2|3:2,3:2:0:0:
412,336,31795,6,0,P|440:256|404:184,1,136,6|2,0:2|0:2,0:2:0:0:
356,208,32164,1,2,0:2:0:0:
224,312,32287,2,0,L|392:312,1,136,2|2,0:2|0:2,0:2:0:0:
148,268,32779,2,0,P|124:204|160:136,1,136,2|2,0:2|0:2,0:2:0:0:
276,120,33147,1,2,0:2:0:0:
210,100,33269,1,0,0:2:0:0:
140,72,33392,1,2,0:2:0:0:
344,280,33516,6,0,L|488:280,1,136,2|0,0:2|0:2,0:2:0:0:
280,236,34008,1,2,0:2:0:0:
488,236,34254,2,2,L|488:68,1,136,2|2,0:2|0:2,0:2:0:0:
176,268,34746,6,0,L|272:272,1,68,2|0,3:2|3:2,3:2:0:0:
352,272,34992,2,0,L|352:176,1,68,2|0,3:2|3:2,3:2:0:0:
148,304,35238,2,8,L|56:304,1,85,10|8,0:2|0:2,0:2:0:0:
276,240,35483,2,8,L|160:236,1,85,10|8,0:2|0:2,0:2:0:0:
400,216,35729,6,0,P|428:120|376:40,1,170,6|8,3:2|0:2,0:2:0:0:
200,316,36221,1,2,3:2:0:0:
283,300,36343,1,0,0:2:0:0:
367,285,36467,1,8,0:2:0:0:
160,240,36713,2,0,P|140:144|192:88,1,170,2|8,3:2|0:2,0:2:0:0:
268,96,37082,1,0,0:2:0:0:
404,96,37205,2,0,L|348:24,1,85,2|0,3:2|0:2,0:2:0:0:
96,360,37451,6,0,P|60:272|132:232,1,170,14|0,0:2|3:2,0:2:0:0:
308,264,37942,1,10,0:2:0:0:
112,232,38188,2,0,L|108:120,1,85,2|0,3:2|0:2,0:2:0:0:
196,140,38434,2,0,L|296:116,1,85,10|0,0:2|0:2,0:2:0:0:
68,140,38680,6,0,L|56:48,1,85,2|0,3:2|0:2,0:2:0:0:
256,60,38926,2,0,L|132:60,1,85,10|0,3:2|3:2,3:2:0:0:
360,320,39172,2,0,L|264:292,1,85,2|0,3:2|3:2,3:2:0:0:
196,272,39418,2,0,L|192:176,1,85,0|0,3:2|3:2,3:2:0:0:
436,339,39664,6,2,L|448:175,1,136,6|2,3:2|0:2,0:2:0:0:
309,201,40156,2,2,L|486:203,1,136,2|2,0:2|0:2,0:2:0:0:
264,332,40647,2,2,L|256:172,1,136,2|2,0:2|0:2,0:2:0:0:
392,200,41139,2,2,L|392:48,1,136,2|2,0:2|0:2,0:2:0:0:
196,220,41631,6,2,L|72:140,1,136,2|2,0:2|0:2,0:2:0:0:
288,136,42123,1,2,0:2:0:0:
80,144,42369,1,2,0:2:0:0:
308,364,42615,2,0,P|364:300|300:216,1,204,2|10,0:2|0:2,0:2:0:0:
204,168,43106,1,8,0:2:0:0:
396,132,43352,1,2,3:2:0:0:
60,228,43598,6,0,L|240:228,1,170,6|2,3:2|3:2,3:2:0:0:
144,228,43967,1,2,3:2:0:0:
60,228,44090,1,0,3:2:0:0:
368,360,44336,6,0,P|448:296|344:120,1,340,6|2,3:2|3:2,0:2:0:0:
268,120,44951,1,0,0:2:0:0:
400,228,45074,2,0,L|400:112,1,85,8|0,0:2|0:2,0:2:0:0:
316,144,45320,2,0,L|188:144,1,85,10|0,0:2|0:2,0:2:0:0:
432,320,45565,6,0,L|212:320,1,170,6|2,3:2|3:2,3:2:0:0:
348,324,45934,1,2,3:2:0:0:
432,320,46057,1,0,3:2:0:0:
128,328,46303,6,0,P|80:248|168:208,1,170,6|0,3:2|0:2,0:2:0:0:
212,208,46672,1,8,0:2:0:0:
296,208,46795,1,2,3:2:0:0:
96,136,47041,1,8,0:2:0:0:
268,140,47287,2,8,L|148:140,1,85,10|8,0:2|0:2,0:2:0:0:
396,224,47533,5,6,3:2:0:0:
224,224,47779,2,8,L|340:224,1,85,10|8,0:2|0:2,0:2:0:0:
112,216,48024,2,0,L|104:108,1,85,2|0,3:2|0:2,0:2:0:0:
304,132,48270,2,2,L|180:132,1,85,10|2,0:2|0:2,0:2:0:0:
420,136,48516,5,2,3:2:0:0:
224,328,48639,2,0,L|224:224,1,85,2|8,3:2|0:2,0:2:0:0:
420,208,48885,1,2,0:2:0:0:
335,208,49007,1,0,3:2:0:0:
250,208,49130,1,8,0:2:0:0:
448,152,49254,2,0,L|448:56,1,85,10|0,0:2|0:2,0:2:0:0:
248,336,49500,6,2,L|364:336,1,85,2|2,3:2|0:2,0:2:0:0:
140,276,49746,2,10,L|44:276,1,85,10|10,0:2|0:2,0:2:0:0:
250,208,49992,2,2,L|136:208,1,85,2|10,3:2|0:2,0:2:0:0:
360,208,50238,2,0,L|360:92,1,85,10|8,0:2|0:2,0:2:0:0:
148,288,50483,6,0,P|102:226|166:160,1,170,6|0,3:2|0:0,0:0:0:0:
356,108,50852,2,0,L|156:108,1,170,6|0,3:2|0:2,0:2:0:0:
392,56,51221,2,0,L|504:56,1,85,6|0,3:2|0:2,0:2:0:0:
264,336,51467,5,4,3:2:0:0:
456,296,51590,2,0,L|472:192,1,85,2|8,0:2|0:2,0:2:0:0:
384,212,51836,1,0,0:2:0:0:
184,272,51959,2,0,L|80:224,1,85,2|8,3:2|0:2,0:2:0:0:
312,168,52205,2,2,L|428:144,1,85,10|2,0:2|0:2,0:2:0:0:
200,108,52451,6,2,L|312:108,1,85,2|2,3:2|0:2,0:2:0:0:
96,112,52697,2,0,L|16:72,1,85,10|0,0:2|0:2,0:2:0:0:
300,356,52942,2,0,L|312:252,1,85,2|0,3:2|0:2,0:2:0:0:
120,256,53188,2,0,L|120:148,1,85,10|0,0:2|3:2,0:2:0:0:
336,168,53434,6,0,L|156:168,1,170,6|0,3:2|0:2,0:2:0:0:
400,180,53803,2,0,P|440:92|376:48,1,170,6|0,3:2|0:2,0:2:0:0:
132,48,54172,2,0,L|256:48,1,85,6|0,3:2|0:2,0:2:0:0:
416,300,54418,6,8,L|508:300,1,85,14|8,3:2|0:2,0:2:0:0:
284,216,54664,2,8,L|400:216,1,85,8|8,0:2|0:2,0:2:0:0:
176,212,54910,2,0,P|64:164|132:48,1,255,2|0,0:2|0:2,0:2:0:0:
280,352,55401,6,0,L|296:244,1,85,6|0,3:2|0:2,0:2:0:0:
208,256,55647,2,0,L|112:224,1,85,8|0,0:2|0:2,0:2:0:0:
324,196,55893,2,0,L|412:196,1,85,2|0,3:2|0:2,0:2:0:0:
324,196,56139,2,0,L|208:196,1,85,8|0,0:2|0:2,0:2:0:0:
324,196,56385,6,0,L|324:296,1,85,0|0,3:2|0:2,0:2:0:0:
128,316,56631,2,0,L|32:316,1,85,10|0,0:2|0:2,0:2:0:0:
252,260,56877,2,0,L|344:260,1,85,2|0,3:2|0:2,0:2:0:0:
104,204,57123,1,10,0:2:0:0:
45,147,57245,1,0,0:2:0:0:
67,69,57368,5,0,3:2:0:0:
145,50,57491,1,0,0:2:0:0:
352,344,57615,2,0,L|344:256,1,85,10|0,0:2|0:2,0:2:0:0:
260,268,57860,2,0,L|160:268,1,85,0|0,3:2|0:2,0:2:0:0:
388,216,58106,1,10,0:2:0:0:
467,205,58228,1,0,0:2:0:0:
490,128,58351,5,0,3:2:0:0:
428,76,58474,1,0,0:2:0:0:
220,352,58598,2,0,L|120:336,1,85,10|0,0:2|0:2,0:2:0:0:
368,296,58844,2,0,L|384:168,1,85,2|0,3:2|0:2,0:2:0:0:
172,192,59090,2,0,L|296:192,1,85,10|0,0:2|0:2,0:2:0:0:
48,192,59336,6,0,L|32:88,1,85,2|0,3:2|0:2,0:2:0:0:
120,100,59582,2,0,L|20:84,1,85,8|0,0:2|0:2,0:2:0:0:
252,256,59828,2,0,L|132:236,1,85,2|0,3:2|0:2,0:2:0:0:
256,256,60074,2,0,L|376:276,1,85,8|0,0:2|0:2,0:2:0:0:
144,336,60320,6,0,L|136:212,1,85,2|0,3:2|0:2,0:2:0:0:
224,236,60565,2,0,L|312:208,1,85,8|0,0:2|0:2,0:2:0:0:
220,188,60811,2,0,L|128:176,1,85,0|0,3:2|0:2,0:2:0:0:
352,184,61057,2,0,L|368:52,1,85,10|0,0:2|0:2,0:2:0:0:
168,80,61303,6,0,L|280:72,1,85,2|0,3:2|0:2,0:2:0:0:
456,52,61549,1,10,0:2:0:0:
248,348,61672,2,0,L|256:248,1,85,10|0,0:2|3:2,0:2:0:0:
340,264,61918,1,0,3:2:0:0:
132,216,62041,2,0,L|36:192,1,85,2|0,3:2|3:2,3:2:0:0:
352,160,62287,5,6,3:2:0:0:
24,92,62533,1,6,3:2:0:0:
352,160,62779,2,8,L|384:68,1,85,14|8,3:2|0:2,0:2:0:0:
180,312,63024,2,8,L|328:312,1,85,8|8,0:2|0:2,0:2:0:0:
40,312,63270,6,0,L|24:184,1,85,6|0,3:2|0:2,0:2:0:0:
244,228,63516,2,0,L|248:128,1,85,10|0,0:2|0:2,0:2:0:0:
464,232,63762,2,0,L|440:136,1,85,2|0,3:2|0:2,0:2:0:0:
356,152,64008,2,0,L|264:112,1,85,8|0,0:2|0:2,0:2:0:0:
360,100,64254,6,0,L|472:80,1,85,0|0,3:2|0:2,0:2:0:0:
204,352,64500,2,0,L|192:252,1,85,10|0,0:2|0:2,0:2:0:0:
392,248,64746,2,0,L|492:204,1,85,2|0,3:2|0:2,0:2:0:0:
256,188,64992,2,0,L|156:168,1,85,10|0,0:2|0:2,0:2:0:0:
256,188,65238,6,0,L|364:208,1,85,0|0,3:2|0:2,0:2:0:0:
128,328,65483,2,0,L|240:320,1,85,10|0,0:2|0:2,0:2:0:0:
128,288,65729,2,0,L|24:272,1,85,0|0,3:2|0:2,0:2:0:0:
264,264,65975,2,0,L|284:172,1,85,10|0,0:2|0:2,0:2:0:0:
196,172,66221,6,0,L|104:132,1,85,0|0,3:2|0:2,0:2:0:0:
336,320,66467,2,8,L|236:296,1,85,10|8,0:2|0:2,0:2:0:0:
464,292,66713,2,0,L|476:192,1,85,2|0,3:2|3:2,3:2:0:0:
264,196,66959,2,0,L|144:160,1,85,2|0,3:2|3:2,3:2:0:0:
392,240,67205,6,0,P|468:184|348:96,1,255,6|0,3:2|0:2,0:2:0:0:
180,364,67697,2,0,P|100:332|204:248,1,255,2|0,0:2|0:2,0:2:0:0:
420,220,68188,2,0,L|228:156,1,170,8|0,0:2|0:2,0:2:0:0:
180,136,68557,2,0,L|356:196,1,170,8|0,0:2|0:2,0:2:0:0:
424,216,68926,1,2,3:2:0:0:
80,360,69172,6,2,P|48:276|104:216,1,170,2|2,3:2|0:2,0:2:0:0:
296,208,69541,2,0,L|84:64,1,255,10|2,3:2|3:2,0:2:0:0:
472,328,70156,6,0,L|472:144,1,170,10|2,0:2|0:2,0:2:0:0:
388,160,70524,1,8,0:2:0:0:
180,308,70647,2,8,L|64:308,1,85,10|8,0:2|0:2,0:2:0:0:
320,236,70893,2,0,L|436:236,1,85,0|0,3:2|3:2,3:2:0:0:
120,204,71139,5,0,3:2:0:0:
292,200,71385,2,2,L|292:20,1,170,2|2,0:2|0:2,0:2:0:0:
120,36,71877,1,0,0:2:0:0:
476,280,72123,5,0,3:2:0:0:
304,276,72369,2,2,L|304:96,1,170,2|2,0:2|0:2,0:2:0:0:
476,112,72861,1,0,0:2:0:0:
64,272,73106,5,0,3:2:0:0:
236,268,73352,2,2,L|52:268,1,170,2|2,0:2|0:2,0:2:0:0:
392,272,73844,6,0,P|476:232|368:68,1,340,6|2,3:2|0:2,0:2:0:0:
128,136,74582,2,8,L|340:136,1,170,10|10,0:2|0:2,0:2:0:0:
212,136,74951,1,8,0:2:0:0:
444,352,75074,6,0,P|484:276|420:220,1,170,6|8,3:2|0:2,0:2:0:0:
264,224,75565,2,2,L|468:224,1,170,2|10,3:2|0:2,0:2:0:0:
88,360,76057,6,0,L|80:264,1,85,2|0,3:2|3:2,3:2:0:0:
168,272,76303,2,0,L|160:160,1,85,8|0,3:2|3:2,3:2:0:0:
384,180,76549,2,0,L|368:72,1,85,0|0,3:2|3:2,3:2:0:0:
284,100,76795,2,0,L|168:100,1,85,0|0,3:2|3:2,3:2:0:0:
404,48,77041,5,4,3:2:0:0:
416,344,79992,6,0,L|464:200,1,136,0|2,0:2|0:2,0:2:0:0:
324,212,80483,2,0,L|52:104,1,272,2|2,0:2|0:2,0:2:0:0:
280,360,81344,6,0,P|388:260|248:168,1,340,2|0,0:2|0:2,0:2:0:0:
132,164,82205,1,2,0:2:0:0:
268,164,82451,6,0,L|16:48,1,272,2|2,0:2|0:2,0:2:0:0:
224,44,83311,1,2,0:2:0:0:
20,52,83680,1,2,0:2:0:0:
440,352,83926,6,0,P|261:-32|92:376,1,1088,2|2,0:2|0:2,0:2:0:0:
256,192,86016,12,0,87123,0:2:0:0:
