osu file format v14

[General]
AudioFilename: audio.ogg
AudioLeadIn: 0
PreviewTime: 55320
Countdown: 0
SampleSet: Soft
StackLeniency: 0.7
Mode: 0
LetterboxInBreaks: 0
WidescreenStoryboard: 1

[Editor]
DistanceSpacing: 1.3
BeatDivisor: 4
GridSize: 4
TimelineZoom: 1

[Metadata]
Title:Hanarenai Kyori (TV Size)
TitleUnicode:はなれない距離 (TV Size)
Artist:TrySail
ArtistUnicode:TrySail
Creator:Garden
Version:Normal
Source:阿波連さんははかれない
Tags:aharen-san wa hakarenai anime opening short cut version japanese pop jpop j-pop toybot 麻倉もも asakura momo 雨宮天 amamiya sora 夏川椎菜 natsukawa shiina
BeatmapID:3562512
BeatmapSetID:1742665

[Difficulty]
HPDrainRate:3
CircleSize:3.5
OverallDifficulty:4
ApproachRate:5.5
SliderMultiplier:1.2
SliderTickRate:1

[Events]
//Background and Video events
0,0,"69519349_p0_edited.jpg",0,0
Video,-27,"op.mp4"
//Break Periods
2,39864,42473
2,77241,78867
//Storyboard Layer 0 (Background)
//Storyboard Layer 1 (Fail)
//Storyboard Layer 2 (Pass)
//Storyboard Layer 3 (Foreground)
//Storyboard Layer 4 (Overlay)
//Storyboard Sound Samples

[TimingPoints]
320,491.803278688525,4,2,1,50,1,0
320,-125,4,2,1,50,0,0
8188,-100,4,2,1,60,0,0
14090,-125,4,2,1,60,0,0
16057,-100,4,2,1,70,0,0
21959,-100,4,2,1,60,0,0
55401,-90.9090909090909,4,2,1,75,0,1
67205,-100,4,2,1,75,0,1
71139,-100,4,2,1,65,0,0
73844,-90.9090909090909,4,2,1,65,0,0
79992,491.803278688525,4,2,1,50,1,0
79992,-125,4,2,1,50,0,0
83926,-125,4,2,1,40,0,0
85893,-125,4,2,1,50,0,0
86016,-100,4,2,1,5,0,0

[Colours]
Combo1 : 168,181,255
Combo2 : 218,168,255

[HitObjects]
69,324,320,5,2,0:0:0:0:
155,281,811,2,0,P|199:231|170:160,1,144,2|0,0:0|0:0,0:0:0:0:
143,136,1795,1,2,0:0:0:0:
143,136,2041,2,0,P|92:131|41:114,1,96,2|0,0:0|0:0,0:0:0:0:
70,24,3024,2,0,P|121:29|172:46,1,96,2|0,0:0|0:0,0:0:0:0:
207,61,3762,1,2,0:0:0:0:
257,142,4254,6,0,P|296:111|300:62,1,96,2|2,0:0|0:1,0:0:0:0:
382,14,5238,2,0,P|448:27|464:94,1,144,2|0,0:0|0:0,0:0:0:0:
446,138,6221,2,0,P|488:171|484:223,1,96,2|2,0:0|0:0,0:0:0:0:
434,289,7205,6,0,P|456:331|467:377,2,96,2|2|2,0:0|0:1|1:2,0:0:0:0:
318,78,9172,1,2,1:2:0:0:
96,169,10156,1,2,1:2:0:0:
179,9,10893,6,0,P|188:78|213:137,1,120,4|2,3:2|3:2,0:0:0:0:
257,156,11631,2,0,P|294:151|319:133,1,60,2|2,1:2|1:2,0:0:0:0:
347,89,12123,1,4,3:2:0:0:
437,167,12615,2,0,P|447:210|456:223,1,60,2|2,3:2|1:2,0:0:0:0:
491,270,13106,2,0,P|475:326|347:318,1,180,2|4,3:2|3:0,0:0:0:0:
323,299,14090,5,2,1:0:0:0:
323,299,15074,2,0,P|281:317|222:326,1,96,2|2,0:1|0:1,0:0:0:0:
111,320,16057,6,0,P|120:348|125:377,2,60,4|2|2,3:2|1:2|3:2,0:0:0:0:
30,230,17041,2,0,P|18:185|0:141,2,90,2|2|2,3:2|3:2|1:2,0:0:0:0:
84,267,18024,5,2,3:2:0:0:
84,267,18270,2,0,P|122:262|159:241,1,60,2|2,1:2|3:2,0:0:0:0:
210,154,19008,2,0,P|198:109|180:65,2,90,2|2|2,3:2|1:2|1:2,0:0:0:0:
256,192,19992,5,4,3:2:0:0:
256,192,20238,12,4,21959,1:2:0:0:
256,192,22942,5,2,1:2:0:0:
59,329,23926,5,2,3:2:0:0:
187,19,25647,1,2,3:2:0:0:
59,329,27123,2,0,L|42:250,2,60,8|2|2,3:0|1:2|1:2,0:0:0:0:
115,350,27860,6,0,P|180:355|217:308,1,120,4|2,3:2|3:2,0:0:0:0:
227,262,28598,1,0,1:0:0:0:
227,262,28844,2,0,P|288:256|362:232,1,120,2|0,3:2|3:0,0:0:0:0:
393,205,29582,2,0,P|385:140|360:78,1,120,2|0,1:2|1:0,0:0:0:0:
346,37,30320,1,2,3:2:0:0:
346,37,30565,1,2,1:2:0:0:
468,24,31057,1,2,1:0:0:0:
468,24,31303,2,0,P|486:53|486:103,1,60,2|2,1:0|1:0,0:0:0:0:
492,138,31795,5,4,3:2:0:0:
428,239,32287,2,0,P|496:276|494:324,2,120,2|2|0,3:2|3:2|3:0,0:0:0:0:
372,262,33516,2,0,P|311:257|232:233,1,120,2|2,1:2|0:0,0:0:0:0:
209,201,34254,1,2,3:2:0:0:
310,137,34746,2,0,P|322:104|322:68,1,60,2|2,3:2|3:2,0:0:0:0:
293,26,35238,2,0,P|264:16|234:15,1,60,2|2,1:2|1:2,0:0:0:0:
182,44,35729,6,0,P|110:36|52:13,2,120,4|2|2,3:2|3:2|3:2,0:0:0:0:
217,164,37205,1,2,3:2:0:0:
217,164,37451,2,0,P|224:219|167:259,1,120,4|2,1:2|1:2,0:0:0:0:
120,272,38188,2,0,P|110:298|111:336,1,60,2|2,3:2|1:2,0:0:0:0:
161,379,38680,1,2,3:2:0:0:
161,379,38926,1,0,1:0:0:0:
161,379,39172,1,12,3:0:0:0:
271,331,39664,5,4,3:2:0:0:
271,331,43598,6,0,P|325:309|367:314,1,90,4|2,3:2|1:2,0:0:0:0:
441,337,44336,2,0,P|499:286|463:198,1,180,4|2,3:2|0:0,0:0:0:0:
350,168,45565,2,0,P|355:115|388:71,1,90,4|2,3:2|3:2,0:0:0:0:
302,29,46303,2,0,P|229:16|172:110,1,180,4|2,3:2|1:2,0:0:0:0:
179,154,47287,1,2,1:2:0:0:
179,154,47533,5,4,3:2:0:0:
329,192,48024,2,0,P|328:226|316:257,1,60,2|2,3:2|1:2,0:0:0:0:
341,325,48516,2,0,P|399:332|452:348,2,90,2|2|2,3:2|1:2|1:2,0:0:0:0:
282,377,49500,1,2,3:2:0:0:
127,352,49992,2,0,P|131:316|144:292,1,60,2|2,3:2|1:2,0:0:0:0:
101,228,50483,2,0,P|78:226|7:195,2,90,4|4|4,3:2|3:2|3:2,0:0:0:0:
174,202,51467,5,4,3:2:0:0:
52,104,51959,2,0,P|57:69|73:46,1,60,2|2,3:2|1:2,0:0:0:0:
139,11,52451,2,0,P|182:31|257:32,1,120,2|2,3:2|3:2,0:0:0:0:
334,48,53188,1,2,1:2:0:0:
334,48,53434,2,0,P|392:32|399:1,2,90,2|2|2,1:2|1:2|1:2,0:0:0:0:
281,105,54418,2,0,P|242:161|268:207,1,120,12|0,3:0|0:0,0:0:0:0:
420,276,55401,6,0,P|423:308|415:344,1,66.0000020141602,4|0,3:2|1:0,0:0:0:0:
321,368,55893,2,0,P|245:368|183:346,1,132.00000402832,2|0,3:2|3:0,0:0:0:0:
124,287,56631,1,2,1:2:0:0:
124,287,56877,1,2,3:2:0:0:
200,235,57123,2,0,P|236:170|207:123,1,132.00000402832,2|2,1:2|1:2,0:0:0:0:
357,14,58106,2,0,P|321:79|350:126,1,132.00000402832,2|2,1:2|1:2,0:0:0:0:
425,171,58844,2,0,P|428:205|414:234,1,66.0000020141602,2|2,3:2|1:2,0:0:0:0:
329,268,59336,5,2,3:2:0:0:
210,125,59828,2,0,P|144:122|69:95,2,132.00000402832,2|2|0,3:2|3:2|3:0,0:0:0:0:
282,66,61057,1,2,1:2:0:0:
282,66,61303,2,0,P|331:69|383:81,2,99.0000030212403,2|2|8,3:2|1:2|3:0,0:0:0:0:
195,38,62287,1,4,3:2:0:0:
195,38,62533,1,4,3:2:0:0:
195,38,62779,1,4,3:2:0:0:
314,178,63270,5,4,3:2:0:0:
136,228,63762,2,0,P|99:282|137:347,1,132.00000402832,2|0,3:2|3:0,0:0:0:0:
212,377,64500,1,2,1:2:0:0:
212,377,64746,1,2,3:2:0:0:
286,322,64992,2,0,P|355:298|431:299,1,132.00000402832,2|2,1:2|1:2,0:0:0:0:
508,137,65975,2,0,P|439:161|363:160,1,132.00000402832,2|2,1:2|1:2,0:0:0:0:
293,147,66713,1,2,3:2:0:0:
293,147,66959,1,2,1:2:0:0:
270,57,67205,6,0,P|222:21|163:35,1,120,4|2,3:2|0:0,0:0:0:0:
22,119,68188,2,0,P|54:200|69:295,1,180,2|2,1:2|3:2,0:0:0:0:
124,354,69172,2,0,P|177:341|235:348,2,90,2|2|2,3:2|1:2|3:2,0:0:0:0:
41,371,70156,1,2,1:2:0:0:
97,213,70647,1,2,1:2:0:0:
153,55,71139,5,2,1:2:0:0:
41,371,72123,1,2,1:2:0:0:
153,55,73106,1,2,1:2:0:0:
370,23,73844,6,0,P|342:81|340:157,1,132.00000402832,4|2,3:2|3:2,0:0:0:0:
412,203,74582,2,0,P|412:244|395:279,1,66.0000020141602,2|2,1:2|1:2,0:0:0:0:
424,357,75074,2,0,P|384:307|321:313,1,132.00000402832,4|2,3:2|3:2,0:0:0:0:
246,364,75811,1,2,1:2:0:0:
246,364,76057,2,0,P|182:369|143:320,1,132.00000402832,2|0,3:2|1:0,0:0:0:0:
256,192,77041,5,2,1:0:0:0:
256,192,79992,6,0,P|277:141|269:84,1,96,2|2,0:0|0:0,0:0:0:0:
234,13,80975,1,2,0:0:0:0:
159,73,81467,2,0,P|139:116|140:163,1,96,2|2,0:0|0:0,0:0:0:0:
167,209,82205,1,2,0:0:0:0:
167,209,82451,1,2,0:0:0:0:
92,268,82942,6,0,P|54:267|5:249,2,72,2|2|2,0:0|0:0|0:0,0:0:0:0:
121,306,83926,2,0,P|164:235|276:243,1,192,2|2,0:0|0:0,0:0:0:0:
343,289,85401,1,2,0:0:0:0:
410,220,85893,6,0,B|430:153|364:113|354:150|277:98|321:25,1,240,2|0,0:0|0:0,0:0:0:0:
