osu file format v14

[General]
AudioFilename: audio.ogg
AudioLeadIn: 0
PreviewTime: 55320
Countdown: 0
SampleSet: Soft
StackLeniency: 0.7
Mode: 0
LetterboxInBreaks: 0
WidescreenStoryboard: 1

[Editor]
DistanceSpacing: 1.2
BeatDivisor: 4
GridSize: 4
TimelineZoom: 1.1

[Metadata]
Title:Hanarenai Kyori (TV Size)
TitleUnicode:はなれない距離 (TV Size)
Artist:TrySail
ArtistUnicode:TrySail
Creator:Garden
Version:Insane
Source:阿波連さんははかれない
Tags:aharen-san wa hakarenai anime opening short cut version japanese pop jpop j-pop toybot 麻倉もも asakura momo 雨宮天 amamiya sora 夏川椎菜 natsukawa shiina
BeatmapID:3562511
BeatmapSetID:1742665

[Difficulty]
HPDrainRate:5
CircleSize:4
OverallDifficulty:7
ApproachRate:8
SliderMultiplier:1.8
SliderTickRate:1

[Events]
//Background and Video events
0,0,"69519349_p0_edited.jpg",0,0
Video,-27,"op.mp4"
//Break Periods
2,39864,42233
2,77241,79242
//Storyboard Layer 0 (Background)
//Storyboard Layer 1 (Fail)
//Storyboard Layer 2 (Pass)
//Storyboard Layer 3 (Foreground)
//Storyboard Layer 4 (Overlay)
//Storyboard Sound Samples

[TimingPoints]
320,491.803278688525,4,2,1,50,1,0
320,-125,4,2,1,50,0,0
4254,-166.666666666667,4,2,1,50,0,0
5238,-125,4,2,1,50,0,0
7205,-166.666666666667,4,2,1,50,0,0
8188,-100,4,2,1,60,0,0
10893,-90.9090909090909,4,2,1,60,0,0
14090,-166.666666666667,4,2,1,60,0,0
15074,-125,4,2,1,60,0,0
16057,-66.6666666666667,4,2,1,70,0,0
21959,-100,4,2,1,60,0,0
34746,-83.3333333333333,4,2,1,60,0,0
39664,-125,4,2,1,60,0,0
43598,-90.9090909090909,4,2,1,60,0,0
50483,-71.4285714285714,4,2,1,60,0,0
51467,-90.9090909090909,4,2,1,60,0,0
53434,-71.4285714285714,4,2,1,60,0,0
55401,-66.6666666666667,4,2,1,75,0,1
62779,-58.8235294117647,4,2,1,75,0,1
63270,-66.6666666666667,4,2,1,75,0,1
67205,-100,4,2,1,75,0,1
71139,-100,4,2,1,65,0,0
73844,-90.9090909090909,4,2,1,65,0,0
79992,491.803278688525,4,2,1,50,1,0
79992,-125,4,2,1,50,0,0
83926,-125,4,2,1,40,0,0
85893,-166.666666666667,4,2,1,50,0,0
86016,-100,4,2,1,5,0,0

[Colours]
Combo1 : 168,181,255
Combo2 : 218,168,255

[HitObjects]
96,274,320,6,0,P|61:261|21:253,1,72,2|0,0:0|0:0,0:0:0:0:
103,257,811,2,0,P|147:204|223:217,1,144,2|2,0:0|0:0,0:0:0:0:
287,269,1549,1,0,0:0:0:0:
287,269,1795,1,2,0:0:0:0:
361,321,2041,6,0,P|404:322|433:296,1,72,0|2,0:0|0:0,0:0:0:0:
426,305,2533,2,0,P|412:279|415:233,1,72,0|2,0:0|0:0,0:0:0:0:
469,172,3024,2,0,P|458:100|397:88,1,144,0|0,0:0|0:0,0:0:0:0:
319,122,3762,1,2,0:0:0:0:
390,73,4008,1,0,0:0:0:0:
325,137,4254,6,0,P|272:121|218:118,1,107.999996704102,2|2,0:0|0:1,0:0:0:0:
219,117,5238,5,2,0:0:0:0:
149,66,5483,2,0,P|151:51|160:38,3,24,2|2|2|2,0:0|0:0|0:0|0:0,0:0:0:0:
141,157,5975,2,0,P|121:186|65:184,1,72,0|2,0:0|0:0,0:0:0:0:
13,236,6467,1,2,0:0:0:0:
13,236,6590,2,0,P|82:249|90:298,1,108,2|2,0:0|0:0,0:0:0:0:
198,261,7205,6,0,P|172:312|165:366,2,107.999996704102,2|2|2,0:0|0:1|1:2,0:0:0:0:
312,177,8434,1,8,0:0:0:0:
284,250,8680,1,8,0:0:0:0:
312,177,8926,1,2,0:0:0:0:
342,313,9172,5,2,1:2:0:0:
280,43,9418,1,8,0:0:0:0:
252,116,9664,1,8,0:0:0:0:
280,43,9910,1,2,0:0:0:0:
312,177,10156,5,2,1:2:0:0:
173,127,10401,1,10,0:0:0:0:
173,127,10524,1,0,1:0:0:0:
173,127,10647,1,8,3:0:0:0:
373,0,10893,6,0,P|388:125|414:215,1,198.000006042481,4|2,3:2|3:2,0:0:0:0:
495,242,11631,1,2,1:2:0:0:
326,367,11877,1,2,1:2:0:0:
326,367,12000,1,2,1:2:0:0:
326,367,12123,2,0,P|378:346|426:343,1,99.0000030212403,4|0,3:2|1:0,0:0:0:0:
420,342,12492,1,0,1:0:0:0:
420,342,12615,2,0,P|418:316|409:285,1,49.5000015106202,2|0,3:2|0:0,0:0:0:0:
495,242,12860,2,0,P|497:268|506:299,1,49.5000015106202,2|0,1:2|1:0,0:0:0:0:
406,194,13106,5,2,3:2:0:0:
395,171,13229,1,0,3:0:0:0:
392,147,13352,1,0,1:0:0:0:
396,122,13475,1,0,3:0:0:0:
408,101,13598,1,0,1:0:0:0:
425,83,13721,1,8,3:0:0:0:
447,72,13844,1,4,3:0:0:0:
471,67,13967,1,0,3:0:0:0:
496,71,14090,6,0,P|453:10|368:26,1,161.999995056153,2|0,1:0|0:0,0:0:0:0:
181,5,15074,6,0,P|192:38|198:77,1,72,2|2,0:1|0:1,0:0:0:0:
304,114,15565,2,0,P|293:81|287:42,1,72,2|2,0:1|0:1,0:0:0:0:
218,168,16057,5,4,3:2:0:0:
218,168,16303,2,0,P|229:202|233:235,1,67.5000025749208,2|0,1:2|0:0,0:0:0:0:
262,340,16549,2,0,P|179:241|101:297,1,202.500007724762,2|0,3:2|3:0,0:0:0:0:
128,258,17041,1,2,3:2:0:0:
15,185,17287,1,0,1:0:0:0:
15,185,17410,2,0,P|91:173|94:116,1,135.000005149842,2|0,3:2|3:0,0:0:0:0:
86,105,17779,2,0,P|53:95|10:72,1,67.5000025749208,2|2,1:2|3:2,0:0:0:0:
199,7,18024,5,2,3:2:0:0:
199,7,18270,2,0,P|182:42|179:77,1,67.5000025749208,2|0,1:2|0:0,0:0:0:0:
196,161,18516,2,0,P|289:167|315:60,1,202.500007724762,2|0,3:2|3:0,0:0:0:0:
322,77,19008,1,2,3:2:0:0:
440,0,19254,1,2,1:2:0:0:
440,0,19377,2,0,P|427:71|482:98,1,135.000005149842,2|0,1:2|1:0,0:0:0:0:
494,104,19746,2,0,P|501:63|520:25,1,67.5000025749208,2|2,1:2|1:2,0:0:0:0:
475,198,19992,5,4,3:2:0:0:
373,245,20238,2,0,P|365:265|364:288,2,45.0000017166138,2|0|0,1:2|3:0|3:0,0:0:0:0:
381,226,20483,1,2,1:2:0:0:
322,77,20729,2,0,P|329:56|330:33,2,45.0000017166138,2|0|0,1:2|3:0|3:0,0:0:0:0:
314,96,20975,1,2,1:2:0:0:
214,224,21221,2,0,P|206:244|205:267,2,45.0000017166138,2|0|0,1:2|3:0|3:0,0:0:0:0:
222,205,21467,6,0,P|185:200|143:175,1,67.5000025749208,2|2,1:2|1:2,0:0:0:0:
257,342,21713,2,0,P|294:347|336:372,1,67.5000025749208,2|2,1:2|1:2,0:0:0:0:
113,383,21959,5,4,1:2:0:0:
87,305,22205,1,0,3:0:0:0:
87,305,22328,1,2,1:2:0:0:
58,225,22574,1,0,3:0:0:0:
58,225,22697,1,2,1:2:0:0:
217,114,22942,1,2,1:2:0:0:
217,114,23926,5,2,3:2:0:0:
26,364,25647,1,2,3:2:0:0:
217,114,26877,2,0,P|176:132|126:136,1,90,2|8,0:0|3:0,0:0:0:0:
109,130,27246,1,0,3:0:0:0:
90,117,27369,1,2,1:2:0:0:
78,97,27492,1,0,1:0:0:0:
73,74,27615,1,2,1:2:0:0:
81,53,27738,1,0,1:0:0:0:
97,37,27860,6,0,P|138:19|188:15,1,90,4|2,3:2|1:2,0:0:0:0:
380,72,28352,1,2,3:2:0:0:
302,137,28598,1,0,1:0:0:0:
302,137,28721,1,2,0:0:0:0:
302,137,28844,2,0,P|284:104|278:46,1,90,2|0,3:2|1:0,0:0:0:0:
277,52,29213,1,2,0:0:0:0:
398,165,29459,5,2,0:0:0:0:
398,165,29582,2,0,P|440:266|446:344,1,180,2|0,1:2|1:0,0:0:0:0:
327,239,30320,1,2,3:2:0:0:
327,239,30442,1,2,3:2:0:0:
327,239,30565,2,0,P|279:258|235:260,1,90,2|2,1:2|3:2,0:0:0:0:
398,165,31057,1,2,1:0:0:0:
302,137,31303,1,2,1:0:0:0:
290,117,31426,1,8,3:0:0:0:
281,97,31549,1,2,1:0:0:0:
277,75,31672,1,0,1:0:0:0:
277,52,31795,5,4,3:2:0:0:
171,4,32041,2,0,P|182:26|183:62,2,45,2|2|2,0:0|0:0|3:2,0:0:0:0:
203,142,32533,2,0,P|163:126|106:124,1,90,2|2,3:2|3:2,0:0:0:0:
277,75,33024,1,2,0:0:0:0:
277,75,33147,1,0,1:0:0:0:
302,174,33393,5,2,3:2:0:0:
302,174,33516,2,0,P|268:269|274:357,1,180,2|2,1:2|0:0,0:0:0:0:
394,204,34254,2,0,P|434:220|491:222,1,90,2|2,3:2|0:0,0:0:0:0:
480,223,34746,6,0,P|481:196|493:172,1,53.9999983520508,2|0,3:2|3:0,0:0:0:0:
434,64,34992,2,0,P|432:90|420:114,1,53.9999983520508,2|0,3:2|3:0,0:0:0:0:
331,132,35238,1,2,1:2:0:0:
304,132,35360,1,2,1:2:0:0:
277,128,35483,1,2,1:2:0:0:
251,119,35606,1,2,1:2:0:0:
228,107,35729,6,0,P|195:51|133:68,1,107.999996704102,4|0,3:2|1:0,0:0:0:0:
74,24,36098,1,2,0:0:0:0:
74,24,36221,2,0,P|65:85|40:133,1,107.999996704102,2|0,3:2|1:0,0:0:0:0:
44,126,36590,1,2,0:0:0:0:
44,126,36713,1,2,3:2:0:0:
111,240,36959,1,0,1:0:0:0:
111,240,37205,2,0,P|116:208|133:181,1,53.9999983520508,2|0,3:2|3:0,0:0:0:0:
15,271,37451,6,0,P|106:273|123:345,1,161.999995056153,4|0,1:2|0:0,0:0:0:0:
126,329,37942,1,2,1:2:0:0:
227,140,38188,1,2,3:2:0:0:
227,140,38311,1,2,3:2:0:0:
227,140,38434,1,2,1:2:0:0:
310,227,38680,2,0,P|256:234|206:252,1,107.999996704102,2|0,3:2|1:0,0:0:0:0:
205,252,39049,1,0,1:0:0:0:
205,252,39172,2,0,P|207:290|218:308,1,53.9999983520508,12|8,3:0|3:0,0:0:0:0:
322,359,39418,2,0,P|320:321|308:302,1,53.9999983520508,4|0,3:0|3:0,0:0:0:0:
391,255,39664,5,4,3:2:0:0:
391,255,42983,5,0,1:0:0:0:
391,255,43106,2,0,P|434:251|466:233,1,72,2|0,1:2|3:0,0:0:0:0:
484,61,43598,6,0,P|490:115|512:157,1,99.0000030212403,4|0,3:2|0:0,0:0:0:0:
510,154,43967,1,2,1:2:0:0:
456,343,44213,1,2,0:0:0:0:
456,343,44336,2,0,P|441:257|390:147,1,198.000006042481,4|2,3:2|0:0,0:0:0:0:
277,103,45074,2,0,P|285:137|300:154,2,49.5000015106202,2|0|2,0:0|1:0|3:2,0:0:0:0:
333,244,45565,6,0,P|288:253|225:290,1,99.0000030212403,4|0,3:2|1:0,0:0:0:0:
241,277,45934,1,2,3:2:0:0:
52,235,46180,1,2,3:2:0:0:
52,235,46303,2,0,P|142:217|195:179,1,148.50000453186,4|0,3:2|1:0,0:0:0:0:
187,185,46795,1,2,3:2:0:0:
154,318,47041,1,2,1:2:0:0:
222,66,47287,2,0,L|233:17,1,49.5000015106202,2|0,1:2|1:0,0:0:0:0:
126,110,47533,5,4,3:2:0:0:
290,151,47779,1,2,1:2:0:0:
290,151,47901,1,0,1:0:0:0:
290,151,48024,1,2,3:2:0:0:
336,0,48270,2,0,L|323:47,1,49.5000015106202,2|2,1:2|1:2,0:0:0:0:
378,122,48516,5,2,3:2:0:0:
400,111,48639,1,0,3:0:0:0:
424,111,48762,1,2,1:2:0:0:
447,121,48885,1,2,1:2:0:0:
462,140,49008,2,0,L|449:187,1,49.5000015106202,0|2,3:0|3:2,0:0:0:0:
360,211,49254,2,0,L|347:258,1,49.5000015106202,2|0,1:2|1:0,0:0:0:0:
364,364,49500,5,2,3:2:0:0:
375,360,49623,1,0,3:0:0:0:
387,357,49746,1,2,1:2:0:0:
399,354,49869,1,2,1:2:0:0:
411,351,49992,2,0,L|424:304,2,49.5000015106202,2|0|2,3:2|1:0|1:2,0:0:0:0:
288,240,50483,5,4,3:2:0:0:
288,240,50606,2,0,P|323:257|374:249,1,62.9999980773926,0|0,1:0|0:0,0:0:0:0:
346,257,50852,2,0,P|399:174|485:186,1,188.999994232178,4|4,3:2|3:2,0:0:0:0:
422,11,51467,5,4,3:2:0:0:
512,81,51713,1,2,1:2:0:0:
512,81,51836,1,0,1:0:0:0:
512,81,51959,1,2,3:2:0:0:
422,11,52205,2,0,L|375:24,1,49.5000015106202,2|2,1:2|1:2,0:0:0:0:
271,43,52451,5,2,3:2:0:0:
260,65,52574,1,0,3:0:0:0:
260,89,52697,1,2,1:2:0:0:
270,112,52820,1,0,1:0:0:0:
289,127,52942,2,0,L|336:114,1,49.5000015106202,2|2,3:2|3:2,0:0:0:0:
375,24,53188,2,0,L|422:11,1,49.5000015106202,2|2,1:2|1:2,0:0:0:0:
462,124,53434,5,2,1:2:0:0:
462,124,53557,2,0,P|478:150|475:194,1,62.9999980773926,2|8,1:2|3:0,0:0:0:0:
479,181,53803,2,0,P|389:177|345:256,1,188.999994232178,2|2,1:2|1:2,0:0:0:0:
455,346,54418,5,12,3:0:0:0:
440,317,54541,1,2,1:2:0:0:
454,289,54664,1,2,1:2:0:0:
439,261,54787,1,2,1:2:0:0:
287,356,55401,5,4,3:2:0:0:
117,246,55647,2,0,P|146:262|178:270,1,67.5000025749208,0|0,1:0|0:0,0:0:0:0:
173,384,55893,2,0,P|209:290|195:155,1,202.500007724762,2|0,3:2|0:0,0:0:0:0:
205,189,56385,1,0,3:0:0:0:
320,96,56631,2,0,P|304:128|301:173,1,67.5000025749208,2|0,1:2|0:0,0:0:0:0:
213,95,56877,1,2,3:2:0:0:
213,95,57000,1,0,3:0:0:0:
213,95,57123,2,0,P|139:83|84:46,1,135.000005149842,2|2,1:2|3:2,0:0:0:0:
299,159,57615,6,0,P|339:165|376:183,1,67.5000025749208,2|0,1:2|0:0,0:0:0:0:
205,189,57860,1,0,3:0:0:0:
454,132,58106,2,0,P|468:83|391:61,1,135.000005149842,2|2,1:2|3:2,0:0:0:0:
329,1,58475,1,0,3:0:0:0:
329,1,58598,2,0,P|314:26|310:88,2,67.5000025749208,2|0|2,1:2|0:0|3:2,0:0:0:0:
450,224,59090,2,0,P|444:257|427:286,1,67.5000025749208,2|0,1:2|0:0,0:0:0:0:
365,175,59336,5,2,3:2:0:0:
365,175,59582,2,0,P|329:171|290:153,1,67.5000025749208,2|0,1:2|0:0,0:0:0:0:
213,217,59828,1,2,3:2:0:0:
213,217,59951,2,0,P|151:193|58:187,1,135.000005149842,2|0,1:2|0:0,0:0:0:0:
83,185,60320,1,2,3:2:0:0:
4,25,60565,1,2,1:2:0:0:
4,25,60688,2,0,P|-9:92|60:95,1,135.000005149842,2|0,1:2|3:0,0:0:0:0:
43,106,61057,1,2,1:2:0:0:
121,269,61303,6,0,P|127:202|153:140,1,135.000005149842,2|0,3:2|1:0,0:0:0:0:
148,54,61672,1,2,1:2:0:0:
148,54,61795,2,0,P|190:60|221:79,1,67.5000025749208,0|2,1:0|3:2,0:0:0:0:
327,0,62041,1,8,3:0:0:0:
327,0,62287,6,0,P|322:40|305:75,1,67.5000025749208,4|0,3:2|0:0,0:0:0:0:
400,130,62533,2,0,P|405:90|422:55,1,67.5000025749208,4|0,3:2|0:0,0:0:0:0:
311,158,62779,2,0,P|384:156|432:213,1,153.000002918243,4|0,3:2|1:0,0:0:0:0:
432,213,63147,1,0,1:0:0:0:
432,213,63270,5,4,3:2:0:0:
325,312,63516,2,0,P|342:275|342:228,1,67.5000025749208,2|0,1:2|0:0,0:0:0:0:
428,326,63762,2,0,P|341:331|204:370,1,202.500007724762,2|0,3:2|0:0,0:0:0:0:
229,359,64254,1,0,3:0:0:0:
81,331,64500,2,0,P|114:325|144:311,1,67.5000025749208,2|0,1:2|0:0,0:0:0:0:
239,267,64746,1,2,3:2:0:0:
239,267,64869,1,0,3:0:0:0:
239,267,64992,2,0,P|221:216|213:126,1,135.000005149842,2|2,1:2|3:2,0:0:0:0:
104,13,65483,6,0,P|120:45|122:100,1,67.5000025749208,2|0,1:2|0:0,0:0:0:0:
212,135,65729,1,0,3:0:0:0:
12,210,65975,2,0,P|83:223|123:168,1,135.000005149842,2|2,1:2|3:2,0:0:0:0:
219,46,66467,1,2,1:2:0:0:
236,17,66590,1,2,1:2:0:0:
265,0,66713,1,2,3:2:0:0:
298,0,66836,1,4,3:0:0:0:
327,16,66959,2,0,P|342:50|343:86,1,67.5000025749208,2|0,1:2|0:0,0:0:0:0:
305,162,67205,6,0,P|329:232|386:227,1,135,4|0,3:2|0:0,0:0:0:0:
380,230,67697,2,0,P|426:204|465:204,1,90,2|0,0:0|3:0,0:0:0:0:
498,110,68188,2,0,P|474:40|417:45,2,135,2|2|2,1:2|1:2|3:2,0:0:0:0:
343,79,69172,6,0,P|336:34|299:-6,1,90,2|2,3:2|0:0,0:0:0:0:
308,0,69541,2,0,P|243:31|157:31,1,135,2|2,1:2|3:2,0:0:0:0:
73,169,70156,2,0,P|138:138|224:138,1,135,2|0,1:2|1:0,0:0:0:0:
200,133,70647,2,0,P|203:165|213:182,2,45,2|0|0,1:2|1:0|3:0,0:0:0:0:
94,52,71139,5,2,1:2:0:0:
304,185,71385,1,8,0:0:0:0:
304,185,71631,1,8,0:0:0:0:
287,92,71877,1,2,0:0:0:0:
497,225,72123,5,2,1:2:0:0:
287,92,72369,1,8,0:0:0:0:
287,92,72615,1,8,0:0:0:0:
304,185,72860,1,2,0:0:0:0:
94,52,73106,5,2,1:2:0:0:
94,52,73352,2,0,L|111:125,1,45,10|0,0:0|1:0,0:0:0:0:
192,52,73598,1,8,3:0:0:0:
303,185,73844,6,0,P|287:93|196:72,1,198.000006042481,4|2,3:2|3:2,0:0:0:0:
223,235,74582,1,2,1:2:0:0:
413,265,74828,1,2,1:2:0:0:
413,265,74951,1,2,1:2:0:0:
413,265,75074,2,0,P|364:284|300:291,1,99.0000030212403,4|0,3:2|1:0,0:0:0:0:
318,290,75442,1,0,1:0:0:0:
318,290,75565,2,0,P|319:326|330:356,1,49.5000015106202,2|0,3:2|0:0,0:0:0:0:
231,381,75811,2,0,P|230:345|219:315,1,49.5000015106202,2|0,1:2|1:0,0:0:0:0:
223,235,76057,5,0,3:2:0:0:
192,236,76180,1,0,3:0:0:0:
164,249,76303,1,0,1:0:0:0:
144,272,76426,1,0,3:0:0:0:
131,300,76549,1,0,1:0:0:0:
116,327,76672,1,8,3:0:0:0:
92,347,76795,1,4,3:0:0:0:
62,352,76918,1,0,3:0:0:0:
32,345,77041,5,2,1:0:0:0:
32,345,79992,6,0,P|35:306|46:266,1,72,2|2,0:0|0:0,0:0:0:0:
31,188,80483,2,0,P|58:250|126:254,2,144,2|2|2,0:0|0:0|0:0,0:0:0:0:
43,18,81959,5,2,0:0:0:0:
43,18,82205,2,0,P|80:32|138:30,1,72,2|2,0:0|0:0,0:0:0:0:
273,94,82942,2,0,P|261:29|209:28,2,108,2|2|2,0:0|0:0|0:0,0:0:0:0:
194,132,83926,2,0,P|160:119|114:120,2,72,2|0|2,0:0|0:0|0:0,0:0:0:0:
323,17,84910,2,0,P|381:45|464:49,1,144,2|2,0:0|0:0,0:0:0:0:
470,33,85893,6,0,B|512:107|431:162|428:117|346:176|390:257,1,269.999991760254,2|0,0:0|0:0,0:0:0:0:
