osu file format v14

[General]
AudioFilename: audio.ogg
AudioLeadIn: 0
PreviewTime: 55320
Countdown: 0
SampleSet: Soft
StackLeniency: 0.7
Mode: 0
LetterboxInBreaks: 0
WidescreenStoryboard: 1

[Editor]
DistanceSpacing: 0.5
BeatDivisor: 4
GridSize: 4
TimelineZoom: 1.2

[Metadata]
Title:Hanarenai Kyori (TV Size)
TitleUnicode:はなれない距離 (TV Size)
Artist:TrySail
ArtistUnicode:TrySail
Creator:Garden
Version:Expert
Source:阿波連さんははかれない
Tags:aharen-san wa hakarenai anime opening short cut version japanese pop jpop j-pop toybot 麻倉もも asakura momo 雨宮天 amamiya sora 夏川椎菜 natsukawa shiina
BeatmapID:3562509
BeatmapSetID:1742665

[Difficulty]
HPDrainRate:6
CircleSize:4
OverallDifficulty:8.7
ApproachRate:9.3
SliderMultiplier:3.2
SliderTickRate:1

[Events]
//Background and Video events
0,0,"69519349_p0_edited.jpg",0,0
Video,-27,"op.mp4"
//Break Periods
2,77486,79315
//Storyboard Layer 0 (Background)
//Storyboard Layer 1 (Fail)
//Storyboard Layer 2 (Pass)
//Storyboard Layer 3 (Foreground)
//Storyboard Layer 4 (Overlay)
//Storyboard Sound Samples

[TimingPoints]
320,491.803278688525,4,2,1,50,1,0
320,-200,4,2,1,50,0,0
4254,-666.666666666667,4,2,1,50,0,0
5238,-166.666666666667,4,2,1,50,0,0
7205,-666.666666666667,4,2,1,50,0,0
8188,-100,4,2,1,60,0,0
8496,-100,4,2,1,5,0,0
8680,-100,4,2,1,60,0,0
8742,-100,4,2,1,5,0,0
8926,-100,4,2,1,60,0,0
8988,-100,4,2,1,5,0,0
9172,-100,4,2,1,60,0,0
9479,-100,4,2,1,5,0,0
9664,-100,4,2,1,60,0,0
9725,-100,4,2,1,5,0,0
9910,-100,4,2,1,60,0,0
9971,-100,4,2,1,5,0,0
10156,-100,4,2,1,60,0,0
10893,-83.3333333333333,4,2,1,60,0,0
14090,-500,4,2,1,60,0,0
15074,-125,4,2,1,60,0,0
16057,-83.3333333333333,4,2,1,70,0,0
21959,-100,4,2,1,60,0,0
23188,-133.333333333333,4,2,1,60,0,0
23434,-200,4,2,1,60,0,0
23926,-100,4,2,1,60,0,0
27860,-90.9090909090909,4,2,1,60,0,0
31795,-166.666666666667,4,2,1,60,0,0
35238,-90.9090909090909,4,2,1,60,0,0
39664,-125,4,2,1,60,0,0
43106,-166.666666666667,4,2,1,60,0,0
43598,-100,4,2,1,60,0,0
47533,-250,4,2,1,60,0,0
50483,-71.4285714285714,4,2,1,60,0,0
51467,-250,4,2,1,60,0,0
53434,-71.4285714285714,4,2,1,60,0,0
55401,-71.4285714285714,4,2,1,75,0,1
61549,-83.3333333333333,4,2,1,75,0,1
62287,-66.6666666666667,4,2,1,75,0,1
62779,-133.333333333333,4,2,1,75,0,1
63270,-71.4285714285714,4,2,1,75,0,1
66959,-200,4,2,1,75,0,1
67205,-133.333333333333,4,2,1,70,0,1
70156,-200,4,2,1,70,0,1
71139,-100,4,2,1,65,0,0
71447,-100,4,2,1,5,0,0
71631,-100,4,2,1,65,0,0
71692,-100,4,2,1,5,0,0
71877,-100,4,2,1,65,0,0
71938,-100,4,2,1,5,0,0
72123,-100,4,2,1,65,0,0
72430,-100,4,2,1,5,0,0
72615,-100,4,2,1,65,0,0
72676,-100,4,2,1,5,0,0
72860,-100,4,2,1,65,0,0
72922,-100,4,2,1,5,0,0
73106,-100,4,2,1,65,0,0
73844,-83.3333333333333,4,2,1,65,0,0
77041,-200,4,2,1,65,0,0
77287,-200,4,2,1,35,0,0
77533,-200,4,2,1,55,0,0
79992,491.803278688525,4,2,1,50,1,0
79992,-166.666666666667,4,2,1,50,0,0
83926,-222.222222222222,4,2,1,40,0,0
85893,-400,4,2,1,50,0,0
86016,-400,4,2,1,5,0,0

[Colours]
Combo1 : 168,181,255
Combo2 : 218,168,255

[HitObjects]
78,208,320,6,0,P|72:168|34:152,1,80,2|0,0:0|0:0,0:0:0:0:
14,272,811,2,0,P|87:239|192:235,1,160,2|2,0:0|0:0,0:0:0:0:
273,156,1549,1,0,0:0:0:0:
252,238,1795,1,2,0:0:0:0:
232,321,2041,5,0,0:0:0:0:
247,318,2287,1,2,0:0:0:0:
273,156,2533,1,0,0:0:0:0:
257,159,2779,1,2,0:0:0:0:
328,293,3024,6,0,P|332:250|348:196,1,80,0|2,0:0|0:0,0:0:0:0:
505,66,3516,1,0,0:0:0:0:
433,102,3762,1,2,0:0:0:0:
421,181,4008,1,0,0:0:0:0:
512,265,4254,6,0,P|491:255|467:253,1,47.9999985351563,2|2,0:0|0:1,0:0:0:0:
35,31,5238,1,2,0:0:0:0:
99,97,5483,1,2,0:0:0:0:
101,91,5565,1,2,0:0:0:0:
103,85,5647,1,2,0:0:0:0:
105,79,5729,1,2,0:0:0:0:
12,122,5975,6,0,P|13:170|55:186,1,95.9999970703126,0|2,0:0|0:0,0:0:0:0:
133,241,6467,1,2,0:0:0:0:
140,213,6590,1,2,0:0:0:0:
147,185,6713,1,2,0:0:0:0:
46,277,6959,1,2,0:0:0:0:
113,383,7205,6,0,L|126:330,2,47.9999985351563,2|2|2,0:0|0:1|1:2,0:0:0:0:
7,288,8434,6,0,L|45:276,1,40,8|0,0:0|0:0,0:0:0:0:
139,251,8680,2,0,L|177:239,1,40,8|0,0:0|0:0,0:0:0:0:
177,238,8926,6,0,L|165:199,1,40,2|0,0:0|0:0,0:0:0:0:
138,115,9172,5,2,1:2:0:0:
138,115,9418,6,0,L|176:103,1,40,8|0,0:0|0:0,0:0:0:0:
270,78,9664,2,0,L|308:66,1,40,8|0,0:0|0:0,0:0:0:0:
308,65,9910,6,0,L|296:26,1,40,2|0,0:0|0:0,0:0:0:0:
337,149,10156,5,2,1:2:0:0:
449,20,10401,1,10,0:0:0:0:
470,32,10524,1,0,1:0:0:0:
471,56,10647,2,0,P|437:81|384:76,1,80,8|0,3:0|0:0,0:0:0:0:
308,65,10893,6,0,P|438:81|471:240,1,287.999991210938,4|0,3:2|0:0,0:0:0:0:
451,300,11385,2,0,P|406:287|393:243,1,95.9999970703126,2|0,3:2|0:0,0:0:0:0:
247,133,11631,5,2,1:2:0:0:
242,152,11754,1,0,1:0:0:0:
294,247,11877,5,2,1:2:0:0:
299,228,12000,1,2,1:2:0:0:
392,243,12123,6,0,B|337:225|286:273|323:279|281:333|224:318,1,191.999994140625,4|0,3:2|1:0,0:0:0:0:
58,253,12492,1,0,1:0:0:0:
103,333,12615,2,0,P|146:298|139:237,1,95.9999970703126,2|0,3:2|0:0,0:0:0:0:
164,97,12860,1,2,1:2:0:0:
164,97,12983,1,0,1:0:0:0:
72,95,13106,2,0,P|80:149|137:174,1,95.9999970703126,2|0,3:2|3:0,0:0:0:0:
231,319,13352,5,0,1:0:0:0:
315,298,13475,1,0,3:0:0:0:
352,220,13598,1,0,1:0:0:0:
323,138,13721,1,8,3:0:0:0:
359,59,13844,1,4,3:0:0:0:
441,34,13967,1,0,3:0:0:0:
438,50,14090,6,0,P|469:47|499:37,1,64,2|2,1:0|0:0,0:0:0:0:
74,334,14951,5,2,0:0:0:0:
71,350,15074,5,2,0:1:0:0:
441,34,15320,1,2,0:1:0:0:
74,334,15565,5,2,0:1:0:0:
438,50,15811,1,2,0:1:0:0:
256,192,16057,5,4,3:2:0:0:
256,192,16303,2,0,P|314:186|328:144,1,95.9999970703126,2|0,1:2|0:0,0:0:0:0:
453,384,16549,2,0,P|428:295|338:289,1,191.999994140625,2|0,3:2|1:0,0:0:0:0:
512,160,16918,1,0,3:0:0:0:
446,91,17041,2,0,P|423:140|419:195,1,95.9999970703126,2|0,3:2|0:0,0:0:0:0:
150,273,17287,1,0,1:0:0:0:
220,379,17410,2,0,P|248:287|255:191,1,191.999994140625,2|0,3:2|3:0,0:0:0:0:
185,117,17779,5,2,1:2:0:0:
340,287,17901,1,2,3:2:0:0:
185,117,18024,1,2,3:2:0:0:
185,117,18270,6,0,P|185:61|218:41,1,95.9999970703126,2|0,1:2|0:0,0:0:0:0:
165,303,18516,2,0,P|252:281|254:191,1,191.999994140625,2|0,3:2|1:0,0:0:0:0:
361,34,18885,1,0,3:0:0:0:
382,127,19008,2,0,P|334:121|292:100,1,95.9999970703126,2|0,3:2|0:0,0:0:0:0:
5,102,19254,5,2,1:2:0:0:
27,185,19377,1,2,1:2:0:0:
108,214,19500,1,0,3:0:0:0:
175,159,19623,1,0,1:0:0:0:
254,191,19746,1,2,1:2:0:0:
274,275,19869,1,2,1:2:0:0:
261,284,19992,6,0,P|273:334|345:328,1,95.9999970703126,4|0,3:2|0:0,0:0:0:0:
441,271,20238,1,2,1:2:0:0:
444,258,20320,1,0,3:0:0:0:
447,245,20401,1,0,3:0:0:0:
450,232,20483,2,0,P|403:254|350:267,1,95.9999970703126,2|0,1:2|0:0,0:0:0:0:
467,149,20729,1,2,1:2:0:0:
470,136,20811,1,0,3:0:0:0:
473,123,20893,1,0,3:0:0:0:
476,110,20975,2,0,P|429:132|376:145,1,95.9999970703126,2|0,1:2|0:0,0:0:0:0:
325,70,21221,1,2,1:2:0:0:
328,57,21303,1,0,3:0:0:0:
331,44,21385,1,0,3:0:0:0:
334,31,21467,5,2,1:2:0:0:
250,10,21590,1,2,1:2:0:0:
187,69,21713,1,2,1:2:0:0:
192,155,21836,1,2,1:2:0:0:
258,206,21959,1,4,1:2:0:0:
27,324,22205,5,0,3:0:0:0:
27,324,22328,2,0,P|86:253|153:280,1,160,2|0,1:2|3:0,0:0:0:0:
158,286,22697,2,0,L|135:383,1,80,2|0,1:2|0:0,0:0:0:0:
192,155,22942,1,2,1:2:0:0:
232,379,23188,6,0,L|247:315,1,60.0000022888184,2|2,0:0|0:0,0:0:0:0:
245,320,23434,2,0,L|345:301,1,80,2|0,0:0|0:0,0:0:0:0:
39,38,23926,5,2,3:2:0:0:
473,346,25647,1,2,3:2:0:0:
39,38,26877,1,2,0:0:0:0:
39,38,27123,2,0,P|48:80|89:86,1,80,8|0,3:0|3:0,0:0:0:0:
47,242,27369,5,2,1:2:0:0:
87,172,27492,1,0,1:0:0:0:
154,129,27615,1,2,1:2:0:0:
234,129,27738,1,0,1:0:0:0:
306,167,27860,1,4,3:2:0:0:
306,167,28106,6,0,P|311:216|356:224,1,88.000002685547,2|0,1:2|0:2,0:0:0:0:
475,304,28352,1,2,3:2:0:0:
481,283,28475,1,2,0:0:0:0:
475,262,28598,1,0,1:0:0:0:
459,247,28721,1,2,0:0:0:0:
438,243,28844,6,0,P|391:323|299:315,1,176.000005371094,2|0,3:2|1:0,0:0:0:0:
169,381,29213,2,0,P|179:340|218:324,1,88.000002685547,2|0,0:0|3:0,0:0:0:0:
122,263,29459,1,2,0:0:0:0:
69,141,29582,6,0,P|154:193|131:262,1,176.000005371094,2|0,1:2|3:0,0:0:0:0:
8,209,29951,1,2,0:0:0:0:
44,284,30074,2,0,P|0:251|16:198,1,88.000002685547,0|0,1:0|0:0,0:0:0:0:
48,12,30320,5,2,3:2:0:0:
14,83,30442,1,2,3:2:0:0:
69,141,30565,1,2,1:2:0:0:
145,120,30688,1,2,0:0:0:0:
160,133,30811,6,0,P|167:85|181:41,1,88.000002685547,2|0,3:2|0:0,0:0:0:0:
432,66,31057,5,2,1:0:0:0:
406,150,31180,1,8,3:0:0:0:
286,21,31303,5,2,1:0:0:0:
372,1,31426,1,8,3:0:0:0:
321,170,31549,5,2,1:0:0:0:
260,105,31672,1,0,1:0:0:0:
346,86,31795,5,4,3:2:0:0:
462,220,32041,5,2,0:0:0:0:
486,213,32164,1,2,0:0:0:0:
512,206,32287,1,2,3:2:0:0:
377,243,32533,5,2,3:2:0:0:
466,383,32779,5,2,3:2:0:0:
459,357,32901,1,0,1:0:0:0:
452,333,33024,1,2,0:0:0:0:
444,309,33147,1,0,1:0:0:0:
286,258,33393,5,2,3:2:0:0:
294,282,33516,2,0,P|274:326|202:313,1,95.9999970703126,2|0,1:2|3:0,0:0:0:0:
73,384,34008,1,2,0:0:0:0:
73,384,34131,1,2,0:0:0:0:
73,384,34254,2,0,P|91:341|136:331,1,95.9999970703126,2|2,3:2|0:0,0:0:0:0:
84,53,34746,6,0,L|73:100,1,47.9999985351563,2|0,3:2|3:0,0:0:0:0:
191,259,34992,2,0,L|201:211,1,47.9999985351563,2|0,3:2|3:0,0:0:0:0:
56,180,35238,5,2,1:2:0:0:
138,156,35360,1,2,1:2:0:0:
220,132,35483,1,2,1:2:0:0:
302,108,35606,1,2,1:2:0:0:
306,87,35729,6,0,P|392:96|384:181,1,176.000005371094,4|0,3:2|1:0,0:0:0:0:
498,208,36098,1,2,0:0:0:0:
450,300,36221,2,0,P|463:248|483:212,1,88.000002685547,2|0,3:2|0:0,0:0:0:0:
354,260,36467,2,0,P|341:312|321:348,1,88.000002685547,0|0,1:0|0:0,0:0:0:0:
138,372,36713,5,2,3:2:0:0:
103,344,36836,1,2,0:0:0:0:
103,299,36959,1,0,1:0:0:0:
131,265,37082,1,2,0:0:0:0:
173,252,37205,2,0,P|220:271|266:276,1,88.000002685547,2|0,3:2|3:0,0:0:0:0:
328,370,37451,6,0,P|379:252|342:104,1,264.000008056641,4|0,1:2|0:0,0:0:0:0:
409,33,37942,2,0,P|366:31|324:19,1,88.000002685547,2|0,1:2|0:0,0:0:0:0:
193,0,38188,1,2,3:2:0:0:
135,54,38311,1,2,3:2:0:0:
180,119,38434,2,0,P|223:120|265:133,1,88.000002685547,2|0,1:2|0:0,0:0:0:0:
483,359,38680,5,2,3:2:0:0:
467,272,38803,1,0,3:0:0:0:
401,212,38926,1,0,1:0:0:0:
313,220,39049,1,0,1:0:0:0:
249,281,39172,1,12,3:0:0:0:
161,288,39295,1,8,3:0:0:0:
92,232,39418,1,4,3:0:0:0:
75,145,39541,1,0,3:0:0:0:
90,138,39664,5,4,3:2:0:0:
107,225,40156,1,2,0:0:0:0:
176,281,40647,1,2,0:0:0:0:
264,274,41139,1,2,0:0:0:0:
328,213,41631,1,2,0:0:0:0:
32,39,42123,5,2,0:1:0:0:
75,145,42492,2,0,L|92:103,2,32,2|2|2,0:1|0:1|0:1,0:0:0:0:
0,283,42983,5,0,1:0:0:0:
0,283,43106,2,0,P|53:242|101:260,1,95.9999970703126,2|0,1:2|3:0,0:0:0:0:
175,236,43598,6,0,P|101:264|132:360,1,160,4|0,3:2|0:0,0:0:0:0:
189,368,43967,2,0,P|227:343|225:294,1,80,2|0,1:2|3:0,0:0:0:0:
268,230,44213,1,2,0:0:0:0:
179,70,44336,6,0,P|178:182|284:216,1,240,4|0,3:2|0:0,0:0:0:0:
371,193,44828,2,0,P|357:148|309:136,1,80,2|2,0:0|0:0,0:0:0:0:
388,23,45074,1,2,0:0:0:0:
388,23,45197,1,0,1:0:0:0:
388,23,45320,2,0,P|396:61|429:81,1,80,2|2,3:2|0:0,0:0:0:0:
350,283,45565,6,0,P|416:204|492:227,1,160,4|0,3:2|1:0,0:0:0:0:
480,299,45934,2,0,P|460:331|405:328,1,80,2|0,3:2|0:0,0:0:0:0:
312,384,46180,1,2,3:2:0:0:
197,269,46303,6,0,P|306:265|323:373,1,240,4|0,3:2|1:0,0:0:0:0:
229,376,46795,1,2,3:2:0:0:
224,368,46877,1,2,0:0:0:0:
225,357,46959,1,2,0:0:0:0:
233,351,47041,1,2,1:2:0:0:
57,126,47287,5,2,1:2:0:0:
128,161,47410,1,0,1:0:0:0:
118,243,47533,1,4,3:2:0:0:
118,243,47779,6,0,L|111:285,1,32,2|0,1:2|1:0,0:0:0:0:
394,141,48024,2,0,L|401:99,1,32,2|0,3:2|3:0,0:0:0:0:
256,186,48270,5,2,1:2:0:0:
256,198,48393,1,2,1:2:0:0:
430,226,48516,6,0,L|475:234,1,32,2|0,3:2|3:0,0:0:0:0:
82,158,48762,1,2,1:2:0:0:
82,158,48885,2,0,L|37:150,1,32,2|0,1:2|3:0,0:0:0:0:
217,71,49131,5,2,3:2:0:0:
217,71,49254,2,0,L|228:120,1,32,2|0,1:2|1:0,0:0:0:0:
295,313,49500,2,0,L|284:264,1,32,2|0,3:2|3:0,0:0:0:0:
262,192,49746,5,2,1:2:0:0:
250,192,49869,1,2,1:2:0:0:
399,109,49992,6,0,L|444:96,1,32,2|0,3:2|1:0,0:0:0:0:
113,275,50238,2,0,L|68:288,1,32,2|0,1:2|1:0,0:0:0:0:
98,384,50483,6,0,P|136:294|139:149,1,223.999993164063,4|0,3:2|0:0,0:0:0:0:
414,0,50852,2,0,P|376:90|373:235,1,223.999993164063,4|0,3:2|0:0,0:0:0:0:
407,303,51221,2,0,P|458:323|512:313,1,111.999996582031,4|0,3:2|0:0,0:0:0:0:
105,81,51467,1,4,3:2:0:0:
105,81,51713,6,0,L|100:44,1,32,2|0,1:2|1:0,0:0:0:0:
407,303,51959,2,0,L|412:340,1,32,2|0,3:2|3:0,0:0:0:0:
256,198,52205,1,2,1:2:0:0:
256,186,52328,1,2,1:2:0:0:
113,275,52451,6,0,L|57:290,1,32,2|0,3:2|3:0,0:0:0:0:
399,109,52697,2,0,L|455:94,1,32,2|0,1:2|1:0,0:0:0:0:
193,104,52942,5,2,3:2:0:0:
199,118,53065,1,2,3:2:0:0:
319,280,53188,1,2,1:2:0:0:
313,266,53311,1,2,1:2:0:0:
264,192,53434,5,2,1:2:0:0:
248,192,53557,2,0,P|212:242|153:214,1,111.999996582031,2|8,1:2|3:0,0:0:0:0:
311,44,53803,2,0,P|331:90|345:165,1,111.999996582031,2|0,1:2|3:0,0:0:0:0:
84,315,54049,1,8,3:0:0:0:
201,340,54172,2,0,P|181:294|167:219,1,111.999996582031,2|0,1:2|3:0,0:0:0:0:
426,77,54418,5,12,3:0:0:0:
468,155,54541,1,2,1:2:0:0:
430,237,54664,1,2,1:2:0:0:
341,250,54787,1,2,1:2:0:0:
341,250,55401,5,4,3:2:0:0:
512,353,55647,2,0,P|459:333|404:329,1,111.999996582031,0|0,1:0|0:0,0:0:0:0:
215,221,55893,2,0,P|309:268|297:373,2,223.999993164063,2|0|0,3:2|1:0|3:0,0:0:0:0:
147,67,56508,1,0,3:0:0:0:
52,110,56631,2,0,P|75:158|134:164,1,111.999996582031,2|0,1:2|0:0,0:0:0:0:
315,231,56877,2,0,P|323:175|352:128,1,111.999996582031,2|0,3:2|0:0,0:0:0:0:
287,48,57123,5,2,1:2:0:0:
422,208,57246,1,2,1:2:0:0:
287,48,57369,1,2,3:2:0:0:
287,48,57615,6,0,P|425:57|430:148,1,223.999993164063,2|0,1:2|3:0,0:0:0:0:
404,298,57983,1,0,3:0:0:0:
493,273,58106,2,0,P|465:216|399:216,1,111.999996582031,2|0,1:2|0:0,0:0:0:0:
212,265,58352,5,2,3:2:0:0:
194,352,58475,1,0,3:0:0:0:
287,384,58598,2,0,P|296:328|314:276,1,111.999996582031,2|0,1:2|0:0,0:0:0:0:
38,170,58844,5,2,3:2:0:0:
20,257,58967,1,0,3:0:0:0:
113,289,59090,2,0,P|123:234|141:182,1,111.999996582031,2|0,1:2|0:0,0:0:0:0:
253,30,59336,5,2,3:2:0:0:
253,30,59582,2,0,P|242:71|155:75,1,111.999996582031,2|0,1:2|0:0,0:0:0:0:
359,49,59828,1,2,3:2:0:0:
136,12,59951,2,0,P|241:54|356:69,1,223.999993164063,2|0,1:2|0:0,0:0:0:0:
423,130,60320,6,0,P|475:134|493:184,1,111.999996582031,2|0,3:2|0:0,0:0:0:0:
491,29,60565,1,2,1:2:0:0:
414,236,60688,2,0,P|456:122|470:18,1,223.999993164063,2|0,1:2|3:0,0:0:0:0:
332,175,61057,5,2,1:2:0:0:
299,270,61180,1,2,1:2:0:0:
381,327,61303,2,0,P|437:357|490:356,1,111.999996582031,2|0,3:2|0:0,0:0:0:0:
264,364,61549,5,0,1:0:0:0:
182,307,61672,2,0,P|140:286|76:281,1,95.9999970703126,2|0,1:2|1:0,0:0:0:0:
248,20,61918,5,2,3:2:0:0:
330,77,62041,2,0,P|372:98|420:104,1,95.9999970703126,8|0,3:0|1:0,0:0:0:0:
26,216,62287,6,0,P|9:158|59:117,1,120.000004577637,4|0,3:2|0:0,0:0:0:0:
486,168,62533,2,0,P|503:226|453:267,1,120.000004577637,4|0,3:2|0:0,0:0:0:0:
197,203,62779,6,0,P|256:194|313:176,1,120.000004577637,4|0,3:2|1:0,0:0:0:0:
313,176,63147,1,0,1:0:0:0:
313,176,63270,5,4,3:2:0:0:
119,12,63516,2,0,P|125:70|145:127,1,111.999996582031,2|0,1:2|0:0,0:0:0:0:
221,324,63762,2,0,P|187:224|83:225,2,223.999993164063,2|0|0,3:2|1:0|3:0,0:0:0:0:
428,236,64377,1,0,3:0:0:0:
352,384,64500,2,0,P|334:330|328:275,1,111.999996582031,2|0,1:2|0:0,0:0:0:0:
497,156,64746,2,0,P|478:206|426:220,1,111.999996582031,2|0,3:2|0:0,0:0:0:0:
320,158,64992,5,2,1:2:0:0:
442,335,65115,1,2,1:2:0:0:
320,158,65238,1,2,3:2:0:0:
320,158,65483,6,0,P|300:38|200:38,1,223.999993164063,2|0,1:2|3:0,0:0:0:0:
50,194,65852,1,0,3:0:0:0:
113,64,65975,2,0,P|139:112|143:178,1,111.999996582031,2|0,1:2|0:0,0:0:0:0:
31,384,66221,2,0,P|4:335|1:270,1,111.999996582031,2|0,3:2|0:0,0:0:0:0:
236,143,66467,5,2,1:2:0:0:
261,228,66590,1,2,1:2:0:0:
212,303,66713,1,2,3:2:0:0:
122,313,66836,1,4,3:0:0:0:
127,299,66959,6,0,P|118:279|118:253,1,40,2|0,1:2|0:0,0:0:0:0:
229,47,67205,6,0,P|315:58|324:142,1,180.000006866455,4|0,3:2|0:0,0:0:0:0:
350,134,67697,2,0,P|407:142|445:99,1,120.000004577637,2|0,0:0|3:0,0:0:0:0:
472,357,68188,6,0,P|467:297|447:240,1,120.000004577637,2|0,1:2|0:0,0:0:0:0:
425,232,68557,2,0,P|395:235|368:247,1,60.0000022888184,2|0,1:2|0:0,0:0:0:0:
150,384,68926,2,0,P|179:380|206:368,1,60.0000022888184,2|0,3:2|0:0,0:0:0:0:
368,247,69172,5,2,3:2:0:0:
301,365,69418,1,2,0:0:0:0:
301,365,69541,2,0,P|287:291|204:304,1,120.000004577637,2|0,1:2|0:0,0:0:0:0:
228,279,69910,1,2,3:2:0:0:
4,210,70156,6,0,P|4:267|54:296,1,120.000004577637,2|0,1:2|1:0,0:0:0:0:
138,288,70647,1,2,1:2:0:0:
143,268,70770,1,0,1:0:0:0:
148,248,70893,1,0,3:0:0:0:
69,37,71139,5,2,1:2:0:0:
69,37,71385,6,0,L|107:45,1,40,8|0,0:0|0:0,0:0:0:0:
201,71,71631,2,0,L|239:79,1,40,8|0,0:0|0:0,0:0:0:0:
240,79,71877,6,0,L|231:118,1,40,2|0,0:0|0:0,0:0:0:0:
216,205,72123,5,2,1:2:0:0:
216,205,72369,6,0,L|254:213,1,40,8|0,0:0|0:0,0:0:0:0:
348,239,72615,2,0,L|386:247,1,40,8|0,0:0|0:0,0:0:0:0:
387,247,72860,6,0,L|378:286,1,40,2|0,0:0|0:0,0:0:0:0:
409,162,73106,5,2,1:2:0:0:
243,381,73352,1,10,0:0:0:0:
222,369,73475,1,0,1:0:0:0:
221,345,73598,2,0,P|255:320|308:325,1,80,8|0,3:0|0:0,0:0:0:0:
378,286,73844,6,0,P|250:257|239:111,1,287.999991210938,4|0,3:2|0:0,0:0:0:0:
264,27,74336,2,0,P|309:40|315:92,1,95.9999970703126,2|0,3:2|0:0,0:0:0:0:
419,203,74582,5,2,1:2:0:0:
414,184,74705,1,0,1:0:0:0:
473,99,74828,5,2,1:2:0:0:
478,118,74951,1,2,1:2:0:0:
325,176,75074,6,0,B|267:194|223:150|266:145|214:101|154:126,1,191.999994140625,4|0,3:2|1:0,0:0:0:0:
112,27,75442,1,0,1:0:0:0:
24,89,75565,2,0,P|64:120|60:185,1,95.9999970703126,2|0,3:2|0:0,0:0:0:0:
138,359,75811,1,2,1:2:0:0:
138,359,75934,1,0,1:0:0:0:
62,286,76057,2,0,P|102:256|155:258,1,95.9999970703126,2|0,3:2|3:0,0:0:0:0:
451,88,76303,5,0,1:0:0:0:
369,115,76426,1,0,3:0:0:0:
330,192,76549,1,0,1:0:0:0:
359,274,76672,1,8,3:0:0:0:
323,353,76795,1,4,3:0:0:0:
241,378,76918,1,0,3:0:0:0:
221,374,77041,6,0,P|228:338|249:279,1,80,2|0,1:0|0:0,0:0:0:0:
241,296,79869,6,0,L|271:290,2,20,2|2|2,0:0|0:0|0:0,0:0:0:0:
170,356,80237,2,0,P|120:349|107:293,1,95.9999970703126,2|2,0:0|0:0,0:0:0:0:
103,311,80975,2,0,P|163:271|142:212,1,143.999995605469,2|0,0:0|0:0,0:0:0:0:
125,194,81467,2,0,P|190:180|203:141,1,95.9999970703126,2|0,0:0|0:0,0:0:0:0:
216,74,81959,5,2,0:0:0:0:
286,22,82205,2,0,P|342:18|370:74,1,95.9999970703126,2|2,0:0|0:0,0:0:0:0:
366,44,82942,2,0,P|313:103|353:153,2,143.999995605469,2|2|2,0:0|0:0|0:0,0:0:0:0:
464,21,83926,5,2,0:0:0:0:
460,41,84172,1,0,0:0:0:0:
455,61,84418,1,2,0:0:0:0:
455,61,84910,2,0,P|482:122|430:165,1,143.999995605469,2|2,0:0|0:0,0:0:0:0:
415,158,85893,6,0,B|395:101|454:64|468:95|522:50|496:-3,1,200,2|0,0:0|0:0,0:0:0:0:
