osu file format v14

[General]
AudioFilename: audio.ogg
AudioLeadIn: 0
PreviewTime: 55396
Countdown: 0
SampleSet: Normal
StackLeniency: 0.7
Mode: 1
LetterboxInBreaks: 0
WidescreenStoryboard: 1

[Editor]
Bookmarks: 16052,55396
DistanceSpacing: 1
BeatDivisor: 4
GridSize: 32
TimelineZoom: 1

[Metadata]
Title:Hanarenai Kyori (TV Size)
TitleUnicode:はなれない距離 (TV Size)
Artist:TrySail
ArtistUnicode:TrySail
Creator:Faputa
Version:Muzukashii
Source:阿波連さんははかれない
Tags:Nardoxyribonucleic _54fied 54 Consified Cinnamon_54 Aharen-san Aharensan wa hakarenai op opening anime Jpop J-pop pop Japanese
BeatmapID:3552263
BeatmapSetID:1737321

[Difficulty]
HPDrainRate:6.5
CircleSize:2
OverallDifficulty:4.5
ApproachRate:10
SliderMultiplier:1.4
SliderTickRate:1

[Events]
//Background and Video events
0,0,"aboren.jpg",0,0
Video,-32,"aharen.mp4"
//Break Periods
//Storyboard Layer 0 (Background)
//Storyboard Layer 1 (Fail)
//Storyboard Layer 2 (Pass)
//Storyboard Layer 3 (Foreground)
//Storyboard Layer 4 (Overlay)
//Storyboard Sound Samples

[TimingPoints]
315,491.803278688525,4,1,0,70,1,0
7937,-100,4,1,0,80,0,0
14331,-100,4,1,0,75,0,0
15929,-100,4,1,0,90,0,0
23675,-100,4,1,0,70,0,0
26626,-100,4,1,0,75,0,0
27733,-100,4,1,0,80,0,0
31913,-100,4,1,0,75,0,0
35601,-100,4,1,0,80,0,0
39905,-100,4,1,0,65,0,0
42855,-100,4,1,0,70,0,0
43470,-100,4,1,0,75,0,0
47405,-100,4,1,0,80,0,0
50417,-100,4,1,0,85,0,0
51585,-100,4,1,0,80,0,0
53377,-100,4,1,0,85,0,0
55274,-100,4,1,0,90,0,0
55396,-100,4,1,0,90,0,1
67200,-100,4,1,0,90,0,0
67446,-100,4,1,0,85,0,0
71011,-100,4,1,0,80,0,0
79003,491.803278688525,4,1,0,70,1,8
79986,491.803278688525,4,1,0,70,1,0
79986,-100,4,1,0,70,0,0
80109,-100,4,1,0,70,0,0
83798,-100,4,1,0,45,0,0
83920,503.14465408805,4,1,0,45,1,0
83920,-97.7459013188659,4,1,0,45,0,0
85765,-97.7459013188659,4,1,0,65,0,0
86011,-97.7459013188659,4,1,0,30,0,0
86257,-97.7459013188659,4,1,0,40,0,0
86503,-97.7459013188659,4,1,0,50,0,0
86749,-97.7459013188659,4,1,0,60,0,0
86995,-97.7459013188659,4,1,0,75,0,0

[HitObjects]
256,192,315,5,0,0:0:0:0:
256,192,806,1,8,0:0:0:0:
256,192,1544,1,8,0:0:0:0:
256,192,1790,1,8,0:0:0:0:
256,192,2036,1,0,0:0:0:0:
256,192,2528,1,0,0:0:0:0:
256,192,3019,1,8,0:0:0:0:
256,192,3511,1,8,0:0:0:0:
256,192,3757,1,8,0:0:0:0:
256,192,4003,1,0,0:0:0:0:
256,192,4249,1,0,0:0:0:0:
256,192,4741,1,8,0:0:0:0:
256,192,5233,1,0,0:0:0:0:
256,192,5970,1,0,0:0:0:0:
256,192,6216,1,8,0:0:0:0:
256,192,6585,1,8,0:0:0:0:
256,192,6954,1,0,0:0:0:0:
256,192,7200,1,8,0:0:0:0:
256,192,7692,1,8,0:0:0:0:
256,192,8183,1,4,0:0:0:0:
256,192,8429,1,8,0:0:0:0:
256,192,8675,1,0,0:0:0:0:
256,192,9167,1,4,0:0:0:0:
256,192,9413,1,8,0:0:0:0:
256,192,9659,1,8,0:0:0:0:
256,192,10151,1,4,0:0:0:0:
256,192,10396,1,8,0:0:0:0:
256,192,10642,1,0,0:0:0:0:
256,192,10888,1,12,0:0:0:0:
256,192,11380,1,0,0:0:0:0:
256,192,11626,1,8,0:0:0:0:
256,192,11749,1,8,0:0:0:0:
256,192,11872,1,8,0:0:0:0:
256,192,12118,1,12,0:0:0:0:
256,192,12610,1,0,0:0:0:0:
256,192,12855,1,8,0:0:0:0:
256,192,13101,1,0,0:0:0:0:
256,192,13347,1,0,0:0:0:0:
256,192,13593,1,8,0:0:0:0:
256,192,13716,1,8,0:0:0:0:
256,192,13839,1,8,0:0:0:0:
256,192,14085,1,0,0:0:0:0:
256,192,15069,1,8,0:0:0:0:
256,192,15315,1,8,0:0:0:0:
256,192,15560,1,8,0:0:0:0:
256,192,15806,1,8,0:0:0:0:
256,192,16052,1,4,0:0:0:0:
256,192,16298,1,8,0:0:0:0:
256,192,16544,1,8,0:0:0:0:
256,192,17036,1,8,0:0:0:0:
256,192,17405,1,0,0:0:0:0:
256,192,17651,1,8,0:0:0:0:
256,192,17774,1,8,0:0:0:0:
256,192,18019,1,0,0:0:0:0:
256,192,18265,1,8,0:0:0:0:
256,192,18511,1,0,0:0:0:0:
256,192,19003,1,0,0:0:0:0:
256,192,19372,1,8,0:0:0:0:
256,192,19618,1,0,0:0:0:0:
256,192,19741,1,0,0:0:0:0:
256,192,19987,1,12,0:0:0:0:
256,192,20478,1,8,0:0:0:0:
256,192,20970,1,8,0:0:0:0:
256,192,21216,1,8,0:0:0:0:
256,192,21462,1,0,0:0:0:0:
256,192,21585,1,0,0:0:0:0:
256,192,21708,1,0,0:0:0:0:
256,192,21954,1,8,0:0:0:0:
256,192,22323,1,0,0:0:0:0:
256,192,22692,1,0,0:0:0:0:
256,192,22937,1,8,0:0:0:0:
256,192,23429,1,8,0:0:0:0:
256,192,23921,1,4,0:0:0:0:
256,192,25642,1,4,0:0:0:0:
256,192,27118,1,8,0:0:0:0:
256,192,27364,1,8,0:0:0:0:
256,192,27487,1,8,0:0:0:0:
256,192,27610,1,8,0:0:0:0:
256,192,27855,1,4,0:0:0:0:
256,192,28347,1,0,0:0:0:0:
256,192,28593,1,8,0:0:0:0:
256,192,28839,1,8,0:0:0:0:
256,192,29331,1,0,0:0:0:0:
256,192,29577,1,8,0:0:0:0:
256,192,30069,1,8,0:0:0:0:
256,192,30315,1,0,0:0:0:0:
256,192,30437,1,0,0:0:0:0:
256,192,30560,1,0,0:0:0:0:
256,192,30806,1,0,0:0:0:0:
256,192,31052,1,8,0:0:0:0:
256,192,31298,1,0,0:0:0:0:
256,192,31544,1,8,0:0:0:0:
256,192,31790,1,4,0:0:0:0:
256,192,32282,1,8,0:0:0:0:
256,192,32774,1,8,0:0:0:0:
256,192,33142,1,0,0:0:0:0:
256,192,33388,1,8,0:0:0:0:
256,192,33511,1,8,0:0:0:0:
256,192,34003,1,8,0:0:0:0:
256,192,34249,1,0,0:0:0:0:
256,192,34495,1,0,0:0:0:0:
256,192,34741,1,8,0:0:0:0:
256,192,34987,1,0,0:0:0:0:
256,192,35233,1,8,0:0:0:0:
256,192,35355,1,8,0:0:0:0:
256,192,35478,1,8,0:0:0:0:
256,192,35724,1,4,0:0:0:0:
256,192,36216,1,0,0:0:0:0:
256,192,36708,1,8,0:0:0:0:
256,192,37200,1,8,0:0:0:0:
256,192,37446,1,4,0:0:0:0:
256,192,37937,1,0,0:0:0:0:
256,192,38183,1,8,0:0:0:0:
256,192,38429,1,0,0:0:0:0:
256,192,38675,1,8,0:0:0:0:
256,192,38921,1,8,0:0:0:0:
256,192,39044,1,8,0:0:0:0:
256,192,39167,1,8,0:0:0:0:
256,192,39413,1,0,0:0:0:0:
256,192,39659,1,12,0:0:0:0:
256,192,40151,1,0,0:0:0:0:
256,192,40396,1,0,0:0:0:0:
256,192,40642,1,8,0:0:0:0:
256,192,41134,1,0,0:0:0:0:
256,192,41626,1,8,0:0:0:0:
256,192,42118,1,8,0:0:0:0:
256,192,42610,1,0,0:0:0:0:
256,192,42978,1,8,0:0:0:0:
256,192,43101,1,8,0:0:0:0:
256,192,43593,1,12,0:0:0:0:
256,192,43962,1,8,0:0:0:0:
256,192,44331,1,4,0:0:0:0:
256,192,44823,1,8,0:0:0:0:
256,192,45315,1,0,0:0:0:0:
256,192,45560,1,12,0:0:0:0:
256,192,45929,1,8,0:0:0:0:
256,192,46298,1,4,0:0:0:0:
256,192,46790,1,8,0:0:0:0:
256,192,47282,1,0,0:0:0:0:
256,192,47528,1,12,0:0:0:0:
256,192,48019,1,8,0:0:0:0:
256,192,48265,1,8,0:0:0:0:
256,192,48511,1,0,0:0:0:0:
256,192,48757,1,8,0:0:0:0:
256,192,48880,1,8,0:0:0:0:
256,192,49249,1,0,0:0:0:0:
256,192,49495,1,8,0:0:0:0:
256,192,49741,1,0,0:0:0:0:
256,192,49987,1,8,0:0:0:0:
256,192,50110,1,8,0:0:0:0:
256,192,50233,1,8,0:0:0:0:
256,192,50478,1,0,0:0:0:0:
256,192,50601,1,0,0:0:0:0:
256,192,50847,1,8,0:0:0:0:
256,192,51216,1,0,0:0:0:0:
256,192,51462,1,12,0:0:0:0:
256,192,51954,1,8,0:0:0:0:
256,192,52200,1,8,0:0:0:0:
256,192,52446,1,0,0:0:0:0:
256,192,52569,1,0,0:0:0:0:
256,192,52692,1,0,0:0:0:0:
256,192,52937,1,8,0:0:0:0:
256,192,53183,1,8,0:0:0:0:
256,192,53429,1,0,0:0:0:0:
256,192,53552,1,0,0:0:0:0:
256,192,53798,1,8,0:0:0:0:
256,192,54167,1,0,0:0:0:0:
256,192,54413,1,8,0:0:0:0:
256,192,54536,1,8,0:0:0:0:
256,192,54659,1,8,0:0:0:0:
256,192,54905,1,0,0:0:0:0:
256,192,55396,1,12,0:0:0:0:
256,192,55888,1,8,0:0:0:0:
256,192,56380,1,0,0:0:0:0:
256,192,56626,1,8,0:0:0:0:
256,192,56749,1,8,0:0:0:0:
256,192,56872,1,8,0:0:0:0:
256,192,57118,1,8,0:0:0:0:
256,192,57364,1,0,0:0:0:0:
256,192,57610,1,8,0:0:0:0:
256,192,58101,1,8,0:0:0:0:
256,192,58347,1,0,0:0:0:0:
256,192,58593,1,8,0:0:0:0:
256,192,58716,1,8,0:0:0:0:
256,192,58839,1,8,0:0:0:0:
256,192,59085,1,8,0:0:0:0:
256,192,59331,1,0,0:0:0:0:
256,192,59823,1,8,0:0:0:0:
256,192,60069,1,0,0:0:0:0:
256,192,60315,1,8,0:0:0:0:
256,192,60806,1,0,0:0:0:0:
256,192,61052,1,8,0:0:0:0:
256,192,61298,1,8,0:0:0:0:
256,192,61544,1,0,0:0:0:0:
256,192,61667,1,8,0:0:0:0:
256,192,62036,1,8,0:0:0:0:
256,192,62282,1,4,0:0:0:0:
256,192,62528,1,12,0:0:0:0:
256,192,62774,1,12,0:0:0:0:
256,192,63265,1,12,0:0:0:0:
256,192,63511,1,0,0:0:0:0:
256,192,63757,1,8,0:0:0:0:
256,192,63880,1,8,0:0:0:0:
256,192,64003,1,8,0:0:0:0:
256,192,64249,1,0,0:0:0:0:
256,192,64495,1,8,0:0:0:0:
256,192,64741,1,0,0:0:0:0:
256,192,64987,1,8,0:0:0:0:
256,192,65478,1,8,0:0:0:0:
256,192,65601,1,8,0:0:0:0:
256,192,65724,1,8,0:0:0:0:
256,192,65970,1,0,0:0:0:0:
256,192,66216,1,8,0:0:0:0:
256,192,66462,1,0,0:0:0:0:
256,192,66585,1,0,0:0:0:0:
256,192,66708,1,0,0:0:0:0:
256,192,66954,1,8,0:0:0:0:
256,192,67200,1,4,0:0:0:0:
256,192,67692,1,8,0:0:0:0:
256,192,67937,1,0,0:0:0:0:
256,192,68183,1,8,0:0:0:0:
256,192,68921,1,0,0:0:0:0:
256,192,69167,1,8,0:0:0:0:
256,192,69536,1,0,0:0:0:0:
256,192,69905,1,8,0:0:0:0:
256,192,70151,1,0,0:0:0:0:
256,192,70396,1,8,0:0:0:0:
256,192,70519,1,8,0:0:0:0:
256,192,70642,1,8,0:0:0:0:
256,192,71134,1,4,0:0:0:0:
256,192,71380,1,8,0:0:0:0:
256,192,71626,1,0,0:0:0:0:
256,192,72118,1,4,0:0:0:0:
256,192,72364,1,8,0:0:0:0:
256,192,72610,1,8,0:0:0:0:
256,192,73101,1,4,0:0:0:0:
256,192,73347,1,8,0:0:0:0:
256,192,73593,1,0,0:0:0:0:
256,192,73839,1,12,0:0:0:0:
256,192,74331,1,0,0:0:0:0:
256,192,74577,1,8,0:0:0:0:
256,192,74700,1,8,0:0:0:0:
256,192,74823,1,8,0:0:0:0:
256,192,75069,1,12,0:0:0:0:
256,192,75560,1,8,0:0:0:0:
256,192,75806,1,8,0:0:0:0:
256,192,76052,1,0,0:0:0:0:
256,192,76298,1,0,0:0:0:0:
256,192,76544,1,8,0:0:0:0:
256,192,76667,1,8,0:0:0:0:
256,192,76790,1,8,0:0:0:0:
256,192,77036,1,8,0:0:0:0:
256,192,80231,1,0,0:0:0:0:
256,192,80477,1,0,0:0:0:0:
256,192,80969,1,8,0:0:0:0:
256,192,81338,1,0,0:0:0:0:
256,192,82200,1,0,0:0:0:0:
256,192,82446,1,0,0:0:0:0:
256,192,82937,1,8,0:0:0:0:
256,192,83306,1,8,0:0:0:0:
256,192,83675,1,8,0:0:0:0:
256,192,83920,2,0,L|292:158,12,35.8071273786073
256,192,85933,1,8,0:0:0:0:
256,192,86185,12,0,87191,0:0:0:0:
