osu file format v14

[General]
AudioFilename: audio.ogg
AudioLeadIn: 0
PreviewTime: 55396
Countdown: 0
SampleSet: Normal
StackLeniency: 0.7
Mode: 1
LetterboxInBreaks: 0
WidescreenStoryboard: 0

[Editor]
Bookmarks: 16052,55396
DistanceSpacing: 1
BeatDivisor: 4
GridSize: 32
TimelineZoom: 0.6999999

[Metadata]
Title:Hanarenai Kyori (TV Size)
TitleUnicode:はなれない距離 (TV Size)
Artist:TrySail
ArtistUnicode:TrySail
Creator:Faputa
Version:Kantan
Source:阿波連さんははかれない
Tags:Nardoxyribonucleic _54fied 54 Consified Cinnamon_54 Aharen-san Aharensan wa hakarenai op opening anime Jpop J-pop pop Japanese
BeatmapID:3553734
BeatmapSetID:1737321

[Difficulty]
HPDrainRate:8
CircleSize:2
OverallDifficulty:3
ApproachRate:10
SliderMultiplier:1.4
SliderTickRate:1

[Events]
//Background and Video events
0,0,"aboren.jpg",0,0
Video,-32,"aharen.mp4"
//Break Periods
//Storyboard Layer 0 (Background)
//Storyboard Layer 1 (Fail)
//Storyboard Layer 2 (Pass)
//Storyboard Layer 3 (Foreground)
//Storyboard Layer 4 (Overlay)
//Storyboard Sound Samples

[TimingPoints]
315,491.803278688525,4,1,0,70,1,0
7937,-100,4,1,0,80,0,0
14331,-100,4,1,0,75,0,0
15929,-100,4,1,0,90,0,0
23675,-100,4,1,0,70,0,0
26626,-100,4,1,0,75,0,0
27733,-100,4,1,0,80,0,0
31913,-100,4,1,0,75,0,0
35601,-100,4,1,0,80,0,0
39905,-100,4,1,0,65,0,0
42855,-100,4,1,0,70,0,0
43470,-100,4,1,0,75,0,0
47405,-100,4,1,0,80,0,0
50417,-100,4,1,0,85,0,0
51585,-100,4,1,0,80,0,0
53377,-100,4,1,0,85,0,0
55274,-100,4,1,0,90,0,0
55396,-100,4,1,0,90,0,1
67200,-100,4,1,0,90,0,0
67446,-100,4,1,0,85,0,0
71011,-100,4,1,0,80,0,0
79003,491.803278688525,4,1,0,70,1,8
79986,491.803278688525,4,1,0,70,1,0
83920,503.14465408805,4,1,0,45,1,0
83920,-97.7459013188659,4,1,0,45,0,0
85765,-97.7459013188659,4,1,0,65,0,0
86011,-97.7459013188659,4,1,0,30,0,0
86257,-97.7459013188659,4,1,0,40,0,0
86503,-97.7459013188659,4,1,0,50,0,0
86749,-97.7459013188659,4,1,0,60,0,0
86995,-97.7459013188659,4,1,0,75,0,0

[HitObjects]
256,192,315,5,0,0:0:0:0:
256,192,1298,1,8,0:0:0:0:
256,192,2282,1,0,0:0:0:0:
256,192,3265,1,8,0:0:0:0:
256,192,3757,1,8,0:0:0:0:
256,192,4249,1,0,0:0:0:0:
256,192,5233,1,8,0:0:0:0:
256,192,6216,1,8,0:0:0:0:
256,192,6708,1,8,0:0:0:0:
256,192,7200,1,0,0:0:0:0:
256,192,8183,1,4,0:0:0:0:
256,192,9167,1,4,0:0:0:0:
256,192,10151,1,4,0:0:0:0:
256,192,10888,1,12,0:0:0:0:
256,192,11626,1,8,0:0:0:0:
256,192,12118,1,12,0:0:0:0:
256,192,13101,1,0,0:0:0:0:
256,192,13593,1,8,0:0:0:0:
256,192,14085,1,0,0:0:0:0:
256,192,15069,1,8,0:0:0:0:
256,192,15560,1,8,0:0:0:0:
256,192,16052,1,4,0:0:0:0:
256,192,17036,1,8,0:0:0:0:
256,192,18019,1,0,0:0:0:0:
256,192,19003,1,8,0:0:0:0:
256,192,19495,1,0,0:0:0:0:
256,192,19987,1,12,0:0:0:0:
256,192,21954,1,0,0:0:0:0:
256,192,22937,1,8,0:0:0:0:
256,192,23429,1,8,0:0:0:0:
256,192,23921,1,4,0:0:0:0:
256,192,25642,1,4,0:0:0:0:
256,192,27364,1,8,0:0:0:0:
256,192,27855,1,4,0:0:0:0:
256,192,28839,1,8,0:0:0:0:
256,192,29823,1,0,0:0:0:0:
256,192,30315,1,0,0:0:0:0:
256,192,30806,1,8,0:0:0:0:
256,192,31298,1,8,0:0:0:0:
256,192,31790,1,4,0:0:0:0:
256,192,32774,1,8,0:0:0:0:
256,192,33265,1,8,0:0:0:0:
256,192,34249,1,0,0:0:0:0:
256,192,34741,1,8,0:0:0:0:
256,192,35724,1,4,0:0:0:0:
256,192,36708,1,8,0:0:0:0:
256,192,37446,1,4,0:0:0:0:
256,192,38675,1,8,0:0:0:0:
256,192,39167,1,0,0:0:0:0:
256,192,39659,1,12,0:0:0:0:
256,192,41626,1,8,0:0:0:0:
256,192,42610,1,0,0:0:0:0:
256,192,43593,1,12,0:0:0:0:
256,192,44331,1,4,0:0:0:0:
256,192,45560,1,12,0:0:0:0:
256,192,46298,1,4,0:0:0:0:
256,192,47528,1,12,0:0:0:0:
256,192,48511,1,0,0:0:0:0:
256,192,49003,1,0,0:0:0:0:
256,192,49495,1,8,0:0:0:0:
256,192,49987,1,8,0:0:0:0:
256,192,50478,1,0,0:0:0:0:
256,192,51462,1,12,0:0:0:0:
256,192,52446,1,0,0:0:0:0:
256,192,52937,1,8,0:0:0:0:
256,192,53429,1,0,0:0:0:0:
256,192,53921,1,0,0:0:0:0:
256,192,54413,1,8,0:0:0:0:
256,192,55396,1,12,0:0:0:0:
256,192,55888,1,8,0:0:0:0:
256,192,56872,1,8,0:0:0:0:
256,192,57364,1,0,0:0:0:0:
256,192,58347,1,8,0:0:0:0:
256,192,58839,1,8,0:0:0:0:
256,192,59331,1,0,0:0:0:0:
256,192,59823,1,8,0:0:0:0:
256,192,60315,1,8,0:0:0:0:
256,192,61298,1,0,0:0:0:0:
256,192,62282,1,8,0:0:0:0:
256,192,62774,1,0,0:0:0:0:
256,192,63265,1,12,0:0:0:0:
256,192,63757,1,8,0:0:0:0:
256,192,64741,1,8,0:0:0:0:
256,192,65233,1,0,0:0:0:0:
256,192,66216,1,8,0:0:0:0:
256,192,66708,1,8,0:0:0:0:
256,192,67200,1,4,0:0:0:0:
256,192,68183,1,8,0:0:0:0:
256,192,69167,1,0,0:0:0:0:
256,192,70151,1,0,0:0:0:0:
256,192,70642,1,8,0:0:0:0:
256,192,71134,1,4,0:0:0:0:
256,192,72118,1,4,0:0:0:0:
256,192,73101,1,4,0:0:0:0:
256,192,73839,1,12,0:0:0:0:
256,192,74577,1,8,0:0:0:0:
256,192,75069,1,12,0:0:0:0:
256,192,76052,1,0,0:0:0:0:
256,192,76544,1,0,0:0:0:0:
256,192,77036,1,8,0:0:0:0:
256,192,79986,1,0,0:0:0:0:
256,192,81953,1,0,0:0:0:0:
256,192,82936,1,8,0:0:0:0:
256,192,83920,1,0,0:0:0:0:
256,192,85932,1,8,0:0:0:0:
256,192,86184,12,0,87190,0:0:0:0:
