osu file format v14

[General]
AudioFilename: audio.mp3
AudioLeadIn: 0
PreviewTime: 57253
Countdown: 0
SampleSet: Soft
StackLeniency: 0.7
Mode: 0
LetterboxInBreaks: 0
WidescreenStoryboard: 1

[Editor]
Bookmarks: 67509
DistanceSpacing: 1
BeatDivisor: 4
GridSize: 32
TimelineZoom: 1.7

[Metadata]
Title:Gomakashi (TV Size)
TitleUnicode:ごまかし (TV Size)
Artist:TrySail
ArtistUnicode:TrySail
Creator:YukiZura-
Version:Normal
Source:マギアレコード 魔法少女まどか☆マギカ外伝
Tags:Magia Record Mahou Shoujo Madoka Magica Gaiden op opening japanese anime asuka_- 麻倉 もも asakura momo 雨宮 天 amamiya sora 夏川 椎菜 natsukawa shiina version short ver.
BeatmapID:2281647
BeatmapSetID:1090507

[Difficulty]
HPDrainRate:4
CircleSize:3
OverallDifficulty:4
ApproachRate:5
SliderMultiplier:1
SliderTickRate:1

[Events]
//Background and Video events
0,0,"tamaki.jpg",0,0
//Break Periods
//Storyboard Layer 0 (Background)
//Storyboard Layer 1 (Fail)
//Storyboard Layer 2 (Pass)
//Storyboard Layer 3 (Foreground)
//Storyboard Layer 4 (Overlay)
//Storyboard Sound Samples

[TimingPoints]
1142,317.460317460317,4,2,1,40,1,0
1142,-100,4,2,1,40,0,0
12570,-100,4,2,1,40,0,0
13522,-100,4,2,1,40,0,0
13840,-100,4,2,1,65,0,0
23999,-100,4,2,1,45,0,0
33999,-100,4,2,1,55,0,0
44316,-100,4,2,1,65,0,0
44554,-100,4,2,1,5,0,0
44634,-100,4,2,1,65,0,0
45665,-100,4,2,1,5,0,0
45745,-100,4,2,1,65,0,0
49634,-100,4,2,1,5,0,0
49713,-100,4,2,1,65,0,0
50745,-100,4,2,1,5,0,0
50824,-100,4,2,1,65,0,0
52253,-100,4,2,1,30,0,0
52570,-100,4,2,1,40,0,0
52888,-100,4,2,1,50,0,0
53205,-100,4,2,1,60,0,0
53522,-100,4,2,1,70,0,0
54475,-100,4,2,1,55,0,0
56380,-100,4,2,1,65,0,0
57015,-100,4,2,1,80,0,1
63602,-100,4,2,1,5,0,1
63681,-100,4,2,1,80,0,1
64554,-100,4,2,1,5,0,1
64634,-100,4,2,1,80,0,1
73761,-100,4,2,1,5,0,1
73840,-100,4,2,1,80,0,1
74713,-100,4,2,1,5,0,1
74792,-100,4,2,1,80,0,1
76062,-100,4,2,1,65,0,0
77332,-100,4,2,1,40,0,0
77649,-100,4,2,1,45,0,0
77967,-100,4,2,1,50,0,0
78284,-100,4,2,1,55,0,0
78602,-100,4,2,1,60,0,0
78919,-100,4,2,1,65,0,0
79237,-100,4,2,1,70,0,0
79554,-100,4,2,1,75,0,0
79872,-100,4,2,1,80,0,0
81618,-100,4,2,1,65,0,0
82411,-100,4,2,1,55,0,0
83681,-100,4,2,1,45,0,0

[Colours]
Combo1 : 255,102,179
Combo2 : 51,153,255
Combo3 : 255,0,255
Combo4 : 255,230,130

[HitObjects]
421,82,1142,6,0,B|428:160|428:160|445:193|445:193|455:298,1,200,2|0,3:2|0:0,0:0:0:0:
385,351,2094,1,2,0:0:0:0:
306,289,2411,2,0,P|239:253|118:296,1,200,2|0,0:0|0:0,0:0:0:0:
46,348,3364,1,2,0:0:0:0:
2,257,3681,6,0,L|19:97,2,150,2|2|2,3:2|3:2|0:0,0:0:0:0:
46,348,4951,2,0,B|96:312|96:312|238:342,1,200,2|0,0:0|0:0,0:0:0:0:
330,357,5903,1,2,0:0:0:0:
430,352,6221,6,0,P|449:315|439:188,2,150,2|2|2,3:2|0:0|0:0,0:0:0:0:
330,357,7491,2,0,B|303:288|303:288|338:238|338:238|310:172,1,200,2|0,0:0|0:0,0:0:0:0:
225,129,8443,1,2,0:0:0:0:
164,52,8761,6,0,P|237:37|304:68,2,150,2|2|2,3:2|3:2|0:0,0:0:0:0:
256,192,10030,12,0,12570,0:0:0:0:
381,335,13522,5,0,0:0:0:0:
435,250,13840,6,0,L|422:144,1,100,6|8,3:2|0:0,0:0:0:0:
368,66,14475,2,0,P|310:55|259:69,1,100,2|10,3:2|3:2,0:0:0:0:
233,97,14951,2,0,L|129:76,1,100,2|0,0:0|0:0,0:0:0:0:
46,29,15586,2,0,P|36:74|54:130,1,100,2|0,3:2|3:2,0:0:0:0:
74,169,16062,1,10,0:0:0:0:
117,259,16380,6,0,L|127:372,1,100,6|10,3:2|0:0,0:0:0:0:
211,307,17015,2,0,L|203:240,2,50,2|2|10,3:2|3:2|3:2,0:0:0:0:
238,348,17491,2,0,P|288:335|346:361,1,100,2|2,0:0|0:0,0:0:0:0:
432,335,18126,2,0,B|417:278|417:278|445:171,1,150,2|10,3:2|0:0,0:0:0:0:
456,91,18919,6,0,L|355:69,1,100,6|8,3:2|0:0,0:0:0:0:
261,95,19554,2,0,P|250:153|264:204,1,100,2|10,3:2|3:2,0:0:0:0:
284,235,20030,2,0,P|295:293|281:344,1,100,2|0,3:2|3:2,0:0:0:0:
194,371,20665,2,0,L|86:356,1,100,2|8,3:2|0:0,0:0:0:0:
45,351,21141,1,10,0:0:0:0:
13,255,21459,6,0,P|12:200|29:156,1,100,2|2,3:2|0:0,0:0:0:0:
110,102,22094,2,0,L|227:85,1,100,2|2,3:2|0:0,0:0:0:0:
299,43,22729,2,0,L|416:60,1,100,6|0,0:0|0:0,0:0:0:0:
467,129,23364,2,0,P|476:172|458:230,1,100,2|0,0:0|0:0,0:0:0:0:
413,313,23999,6,0,B|314:366|305:266|206:324,1,200,2|2,3:2|0:0,0:0:0:0:
134,360,24951,1,2,0:0:0:0:
64,288,25268,2,0,B|54:218|54:218|88:147|88:147|80:87,1,200,2|0,0:0|0:0,0:0:0:0:
151,24,26221,1,2,0:0:0:0:
218,97,26538,6,0,P|278:113|324:97,1,100,2|2,0:0|0:0,0:0:0:0:
355,76,27015,2,0,P|415:60|461:76,1,100,2|2,0:0|0:0,0:0:0:0:
473,217,27808,2,0,B|417:175|417:175|290:214,1,200,2|2,0:0|0:0,0:0:0:0:
241,299,28761,1,2,0:0:0:0:
148,261,29078,6,0,P|101:171|138:62,1,200,2|0,0:0|0:0,0:0:0:0:
208,25,30030,1,2,0:0:0:0:
282,91,30348,2,0,L|500:62,1,200,2|0,0:0|0:0,0:0:0:0:
471,164,31300,1,2,0:0:0:0:
391,223,31617,6,0,P|375:283|391:329,1,100,2|2,0:0|0:0,0:0:0:0:
397,366,32094,2,0,L|298:357,1,100,2|2,0:0|0:0,0:0:0:0:
161,293,32888,2,0,L|81:309,2,75,2|2|2,0:0|0:0|0:0,0:0:0:0:
210,285,33522,1,2,3:2:0:0:
319,181,33999,6,0,P|321:112|302:72,1,100,6|0,3:2|0:0,0:0:0:0:
271,51,34475,2,0,L|171:58,1,100,0|0,3:2|3:2,0:0:0:0:
71,61,35110,1,2,3:2:0:0:
19,146,35427,2,0,B|0:217|0:217|70:335,1,200,2|0,3:2|3:2,0:0:0:0:
160,354,36380,2,0,L|225:341,1,50,2|8,3:2|0:0,0:0:0:0:
247,312,36697,6,0,L|358:322,1,100,2|2,3:2|3:2,0:0:0:0:
396,328,37173,1,2,0:0:0:0:
472,263,37491,2,0,P|503:215|499:165,1,100,2|8,0:0|0:0,0:0:0:0:
485,126,37967,2,0,L|503:25,2,100,2|2|2,3:2|3:2|3:2,0:0:0:0:
407,189,38919,1,2,3:2:0:0:
348,107,39237,6,0,B|314:59|314:59|239:37|156:86,1,200,6|0,3:2|3:2,0:0:0:0:
93,129,40189,2,0,P|64:178|66:241,1,100,2|2,3:2|3:2,0:0:0:0:
98,318,40824,1,2,3:2:0:0:
98,318,40983,2,0,L|213:310,1,100,10|2,0:0|3:2,0:0:0:0:
344,341,41776,6,0,L|458:330,1,100,6|0,3:2|3:2,0:0:0:0:
496,321,42253,1,2,0:0:0:0:
496,321,42411,2,0,P|509:274|496:203,1,100,2|0,3:2|3:2,0:0:0:0:
456,135,43046,2,0,P|446:103|451:70,2,50,0|8|8,3:2|0:0|0:0,0:0:0:0:
387,207,43681,2,0,L|273:194,1,100,2|2,0:0|0:0,0:0:0:0:
188,183,44316,5,6,3:2:0:0:
106,240,44634,2,0,P|101:287|137:345,1,100,10|0,0:0|3:2,0:0:0:0:
220,358,45268,1,8,0:0:0:0:
220,358,45427,2,0,L|343:343,1,100,2|2,3:2|3:2,0:0:0:0:
411,306,46062,2,0,L|469:311,1,50,0|0,3:2|3:2,0:0:0:0:
508,222,46538,1,8,0:0:0:0:
459,134,46856,6,0,L|472:39,2,75,2|2|2,3:2|0:0|3:2,0:0:0:0:
428,173,47491,1,2,3:2:0:0:
350,109,47808,2,0,P|312:99|289:98,1,50,10|2,0:0|3:2,0:0:0:0:
257,187,48284,2,0,P|279:261|275:347,1,150,2|0,3:2|3:2,0:0:0:0:
187,377,49078,1,8,0:0:0:0:
99,329,49395,6,0,P|45:350|-15:363,2,100,2|10|2,3:2|0:0|3:2,0:0:0:0:
160,249,50348,2,0,P|165:219|155:178,1,50,10|2,0:0|3:2,0:0:0:0:
121,108,50824,2,0,P|153:50|238:54,1,150,2|2,3:2|3:2,0:0:0:0:
320,91,51618,1,10,0:0:0:0:
402,34,51935,6,0,B|446:21|446:21|507:38,1,100,2|0,3:2|3:2,0:0:0:0:
454,125,52570,2,0,P|438:166|443:232,1,100,2|0,3:2|3:2,0:0:0:0:
422,319,53205,2,0,L|312:296,1,100,2|0,3:2|3:2,0:0:0:0:
227,270,53840,1,2,3:2:0:0:
133,305,54157,1,2,3:2:0:0:
70,226,54475,6,0,P|86:153|201:135,2,200,6|2|2,3:2|0:0|0:0,0:0:0:0:
242,327,56380,2,0,B|296:284|296:284|447:307,1,200,2|6,0:0|3:2,0:0:0:0:
498,234,57332,5,10,0:0:0:0:
458,142,57649,2,0,L|464:75,2,50,2|2|10,3:2|3:2|3:2,0:0:0:0:
424,179,58126,2,0,P|380:199|315:193,1,100,2|2,0:0|0:0,0:0:0:0:
255,130,58761,2,0,P|211:110|146:116,1,100,0|0,0:0|3:2,0:0:0:0:
118,136,59237,1,10,0:0:0:0:
118,136,59395,6,0,L|98:246,1,100,2|0,0:0|0:0,0:0:0:0:
87,283,59872,1,10,0:0:0:0:
172,334,60189,2,0,L|177:389,2,50,2|2|10,3:2|3:2|3:2,0:0:0:0:
195,289,60665,2,0,P|241:272|305:289,1,100,2|2,0:0|0:0,0:0:0:0:
376,330,61300,2,0,P|422:347|486:330,1,100,0|0,0:0|3:2,0:0:0:0:
502,299,61776,1,10,0:0:0:0:
502,299,61935,6,0,L|491:191,1,100,2|0,3:2|0:0,0:0:0:0:
486,149,62411,1,8,0:0:0:0:
418,75,62729,2,0,P|367:49|316:54,2,100,2|10|2,3:2|0:0|3:2,0:0:0:0:
352,150,63681,1,8,0:0:0:0:
382,245,63999,2,0,L|371:357,2,100,2|10|6,3:2|0:0|3:2,0:0:0:0:
352,150,64951,5,10,0:0:0:0:
352,150,65110,2,0,L|251:166,1,100,2|2,3:2|3:2,0:0:0:0:
219,202,65586,1,10,3:2:0:0:
219,202,65745,2,0,L|61:177,1,150,2|8,3:2|0:0,0:0:0:0:
37,84,66538,2,0,P|73:55|141:44,1,100,2|10,3:2|0:0,0:0:0:0:
223,59,67173,2,0,P|255:65|286:62,1,50,0|0,3:2|3:2,0:0:0:0:
322,57,67491,5,14,0:0:0:0:
415,92,67808,2,0,P|423:64|421:25,2,50,2|2|10,3:2|3:2|3:2,0:0:0:0:
394,138,68285,2,0,P|382:185|398:252,1,100,2|2,0:0|0:0,0:0:0:0:
404,334,68920,2,0,L|295:320,1,100,0|0,0:0|3:2,0:0:0:0:
264,302,69396,1,10,0:0:0:0:
264,302,69554,6,0,L|146:318,1,100,2|0,0:0|0:0,0:0:0:0:
115,323,70031,1,10,0:0:0:0:
15,313,70348,2,0,P|14:348|20:368,2,50,2|2|10,3:2|3:2|3:2,0:0:0:0:
35,267,70824,2,0,P|52:221|35:157,1,100,2|2,0:0|0:0,0:0:0:0:
25,73,71459,2,0,L|133:80,1,100,0|0,0:0|3:2,0:0:0:0:
171,110,71935,1,10,3:2:0:0:
171,110,72094,6,0,L|279:103,1,100,2|0,3:2|0:0,0:0:0:0:
314,78,72570,1,10,0:0:0:0:
396,20,72888,2,0,P|444:3|508:18,2,100,2|10|2,3:2|0:0|3:2,0:0:0:0:
412,118,73840,1,8,0:0:0:0:
359,203,74158,2,0,L|348:315,2,100,2|10|6,3:2|0:0|3:2,0:0:0:0:
462,217,75110,5,10,0:0:0:0:
462,217,75269,2,0,L|471:324,1,100,2|2,3:2|0:0,0:0:0:0:
330,370,76062,2,0,P|259:309|145:333,1,200,2|8,3:2|3:2,0:0:0:0:
74,376,77015,1,2,0:0:0:0:
16,294,77332,6,0,L|26:186,1,100,2|2,3:2|3:2,0:0:0:0:
69,104,77967,2,0,P|118:82|178:83,1,100,2|2,3:2|3:2,0:0:0:0:
256,41,78602,2,0,P|305:63|365:62,1,100,2|2,3:2|3:2,0:0:0:0:
448,45,79237,1,2,3:2:0:0:
421,141,79554,1,2,3:2:0:0:
477,223,79872,6,0,L|468:330,1,100,14|8,3:2|0:0,0:0:0:0:
451,369,80348,2,0,P|388:332|359:334,1,100,2|0,3:2|3:2,0:0:0:0:
315,349,80824,1,8,3:2:0:0:
270,259,81141,2,0,L|272:149,1,100,2|2,3:2|3:2,0:0:0:0:
245,116,81618,2,0,P|181:78|120:117,1,150,2|0,3:2|0:0,0:0:0:0:
53,40,82411,6,0,B|-34:183|107:170|42:330,1,300,2|0,0:0|0:0,0:0:0:0:
130,376,83681,2,0,P|172:351|233:350,2,100,2|2|2,0:0|0:0|0:0,0:0:0:0:
256,220,84951,6,0,L|241:57,1,150,2|2,0:0|0:0,0:0:0:0:
466,180,86221,2,0,L|452:329,1,150,2|2,0:0|0:0,0:0:0:0:
444,79,87491,6,0,B|260:-46|254:163|58:44,1,400,2|0,0:0|0:0,0:0:0:0:
